osu file format v9

[General]
AudioFilename: 01 - secret base ~Kimi ga Kureta Mono~ (10 years after Ver.).mp3
AudioLeadIn: 2000
PreviewTime: 96915
Countdown: 0
SampleSet: Soft
StackLeniency: 0.7
Mode: 0
LetterboxInBreaks: 0
StoryFireInFront: 0

[Editor]
DistanceSpacing: 1.3
BeatDivisor: 6
GridSize: 8

[Metadata]
Title:secret base ~Kimi ga Kureta Mono~ (10 years after Ver.)
Artist:Kayano Ai
Creator:happy30
Version:Normal
Source:Ano Hi Mita Hana no Namae wo Bokutachi wa Mada Shiranai
Tags:honma meiko menma ed ending tomatsu haruka hayami saori anohana zone estlabo spboxer3 dangaard

[Difficulty]
HPDrainRate:3
CircleSize:4
OverallDifficulty:3
ApproachRate:5
SliderMultiplier:1.5
SliderTickRate:1

[Events]
//Background and Video events
0,0,"Background.jpg"
//Break Periods
2,37419,39153
2,133487,144824
//Storyboard Layer 0 (Background)
//Storyboard Layer 1 (Fail)
//Storyboard Layer 2 (Pass)
//Storyboard Layer 3 (Foreground)
//Storyboard Sound Samples
//Background Colour Transformations
3,100,163,162,255

[TimingPoints]
-2632,895.522388059701,4,2,1,60,1,0
10651,-100,4,2,1,5,0,0
10800,-100,4,2,1,60,0,0
94084,-200,4,2,1,60,0,0
96770,-200,4,2,1,5,0,0
97666,-100,4,2,1,60,0,1
133487,-100,4,2,1,60,0,0
158562,-200,4,2,1,60,0,0
161248,-200,4,2,1,5,0,0
161397,-200,4,2,1,60,0,0
162144,-100,4,2,1,60,0,1
181845,-100,4,2,1,80,0,1
181994,-100,4,1,1,50,0,1
182144,-100,4,2,1,80,0,1
182293,-100,4,1,1,50,0,1
182442,-100,4,2,1,80,0,1
182741,-100,4,1,1,50,0,1
183338,-100,4,2,1,80,0,1
183636,-100,4,2,1,80,0,0
219457,-100,4,2,1,80,0,1
292890,-100,4,2,1,40,0,1
293785,-100,4,2,1,80,0,0
294681,-100,4,2,1,80,0,1
323338,-100,4,2,1,80,0,0

[Colours]
Combo1 : 255,109,21
Combo2 : 217,224,205
Combo3 : 128,174,213
Combo4 : 255,64,73
Combo5 : 247,94,177

[HitObjects]
104,296,950,2,0,B|256:344,1,150
288,296,2144,2,0,B|352:288|400:248,1,100
432,184,3188,1,0
392,104,3636,1,2
304,88,4084,1,0
240,152,4532,6,0,B|272:312,1,150
232,344,5726,2,0,B|176:368|128:328,1,100
80,264,6770,1,0
120,184,7218,1,2
488,288,8114,54,0,B|328:320,1,150
280,184,9756,2,0,B|368:120|456:208,1,175,0|2
416,280,11248,1,0
352,344,11696,6,0,B|192:312,1,150
160,232,13039,1,0
200,152,13487,2,0,B|152:72|56:120,1,150,0|2
16,184,14830,1,0
48,264,15278,53,0
200,168,16173,1,0
344,272,17069,2,0,B|424:248|512:280,1,150,0|2
464,184,18412,1,0
392,136,18860,5,0
232,224,19756,1,0
176,152,20203,1,0
240,88,20651,2,0,B|352:200|192:256|288:384,1,300,0|4
416,256,23338,53,8
288,176,24084,1,0
288,176,24233,1,0
208,208,24681,1,0
152,280,25129,1,8
144,368,25576,1,0
232,352,26024,5,2
96,232,26920,1,8
216,144,27666,1,0
216,144,27815,1,0
168,72,28263,1,0
80,72,28711,1,8
24,144,29159,2,0,B|0:184|8:232,1,75,0|4
56,288,30054,53,0
136,248,30502,2,0,B|296:224,1,150,8|0
352,288,31845,1,0
320,376,32293,2,0,B|160:352,1,150,8|0
296,224,34084,1,8
168,152,34830,1,0
168,152,34979,1,0
224,80,35427,1,0
296,136,35875,1,8
240,208,36323,2,0,B|240:240,3,25,0|8|8|8
480,272,40353,5,8
312,336,41248,1,0
240,272,41696,1,0
160,320,42144,2,0,B|112:304|64:312,1,75
48,264,42890,2,0,B|104:248|152:208,1,100
200,152,43935,53,8
320,288,44830,1,0
392,224,45278,1,0
344,136,45726,2,0,B|328:96|336:40,1,75
296,16,46472,2,0,B|240:32|192:72,1,100
232,144,47517,5,8
304,200,47965,2,0,B|320:240|304:296,1,75
256,304,48711,2,0,B|200:304|152:336,1,100
104,352,49606,2,0,B|8:336,1,75
8,224,50651,1,0
96,256,51099,54,0,B|184:232,1,75,8|0
224,216,51845,2,0,B|216:136|256:72,1,150
344,152,53338,1,0
376,232,53785,1,2
32,272,54681,5,8
96,336,55129,2,0,B|160:320,1,50
176,312,55576,1,2
240,248,56024,1,0
312,296,56472,2,0,B|360:280|408:288,1,75
424,240,57218,2,0,B|368:224|320:184,1,100
264,136,58263,53,8
328,72,58711,2,0,B|392:56,1,50
408,48,59159,1,2
456,128,59606,1,0
408,200,60054,2,0,B|424:240|416:296,1,75
368,304,60800,2,0,B|312:320|264:360,1,100
208,288,61845,5,8
248,208,62293,2,0,B|232:168|248:112,1,75
208,88,63039,2,0,B|152:88|104:120,1,100
56,104,63935,2,0,B|40:200,1,75
88,256,64830,1,0
88,256,64979,1,0
160,208,65427,54,0,B|248:184,1,75,8|0
280,224,66173,2,0,B|272:304|312:368,1,150
432,384,67666,1,0
480,304,68114,1,2
432,224,68562,1,0
344,216,69009,6,0,B|280:280|208:280,1,150,8|2
136,248,70353,1,0
56,200,70800,2,0,B|16:272|40:360,2,150,0|2|8
120,144,73039,53,0
208,176,73487,2,0,B|264:144|304:192|376:160,1,150,2|8
424,112,74830,1,0
488,176,75278,1,2
424,240,75726,1,0
360,176,76173,6,0,B|304:232|320:320,1,150,8|2
248,368,77517,1,0
192,296,77965,2,0,B|200:224|160:152,1,150,0|2
80,120,79308,1,0
24,192,79756,54,0,B|88:256,1,75,8|0
56,304,80502,2,0,B|96:352|144:344,1,100
232,320,81547,1,0
288,248,81994,1,0
272,160,82442,1,2
208,96,82890,1,0
120,96,83338,5,8
120,96,84084,2,0,B|80:144|80:208,1,100
136,256,85129,1,2
136,256,85875,2,0,B|176:304|176:368,1,100
248,296,86920,53,8
320,352,87368,2,0,B|456:328,1,125
472,320,88263,1,0
496,232,88711,1,2
440,160,89159,2,0,B|408:144|376:144,1,50
304,232,90054,5,0
232,288,90502,2,0,B|152:320|80:264,1,150,8|0
40,200,91845,1,0
80,120,92293,53,2
248,352,93188,1,0
200,272,93636,1,0
248,184,94084,2,0,B|312:128|384:216|464:160,1,225,8|0
112,88,97666,22,0,B|72:120|56:160,1,75,12|0
112,264,98562,1,2
160,296,98860,2,0,B|216:280|280:280,1,100,0|8
376,336,99905,1,8
432,224,100353,1,2
384,192,100651,2,0,B|328:208|264:208,1,100,0|8
184,128,101696,5,0
272,32,102144,1,2
320,64,102442,2,0,B|336:120|336:184,1,100,0|8
256,248,103487,1,8
144,184,103935,2,0,B|128:136|128:104,1,75,2|0
56,72,104681,5,0
56,72,104830,2,0,B|40:120|40:152,1,75,8|0
72,272,105726,2,0,B|112:280|168:272,1,75,2|0
192,312,106472,2,0,B|248:312|296:336,1,100,0|8
384,256,107517,37,2
328,144,107965,2,0,B|280:152|240:168,1,75,0|8
152,88,108860,1,0
56,176,109308,1,2
136,272,109756,1,0
248,208,110203,2,0,B|192:176|160:168,2,75,0|8|2
320,312,111547,1,0
424,240,111994,22,0,B|456:200|496:184,1,75,4|0
496,136,112741,1,0
496,136,112890,2,0,B|424:144|352:96,1,150,2|8
280,200,114233,1,8
336,312,114681,1,2
304,352,114979,1,0
304,352,115129,2,0,B|208:368,1,75,0|8
120,304,116024,37,0
232,240,116472,1,2
264,192,116770,2,0,B|320:176|384:176,1,100,0|8
272,88,117815,1,8
152,128,118263,2,0,B|112:112|88:112,1,50,2|0
80,112,118711,1,0
24,224,119159,6,0,B|40:272|40:304,1,75,4|0
152,352,120054,2,0,B|160:312|152:256,1,75,2|0
192,232,120800,2,0,B|192:176|216:128,1,100,0|8
320,72,121845,1,2
296,200,122293,2,0,B|304:248|320:288,1,75,0|8
408,360,123188,5,0
496,272,123636,1,2
400,184,124084,1,0
312,280,124532,2,0,B|264:296|224:320,2,75,0|8|2
432,320,125875,1,0
504,216,126323,38,0,B|488:128|416:80,1,150,4|2
224,200,128114,1,8
224,200,128562,1,8
120,128,129009,5,2
56,240,129457,1,0
152,328,129905,2,0,B|168:240|240:192,1,150,4|2
304,144,131248,5,0
376,208,131696,2,0,B|456:216,1,75,0|8
450,215,132591,1,8
256,336,146024,5,0
288,248,146472,1,0
256,160,146920,1,2
192,96,147368,1,0
256,32,147815,38,0,B|328:64|408:32,1,150,8|2
480,88,149159,1,0
448,176,149606,38,0,B|376:208|296:176,1,150,0|2
216,144,150950,1,0
152,216,151397,21,8
96,240,151696,2,0,B|72:280|72:320,2,75
80,224,152741,2,0,B|56:200|32:176,1,50
32,168,153188,2,0,B|32:136|48:112,1,50
128,120,153935,2,0,B|176:88|232:104,1,100
280,168,154979,21,8
232,240,155427,1,0
256,296,155726,2,0,B|296:328|352:312,1,100
424,264,156770,1,0
416,80,157666,1,0
328,56,158114,1,0
256,104,158562,6,0,B|224:192|296:232|256:328,1,225,8|0
400,88,162144,54,0,B|440:120|456:160,1,75,12|0
400,264,163039,1,2
352,296,163338,2,0,B|296:280|232:280,1,100,0|8
136,336,164382,1,8
80,224,164830,1,2
128,192,165129,2,0,B|184:208|248:208,1,100,0|8
328,128,166173,5,0
240,32,166621,1,2
192,64,166920,2,0,B|176:120|176:184,1,100,0|8
256,248,167965,1,8
368,184,168412,2,0,B|384:136|384:104,1,75,2|0
456,72,169159,53,0
456,72,169308,2,0,B|472:120|472:152,1,75,12|0
440,272,170203,2,0,B|400:280|344:272,1,75,2|0
320,312,170950,2,0,B|264:312|216:336,1,100,0|8
128,256,171994,5,2
184,144,172442,2,0,B|232:152|272:168,1,75,0|8
360,88,173338,1,0
456,176,173785,1,2
376,272,174233,1,0
264,208,174681,2,0,B|320:176|352:168,2,75,0|8|2
192,312,176024,1,0
88,240,176472,54,0,B|56:200|16:184,1,75,4|0
16,136,177218,1,0
16,136,177368,2,0,B|88:144|160:96,1,150,2|8
232,200,178711,1,8
176,312,179159,1,2
288,368,179606,1,0
344,256,180054,5,4
464,224,180502,1,8
424,104,180950,2,0,B|360:72|288:104,1,125,8|0
288,112,181845,2,0,B|280:144,6,25,8|0|0|0|0|0|0
200,128,183188,2,0,B|192:160,3,25,0|0|0|4
48,264,184532,53,8
136,288,184979,1,0
200,352,185427,2,0,B|352:320,1,150,2|8
416,264,186770,1,0
432,176,187218,2,0,B|356:174|280:208,1,150,0|8
224,272,188562,1,0
144,224,189009,2,0,B|120:184|80:168,2,75,2|0|8
320,192,190800,5,4
432,328,191696,1,8
464,240,192144,1,0
464,152,192591,2,0,B|448:72|360:24,1,150,2|8
328,64,193785,1,0
328,64,193935,2,0,B|304:104|296:144,1,75,0|2
256,216,194830,1,0
200,160,195278,2,0,B|152:120|72:136,1,125,8|0
32,208,196472,1,0
32,208,196621,1,0
80,280,197069,1,8
168,248,197517,1,0
224,320,197965,54,0,B|304:352|376:320,1,150,4|0
448,280,199308,1,0
400,208,199756,2,0,B|320:240|248:208,1,150,2|8
184,152,201099,1,0
112,104,201547,2,0,B|48:160|56:256,1,150,0|8
152,352,203188,1,0
152,352,203338,1,0
232,312,203785,1,0
264,224,204233,1,8
224,144,204681,1,0
296,96,205129,6,0,B|360:112|432:96,1,125,4|0
448,88,206024,2,0,B|472:120|472:168,1,75,8|0
392,192,206920,2,0,B|376:256|392:328,1,125
400,344,207815,2,0,B|368:368|320:368,1,75,12|0
240,352,208711,53,8
176,288,209159,2,0,B|160:248|144:240,1,50,8|0
128,224,209606,1,8
200,176,210054,2,0,B|216:136|232:128,1,50
248,112,210502,1,8
328,80,210950,5,0
408,112,211397,1,8
456,192,211845,1,0
440,280,212293,54,0,B|416:368|320:352,1,150,4|8
256,296,213636,2,0,B|256:256|232:216,1,75
184,248,214382,2,0,B|136:272|80:248,1,100,0|8
24,184,215427,1,0
72,112,215875,6,0,B|66:72|48:32,2,75,0|0|8
152,152,217218,1,0
216,88,217666,2,0,B|256:72|312:80,1,75,0|8
336,120,218412,1,0
336,120,218562,2,0,B|312:152|304:192,1,75
392,216,219457,6,0,B|424:248|432:296,1,75,4|0
352,376,220353,1,10
320,328,220651,2,0,B|272:296|208:304,1,100
168,192,221696,2,0,B|144:104,1,75,2|8
96,96,222442,2,0,B|40:120|32:192,1,100
56,288,223487,5,0
152,360,223935,1,10
272,336,224382,2,0,B|352:312,1,75,0|0
376,264,225129,1,0
376,264,225278,2,0,B|344:232|288:232,1,75,0|8
200,192,226173,1,0
264,96,226621,6,0,B|336:120|416:96,1,150,4|8
424,216,227965,1,2
480,240,228263,2,0,B|464:288|464:352,1,100,0|0
336,224,229308,2,0,B|296:224|248:240,1,75,8|2
224,280,230054,37,0
224,280,230203,2,0,B|208:320|200:352,2,75,8|2|8
152,184,231547,2,0,B|128:144|112:128,1,50,2|0
104,120,231994,2,0,B|120:80|128:48,2,75,0|2|0
16,208,233338,1,2
48,328,233785,6,0,B|80:360|128:368,1,75,4|0
184,320,234532,1,0
208,304,234681,2,0,B|304:288,1,75,10|0
328,224,235427,1,0
344,200,235576,2,0,B|440:216,1,75,0|2
488,168,236323,2,0,B|520:112|496:64,1,100,0|2
392,16,237368,5,8
304,96,237815,1,0
376,192,238263,1,10
336,224,238562,2,0,B|304:264|304:320,1,100
376,360,239457,1,0
392,344,239606,2,0,B|424:320|480:312,1,75,2|8
424,192,240502,1,2
304,248,240950,38,0,B|224:224|152:248,1,150,4|10
72,344,242293,1,0
16,320,242591,2,0,B|32:272|32:208,1,100,0|8
88,104,243636,2,0,B|128:104|176:88,1,75,10|0
240,128,244382,5,0
240,128,244532,2,0,B|256:88|264:56,2,75,8|2|0
352,192,245875,1,2
240,248,246323,2,8,B|200:264,3,25
152,360,247218,2,8,B|112:376,3,25
48,272,248114,54,0,B|8:240|-8:200,1,75,12|2
48,96,249009,1,8
96,128,249308,2,0,B|152:112|216:112,1,100,0|0
288,192,250353,1,2
344,304,250800,1,8
392,272,251099,2,0,B|448:288|512:288,1,100,0|8
464,160,252144,5,0
384,64,252591,1,2
336,96,252890,2,0,B|320:152|320:216,1,100,0|8
224,272,253935,1,8
112,208,254382,2,0,B|64:192|32:192,1,75,2|0
8,272,255129,5,0
8,272,255278,2,0,B|56:288|88:288,1,75,4|0
184,360,256173,2,0,B|224:352|280:360,1,75,2|0
328,304,256920,2,0,B|384:304|432:280,1,100,0|8
384,160,257965,1,2
312,56,258412,2,0,B|264:64|224:80,1,75,0|8
160,168,259308,37,0
248,256,259756,1,2
344,176,260203,1,0
448,248,260651,2,0,B|480:304|488:336,2,75,0|8|2
328,304,261994,1,0
216,368,262442,6,0,B|184:328|144:312,1,75,4|0
72,336,263188,1,0
72,336,263338,2,0,B|64:264|112:192,1,150,2|8
232,152,264681,1,8
256,280,265129,1,2
312,344,265427,1,0
312,344,265576,2,0,B|408:360,1,75,0|8
480,264,266472,53,0
368,208,266920,1,2
320,136,267218,2,0,B|264:120|200:120,1,100,0|8
112,184,268263,1,8
144,304,268711,2,0,B|184:288|208:288,1,50,2|0
216,288,269159,1,0
296,328,269457,21,0
296,328,269606,2,0,B|312:280|312:248,1,75,4|0
424,200,270502,2,0,B|464:192|520:200,1,75,2|0
504,112,271248,2,0,B|504:56|480:8,1,100,0|8
360,48,272293,1,2
288,152,272741,2,0,B|296:200|312:240,1,75,0|8
256,344,273636,37,0
128,344,274084,1,2
32,256,274532,1,0
64,136,274979,2,0,B|80:88|104:48,2,75,0|8|2
152,232,276323,1,0
256,160,276770,6,0,B|344:176|392:248,1,150,4|2
160,360,278562,1,8
80,304,279009,1,8
0,248,279457,5,2
48,168,279905,1,0
128,224,280353,2,0,B|216:240|264:312,1,150,0|2
336,344,281696,37,0
424,312,282144,2,0,B|448:280|448:232,1,75,8|8
400,168,283039,1,0
328,208,283338,1,8
328,208,283487,2,0,B|280:192|232:192,1,75,8|4
168,192,284382,1,0
88,232,284830,1,10
16,64,285726,6,0,B|104:8|160:88,1,150,8|2
232,40,287069,1,0
256,192,287517,12,0,292890
280,40,294681,5,4
128,224,295576,1,10
328,352,296472,1,8
344,264,296920,1,8
392,192,297367,1,2
472,144,297815,1,0
416,72,298263,6,0,B|328:56,2,75,0|8|2
488,304,300054,2,0,B|504:216,2,75,8|8|10
416,344,301248,1,8
416,344,301397,2,0,B|376:320|328:320,1,75,8|12
256,328,302293,53,0
176,376,302741,1,8
96,120,303636,1,8
24,168,304084,1,8
0,256,304532,1,2
40,336,304979,1,0
120,304,305427,6,0,B|136:264|136:224,1,75,8|0
216,176,306323,2,0,B|256:192|296:192,1,75,10|0
336,104,307218,54,0,B|320:64|320:24,2,75,8|8|10
432,72,308562,2,8,B|440:104,3,25,8|8|8|12
504,168,309457,5,8
504,264,309905,1,2
432,336,310353,2,0,B|400:368|352:360,1,75,0|8
288,320,311248,1,8
352,256,311696,2,0,B|352:168|304:112,1,150,2|8
224,80,313039,53,8
144,120,313487,1,2
136,208,313935,1,0
192,280,314382,2,0,B|232:312|272:320,1,75,8|8
328,264,315278,2,0,B|368:232|416:224,1,75,2|8
472,176,316173,6,0,B|480:136|480:80,2,75,8|8|2
392,136,317517,1,0
304,184,317965,54,0,B|296:224|296:280,2,75,8|8|2
208,160,319308,1,0
120,120,319756,6,0,B|112:80|112:24,2,75,8|8|10
88,176,320950,2,0,B|120:216|120:272,1,100,0|8
176,352,321994,2,8,B|160:384,3,25
256,328,322890,2,8,B|272:296,3,25,8|8|8|12
