osu file format v14

[General]
AudioFilename: Tanemo Shikake Moari Furete.mp3
AudioLeadIn: 0
PreviewTime: 58585
Countdown: 0
SampleSet: Normal
StackLeniency: 0.7
Mode: 0
LetterboxInBreaks: 1
WidescreenStoryboard: 1

[Editor]
Bookmarks: 80750,139584,189750
DistanceSpacing: 0.5
BeatDivisor: 4
GridSize: 32
TimelineZoom: 1

[Metadata]
Title:Tanemo Shikakemo Arifurete
TitleUnicode:種も仕掛けもありふれて
Artist:Kayano Ai
ArtistUnicode:茅野愛衣
Creator:Awaken
Version:Trapper
Source:
Tags:kawaiwkyik OblivioN TT mouse
BeatmapID:523700
BeatmapSetID:212599

[Difficulty]
HPDrainRate:6
CircleSize:4
OverallDifficulty:8
ApproachRate:9
SliderMultiplier:1.7
SliderTickRate:1

[Events]
//Background and Video events
0,0,"114.jpg",0,0
//Break Periods
2,86117,87984
2,171450,175984
//Storyboard Layer 0 (Background)
//Storyboard Layer 1 (Fail)
//Storyboard Layer 2 (Pass)
//Storyboard Layer 3 (Foreground)
Sprite,Foreground,Centre,"sb\username\awaken.png",320,240 S,0,5334,5417,0.1,0.6366452 R,0,5417,,0.14 M,0,5417,59417,141,385 F,0,81584,82584,1,0.09987091 M,0,82584,,141,385
Sprite,Foreground,Centre,"sb\username\awaken.png",320,240 S,0,139000,139084,0.1,0.6366452 M,0,139084,,141,385 R,0,139084,,0.14 F,0,189250,189584,1,0.09987091 M,0,189584,,141,385
Sprite,Foreground,Centre,"sb\username\wkyik.png",320,240 S,0,83000,83084,0.1,0.5210324 R,0,83084,,-0.14 M,0,83084,138917,501,400 F,0,138584,138917,1,0
Sprite,Foreground,Centre,"sb\username\wkyik.png",320,240 S,0,189667,189750,0.1,0.5210324 R,0,189750,,-0.14 M,0,189750,234917,501,400 F,0,234917,239917,1,0
//Storyboard Sound Samples

[TimingPoints]
4251,333.333333333333,4,1,1,60,1,0
5417,-133.333333333333,4,2,1,30,0,0
8917,-133.333333333333,4,1,1,5,0,0
9000,-133.333333333333,4,1,1,40,0,0
11584,-100,4,1,1,40,0,0
19584,-166.666666666667,4,2,0,60,0,0
23250,-166.666666666667,4,1,1,30,0,0
23917,-166.666666666667,4,2,0,60,0,0
27084,-117.647058823529,4,1,1,50,0,0
30250,-117.647058823529,4,1,1,55,0,0
52584,-133.333333333333,4,1,1,60,0,0
54250,-117.647058823529,4,2,1,60,0,0
54334,-117.647058823529,4,1,1,60,0,0
56750,-66.6666666666667,4,1,1,60,0,0
59250,-100,4,1,1,60,0,0
59417,-100,4,2,1,60,0,1
59500,-100,4,1,1,80,0,1
73500,-100,4,1,1,5,0,1
73667,-100,4,1,1,80,0,1
74000,-100,4,1,1,5,0,1
74084,-100,4,1,1,80,0,1
80750,-100,4,1,1,60,0,0
88584,-166.666666666667,4,1,1,40,0,0
96583,-100,4,1,1,60,0,0
109917,-133.333333333333,4,1,1,60,0,0
117917,-100,4,1,1,60,0,0
118917,-133.333333333333,4,1,1,60,0,0
120250,-100,4,1,1,60,0,0
121584,-133.333333333333,4,1,1,60,0,0
123250,-100,4,1,1,60,0,0
128417,-100,4,1,1,80,0,1
149750,-100,4,1,1,60,0,0
160584,-200,4,1,0,60,0,0
160917,-83.3333333333333,4,1,1,60,0,0
161750,-100,4,1,1,60,0,0
170750,-100,4,1,1,40,0,0
170917,-133.333333333333,4,1,1,60,0,0
178584,-100,4,1,1,60,0,0
187084,-133.333333333333,4,1,1,60,0,0
199084,-100,4,1,1,60,0,0
202417,-133.333333333333,4,1,1,60,0,0
203084,-100,4,1,1,80,0,1
223084,-100,4,1,1,80,0,0
234417,-100,4,1,1,60,0,0
237417,-100,4,1,1,40,0,0
239583,-100,4,1,1,20,0,0
239917,-100,4,2,0,5,0,0

[Colours]
Combo1 : 255,162,255
Combo2 : 165,254,179
Combo3 : 255,255,164
Combo4 : 154,220,252

[HitObjects]
89,84,5417,5,0,0:0:0:0:
89,84,5500,1,0,0:0:0:0:
89,84,5584,1,0,0:0:0:0:
138,161,5750,1,0,0:0:0:0:
121,250,5917,1,0,0:0:0:0:
7,274,6084,1,0,0:0:0:0:
121,250,6417,5,0,0:0:0:0:
7,274,6584,1,0,0:0:0:0:
256,192,6917,12,0,8917,0:0:0:0:
256,192,9000,12,0,11250,0:0:0:0:
256,192,11584,5,4,0:0:0:0:
451,63,12250,1,6,0:0:0:0:
428,342,12584,1,0,0:0:0:0:
428,342,12750,2,0,L|243:328,1,170,2|8,0:0|0:0,0:0:0:0:
258,329,13167,1,0,0:0:0:0:
258,329,13250,1,0,0:0:0:0:
57,236,13417,5,2,0:0:0:0:
60,204,13500,1,0,0:0:0:0:
63,172,13584,1,0,0:0:0:0:
67,140,13667,1,0,0:0:0:0:
71,108,13750,2,0,L|59:49,1,42.5,2|0,0:0|0:0,0:0:0:0:
179,142,13917,2,0,L|174:199,1,42.5,8|0,0:0|0:0,0:0:0:0:
255,58,14084,6,0,P|342:47|414:105,1,170,4|0,0:0|0:0,0:0:0:0:
282,236,14584,2,0,P|285:191|313:154,1,85,8|0,0:0|0:0,0:0:0:0:
410,225,14917,5,2,0:0:0:0:
337,369,15084,1,0,0:0:0:0:
315,155,15250,1,8,0:0:0:0:
350,288,15417,1,2,0:0:0:0:
350,288,15500,1,2,0:0:0:0:
350,288,15584,5,2,0:0:0:0:
208,171,15750,1,2,0:0:0:0:
257,384,15917,1,10,0:0:0:0:
432,302,16084,1,0,0:0:0:0:
282,236,16250,5,8,0:0:0:0:
421,382,16417,1,0,0:0:0:0:
394,144,16584,1,8,0:0:0:0:
337,369,16750,1,0,0:0:0:0:
303,57,16917,5,4,0:0:0:0:
256,192,17250,12,0,19250,0:0:0:0:
121,148,19584,6,0,L|235:143,2,101.999996887207,2|2|2,0:0|0:0|0:0,0:0:0:0:
206,253,20417,1,0,0:0:0:0:
206,253,20500,1,2,0:0:0:0:
206,253,20584,1,2,0:0:0:0:
90,230,20750,1,2,0:0:0:0:
119,333,20917,2,0,L|184:333,1,50.9999984436036,2|0,0:0|0:0,0:0:0:0:
276,208,21250,6,0,B|289:243|289:243|273:317,1,101.999996887207,2|2,0:0|0:0,0:0:0:0:
200,169,21750,2,0,L|197:100,1,50.9999984436036,2|0,0:0|0:0,0:0:0:0:
358,133,22084,1,2,0:0:0:0:
358,133,22167,1,0,0:0:0:0:
358,133,22250,2,0,L|376:243,2,101.999996887207,2|2|2,0:0|0:0|0:0,0:0:0:0:
478,229,23084,1,10,0:0:0:0:
346,307,23250,1,10,0:0:0:0:
441,335,23417,1,10,0:0:0:0:
238,342,23584,2,0,L|236:280,1,50.9999984436036,10|0,0:0|0:0,0:0:0:0:
163,126,23917,6,0,B|151:158|151:158|173:233,1,101.999996887207,2|2,0:0|0:0,0:0:0:0:
261,157,24417,2,0,L|266:99,1,50.9999984436036,2|0,0:0|0:0,0:0:0:0:
56,118,24750,1,0,0:0:0:0:
53,135,24834,1,2,0:0:0:0:
50,152,24917,1,2,0:0:0:0:
40,63,25084,6,0,L|48:165,1,101.999996887207,2|0,0:0|0:0,0:0:0:0:
157,307,25584,2,0,L|161:238,1,50.9999984436036,2|0,0:0|0:0,0:0:0:0:
56,268,25917,1,2,0:0:0:0:
240,187,26084,1,0,0:0:0:0:
240,187,26167,1,0,0:0:0:0:
240,187,26250,2,0,B|251:226|251:226|249:287,2,101.999996887207,2|2|0,0:0|0:0|0:0,0:0:0:0:
365,295,27084,5,0,0:0:0:0:
365,295,27167,1,0,0:0:0:0:
365,295,27250,2,0,L|371:343,1,36.1250006890297
489,258,27417,2,0,L|492:213,1,36.1250006890297
383,168,27584,6,0,P|319:183|257:138,1,144.500002756119,4|0,0:0|0:0,0:0:0:0:
112,263,28084,2,0,P|183:250|242:298,1,144.500002756119
127,113,28584,1,0,0:0:0:0:
127,113,28667,1,8,0:0:0:0:
127,113,28750,1,8,0:0:0:0:
384,168,28917,6,0,L|226:170,1,144.500002756119,4|0,0:0|0:0,0:0:0:0:
69,338,29417,2,0,P|124:345|196:274,1,144.500002756119
45,179,29917,1,8,0:0:0:0:
45,179,30000,1,8,0:0:0:0:
45,179,30084,1,8,0:0:0:0:
213,17,30250,6,0,L|211:103,1,72.2500013780594,2|0,0:0|0:0,0:0:0:0:
287,245,30584,2,0,L|294:155,1,72.2500013780594,8|0,0:0|0:0,0:0:0:0:
237,349,30917,2,0,P|288:358|352:329,1,108.375002067089,2|0,0:0|0:0,0:0:0:0:
369,312,31250,1,8,0:0:0:0:
160,295,31417,2,0,P|144:333|137:374,1,72.2500013780594,2|0,0:0|0:0,0:0:0:0:
163,128,31750,1,0,0:0:0:0:
34,223,31917,2,0,L|120:211,1,72.2500013780594,10|0,0:0|0:0,0:0:0:0:
281,275,32250,5,2,0:0:0:0:
163,128,32417,1,2,0:0:0:0:
143,373,32584,1,8,0:0:0:0:
194,217,32750,1,8,0:0:0:0:
141,51,32917,6,0,P|89:90|92:169,1,144.500002756119,2|8,0:0|0:0,0:0:0:0:
250,149,33417,1,0,0:0:0:0:
250,149,33500,1,0,0:0:0:0:
250,149,33584,1,0,0:0:0:0:
163,128,33750,5,0,0:0:0:0:
272,243,33917,1,8,0:0:0:0:
151,343,34084,1,0,0:0:0:0:
347,283,34250,2,0,P|354:249|340:195,1,72.2500013780594,2|2,0:0|0:0,0:0:0:0:
233,333,34584,6,0,L|393:323,1,144.500002756119,8|0,0:0|0:0,0:0:0:0:
454,219,35084,1,2,0:0:0:0:
333,161,35250,1,8,0:0:0:0:
440,22,35417,2,0,L|439:104,1,72.2500013780594,8|0,0:0|0:0,0:0:0:0:
333,161,35750,1,0,0:0:0:0:
333,161,35834,1,0,0:0:0:0:
333,161,35917,1,8,0:0:0:0:
439,94,36084,1,2,0:0:0:0:
207,49,36250,6,0,P|205:89|211:133,1,72.2500013780594,2|0,0:0|0:0,0:0:0:0:
251,227,36584,1,8,0:0:0:0:
356,340,36750,2,0,L|193:330,1,144.500002756119,2|0,0:0|0:0,0:0:0:0:
142,257,37250,1,8,0:0:0:0:
401,235,37417,6,0,P|358:253|323:252,1,72.2500013780594,2|0,0:0|0:0,0:0:0:0:
201,93,37750,1,0,0:0:0:0:
201,93,37834,1,0,0:0:0:0:
201,93,37917,2,0,L|253:106,1,36.1250006890297,8|0,0:0|0:0,0:0:0:0:
236,245,38084,2,0,L|225:211,1,36.1250006890297,8|0,0:0|0:0,0:0:0:0:
177,336,38250,6,0,P|109:340|59:277,1,144.500002756119,4|8,0:0|0:0,0:0:0:0:
236,245,38750,2,0,P|291:210|376:235,1,144.500002756119
253,25,39250,1,8,0:0:0:0:
253,25,39334,1,8,0:0:0:0:
253,25,39417,1,8,0:0:0:0:
272,332,39584,6,0,P|223:335|144:260,1,144.500002756119,4|8,0:0|0:0,0:0:0:0:
207,151,40084,1,0,0:0:0:0:
207,151,40167,1,0,0:0:0:0:
207,151,40250,1,0,0:0:0:0:
329,238,40417,1,0,0:0:0:0:
357,51,40584,1,0,0:0:0:0:
357,51,40917,6,0,L|442:47,1,72.2500013780594,4|0,0:0|0:0,0:0:0:0:
512,72,41250,1,2,0:0:0:0:
424,363,41584,2,0,P|377:373|299:317,1,144.500002756119,8|0,0:0|0:0,0:0:0:0:
482,231,42084,2,0,P|483:278|474:307,1,72.2500013780594,0|2,0:0|0:0,0:0:0:0:
381,259,42417,1,2,0:0:0:0:
512,152,42584,1,0,0:0:0:0:
512,152,42917,6,0,B|427:128|432:197|345:160,2,144.500002756119,8|2|0,0:0|0:0|0:0,0:0:0:0:
377,84,43750,2,0,L|290:66,1,72.2500013780594,2|0,0:0|0:0,0:0:0:0:
460,63,44084,1,2,0:0:0:0:
253,0,44250,1,8,0:0:0:0:
248,307,44584,1,0,0:0:0:0:
253,0,44917,5,2,0:0:0:0:
283,99,45084,1,0,0:0:0:0:
214,202,45250,1,2,0:0:0:0:
330,256,45417,1,0,0:0:0:0:
330,256,45500,1,0,0:0:0:0:
330,256,45584,1,8,0:0:0:0:
283,99,45750,6,0,B|261:139|261:139|231:115|182:128|182:128|154:143|142:184,1,180.625003445149,2|0,0:0|0:0,0:0:0:0:
214,202,46250,6,0,L|58:184,1,144.500002756119,4|0,0:0|0:0,0:0:0:0:
285,288,46917,2,0,P|358:277|373:143,1,216.750004134178,8|0,0:0|0:0,0:0:0:0:
315,205,47584,1,2,0:0:0:0:
437,317,47917,1,0,0:0:0:0:
183,278,48250,5,8,0:0:0:0:
456,144,48417,1,2,0:0:0:0:
441,184,48500,1,0,0:0:0:0:
412,216,48584,1,2,0:0:0:0:
371,231,48667,1,0,0:0:0:0:
327,234,48750,1,2,0:0:0:0:
283,226,48834,1,0,0:0:0:0:
250,197,48917,6,0,L|231:113,1,72.2500013780594,4|0,0:0|0:0,0:0:0:0:
279,21,49250,1,2,0:0:0:0:
147,264,49417,2,0,L|155:181,1,72.2500013780594,8|0,0:0|0:0,0:0:0:0:
342,137,49750,1,2,0:0:0:0:
210,335,49917,2,0,P|158:361|67:316,1,144.500002756119,4|0,0:0|0:0,0:0:0:0:
104,150,50417,5,2,0:0:0:0:
221,214,50584,1,8,0:0:0:0:
255,41,50750,1,0,0:0:0:0:
77,45,50917,5,2,0:0:0:0:
193,124,51084,1,0,0:0:0:0:
127,274,51250,1,8,0:0:0:0:
127,274,51334,1,8,0:0:0:0:
127,274,51417,1,8,0:0:0:0:
292,361,51584,6,0,L|303:288,1,72.2500013780594,4|0,0:0|0:0,0:0:0:0:
221,214,51917,1,2,0:0:0:0:
424,292,52084,2,0,L|404:214,1,72.2500013780594,8|0,0:0|0:0,0:0:0:0:
288,145,52417,1,2,0:0:0:0:
458,62,52584,6,0,P|378:89|329:5,1,191.250007295609,4|0,0:0|0:0,0:0:0:0:
481,195,53250,1,8,0:0:0:0:
366,280,53417,1,0,0:0:0:0:
369,191,53584,5,2,0:0:0:0:
435,334,53750,1,0,0:0:0:0:
369,191,53917,1,8,0:0:0:0:
352,363,54084,1,0,0:0:0:0:
352,363,54167,1,0,0:0:0:0:
352,363,54250,2,0,L|267:358,1,72.2500013780594,4|0,0:0|0:0,0:0:0:0:
166,296,54584,1,8,0:0:0:0:
246,87,54750,6,0,L|260:242,1,144.500002756119,12|0,0:0|0:0,0:0:0:0:
122,382,55250,1,8,0:0:0:0:
129,216,55417,1,0,0:0:0:0:
255,310,55584,5,0,0:0:0:0:
78,285,55750,2,0,P|48:248|42:206,1,72.2500013780594,8|8,0:0|0:0,0:0:0:0:
246,87,56084,1,8,0:0:0:0:
219,228,56250,6,0,L|215:183,1,36.1250006890297,2|0,0:0|0:0,0:0:0:0:
341,94,56417,2,0,L|344:129,1,36.1250006890297,2|0,0:0|0:0,0:0:0:0:
296,353,56584,2,0,L|292:308,1,36.1250006890297,8|0,0:0|0:0,0:0:0:0:
395,204,56750,6,0,B|404:239|404:239|397:267|397:267|415:297|406:341,1,127.500004863739,10|0,0:0|0:0,0:0:0:0:
246,87,57084,5,0,0:0:0:0:
459,145,57250,1,8,0:0:0:0:
459,145,57584,5,0,0:0:0:0:
205,255,57750,1,8,0:0:0:0:
205,255,58084,5,0,0:0:0:0:
375,360,58250,1,8,0:0:0:0:
297,171,58417,1,0,0:0:0:0:
249,360,58584,1,8,0:0:0:0:
403,244,58750,1,0,0:0:0:0:
139,322,58917,5,2,0:0:0:0:
187,341,59001,1,2,0:0:0:0:
238,339,59084,1,2,0:0:0:0:
276,308,59167,1,0,0:0:0:0:
290,259,59250,1,2,0:0:0:0:
280,208,59334,1,0,0:0:0:0:
245,176,59417,6,0,B|197:170|197:170|164:183|164:183|125:159|61:174,1,170,4|0,0:0|0:0,0:0:0:0:
349,104,59917,2,0,P|379:142|382:184,1,85,8|0,0:0|0:0,0:0:0:0:
196,257,60250,1,2,0:0:0:0:
206,81,60417,1,0,0:0:0:0:
200,51,60500,1,0,0:0:0:0:
194,21,60584,1,8,0:0:0:0:
432,67,60750,6,0,P|443:127|357:193,1,170,2|0,0:0|0:0,0:0:0:0:
273,0,61250,1,8,0:0:0:0:
349,104,61417,1,0,0:0:0:0:
213,199,61584,5,0,0:0:0:0:
298,319,61750,1,0,0:0:0:0:
298,319,61834,1,0,0:0:0:0:
298,319,61917,1,8,0:0:0:0:
264,126,62084,6,0,P|214:113|124:195,1,170,10|0,0:0|0:0,0:0:0:0:
372,273,62584,2,0,L|383:179,1,85,8|0,0:0|0:0,0:0:0:0:
129,290,62917,1,0,0:0:0:0:
270,355,63084,1,0,0:0:0:0:
290,351,63167,1,0,0:0:0:0:
310,348,63250,1,8,0:0:0:0:
53,322,63417,6,0,P|49:278|73:230,1,85
211,200,63750,1,2,0:0:0:0:
133,384,63917,1,8,0:0:0:0:
211,200,64084,1,0,0:0:0:0:
0,205,64250,6,0,L|14:378,1,170,2|8,0:0|0:0,0:0:0:0:
95,169,64750,1,2,0:0:0:0:
95,169,64834,1,0,0:0:0:0:
95,169,64917,2,0,L|99:84,1,85,2|0,0:0|0:0,0:0:0:0:
241,89,65250,5,8,0:0:0:0:
192,218,65417,1,0,0:0:0:0:
347,97,65584,2,0,P|339:48|310:15,1,85,2|0,0:0|0:0,0:0:0:0:
109,83,65917,1,8,0:0:0:0:
147,296,66084,6,0,P|230:300|278:232,1,170,2|0,0:0|0:0,0:0:0:0:
170,131,66584,1,8,0:0:0:0:
147,296,66750,1,0,0:0:0:0:
277,235,66917,1,2,0:0:0:0:
109,220,67084,1,0,0:0:0:0:
109,220,67167,1,0,0:0:0:0:
109,220,67250,1,8,0:0:0:0:
252,147,67417,6,0,P|336:132|408:188,1,170,10|0,0:0|0:0,0:0:0:0:
191,315,67917,2,0,P|186:272|193:231,1,85,8|0,0:0|0:0,0:0:0:0:
356,233,68250,1,2,0:0:0:0:
254,354,68417,1,0,0:0:0:0:
252,147,68584,1,8,0:0:0:0:
394,307,68750,6,0,P|336:364|254:354,1,170,10|0,0:0|0:0,0:0:0:0:
411,175,69250,1,8,0:0:0:0:
495,325,69417,1,0,0:0:0:0:
282,275,69584,1,2,0:0:0:0:
250,246,69667,1,2,0:0:0:0:
230,209,69750,1,2,0:0:0:0:
224,167,69834,1,0,0:0:0:0:
232,126,69917,1,8,0:0:0:0:
254,89,70000,1,0,0:0:0:0:
288,66,70084,6,0,B|326:48|364:60|364:60|383:78|383:78|413:100|457:95,1,170,4|0,0:0|0:0,0:0:0:0:
367,266,70584,2,0,L|282:275,1,85,8|0,0:0|0:0,0:0:0:0:
52,236,70917,5,2,0:0:0:0:
173,362,71084,1,0,0:0:0:0:
173,362,71167,1,0,0:0:0:0:
173,362,71250,1,8,0:0:0:0:
164,188,71417,1,0,0:0:0:0:
116,293,71584,6,0,P|76:316|20:312,1,85,2|0,0:0|0:0,0:0:0:0:
80,150,71917,1,8,0:0:0:0:
256,178,72084,1,0,0:0:0:0:
260,198,72167,1,0,0:0:0:0:
265,218,72250,5,2,0:0:0:0:
258,30,72417,1,0,0:0:0:0:
387,187,72584,5,8,0:0:0:0:
375,228,72667,1,2,0:0:0:0:
363,268,72750,1,2,0:0:0:0:
351,308,72834,1,2,0:0:0:0:
339,349,72917,1,8,0:0:0:0:
224,297,73084,1,8,0:0:0:0:
429,342,73250,1,8,0:0:0:0:
223,384,73417,6,0,P|166:367|133:299,1,127.5,2|0,0:0|0:0,0:0:0:0:
165,227,73750,2,0,L|302:209,1,127.5,2|0,0:0|0:0,0:0:0:0:
344,118,74084,2,0,L|217:134,1,127.5,12|0,0:0|0:0,0:0:0:0:
217,133,74417,5,0,0:0:0:0:
387,200,74584,1,8,0:0:0:0:
305,43,74750,1,0,0:0:0:0:
127,153,74917,5,0,0:0:0:0:
291,180,75084,1,0,0:0:0:0:
159,75,75250,1,8,0:0:0:0:
159,75,75334,1,0,0:0:0:0:
159,75,75417,2,0,P|110:71|32:157,1,170,2|0,0:0|0:0,0:0:0:0:
262,265,75917,1,8,0:0:0:0:
261,104,76084,1,0,0:0:0:0:
130,192,76250,5,0,0:0:0:0:
355,245,76417,1,0,0:0:0:0:
130,191,76584,1,8,0:0:0:0:
328,347,76750,2,0,P|409:337|450:266,1,170,2|0,0:0|0:0,0:0:0:0:
210,163,77250,1,8,0:0:0:0:
183,373,77417,1,0,0:0:0:0:
355,245,77584,5,2,0:0:0:0:
133,295,77750,1,0,0:0:0:0:
355,245,77917,1,8,0:0:0:0:
152,108,78084,1,0,0:0:0:0:
152,108,78167,1,0,0:0:0:0:
152,108,78250,5,4,0:0:0:0:
244,311,78417,1,0,0:0:0:0:
408,148,78584,1,8,0:0:0:0:
46,204,78750,5,8,0:0:0:0:
313,357,79084,1,8,0:0:0:0:
144,25,79417,6,0,L|140:200,1,170,4|0,0:0|0:0,0:0:0:0:
76,331,79917,1,0,0:0:0:0:
76,331,80084,1,0,0:0:0:0:
142,223,80250,1,0,0:0:0:0:
142,223,80417,1,0,0:0:0:0:
259,288,80584,1,0,0:0:0:0:
365,147,80750,5,4,0:0:0:0:
256,192,80834,12,0,82917,0:0:0:0:
236,368,83084,5,0,0:0:0:0:
236,368,83250,2,0,L|136:356,1,85,8|0,0:0|0:0,0:0:0:0:
56,260,83584,5,0,0:0:0:0:
112,112,83750,1,8,0:0:0:0:
112,112,83917,1,8,0:0:0:0:
220,232,84084,1,0,0:0:0:0:
40,164,84250,1,8,0:0:0:0:
184,52,84417,1,0,0:0:0:0:
206,77,84500,1,0,0:0:0:0:
236,92,84584,1,0,0:0:0:0:
270,95,84667,1,0,0:0:0:0:
302,86,84750,1,0,0:0:0:0:
329,65,84834,1,0,0:0:0:0:
346,36,84917,6,0,L|440:32,1,85,4|2,0:0|0:0,0:0:0:0:
476,144,85250,2,0,L|472:188,3,28.3333333333333,0|0|0|0,0:0|0:0|0:0|0:0,0:0:0:0:
384,220,85584,1,8,0:3:0:0:
368,212,85917,1,2,0:0:0:0:
136,96,88584,6,0,L|128:160,1,50.9999984436036,0|0,0:0|0:0,0:0:0:0:
204,192,88917,2,0,L|196:256,1,50.9999984436036,0|0,0:0|0:0,0:0:0:0:
248,344,89250,2,0,L|308:336,1,50.9999984436036
160,312,89584,2,0,L|100:320,1,50.9999984436036
40,268,89917,5,0,0:0:0:0:
40,268,90084,1,0,0:0:0:0:
100,136,90250,2,0,L|112:192,1,50.9999984436036
232,96,90584,2,0,L|228:152,1,50.9999984436036
368,152,90917,2,0,L|352:208,1,50.9999984436036
356,316,91250,6,0,P|393:308|448:308,1,76.4999976654053
452,312,91584,2,0,L|444:248,1,50.9999984436036
384,208,91917,1,0,0:0:0:0:
384,208,92084,2,0,L|388:148,2,50.9999984436036,0|0|0,0:0|0:0|0:0,0:0:0:0:
328,268,92584,6,0,P|284:272|240:216,2,101.999996887207,0|0|0,0:0|0:0|0:0,0:0:0:0:
384,208,93417,1,0,0:0:0:0:
384,208,93584,2,0,L|380:136,1,50.9999984436036
372,76,93917,6,0,L|476:88,2,101.999996887207,0|0|0,0:0|0:0|0:0,0:0:0:0:
300,116,94750,1,0,0:0:0:0:
300,116,94917,2,0,L|232:104,1,50.9999984436036
188,52,95250,5,0,0:0:0:0:
188,52,95417,2,0,P|172:88|172:120,1,50.9999984436036
184,180,95750,1,0,0:0:0:0:
152,256,95917,2,0,L|96:248,1,50.9999984436036
36,300,96250,1,0,0:0:0:0:
36,300,96334,1,0,0:0:0:0:
36,300,96417,1,0,0:0:0:0:
152,368,96584,6,0,P|204:376|280:296,1,170,4|0,0:0|0:0,0:0:0:0:
260,208,97084,1,0,0:0:0:0:
96,160,97250,1,0,0:0:0:0:
196,296,97417,1,0,0:0:0:0:
192,128,97584,1,0,0:0:0:0:
192,128,97667,1,0,0:0:0:0:
192,128,97750,1,0,0:0:0:0:
100,272,97917,6,0,L|4:264,2,85,0|0|0,0:0|0:0|0:0,0:0:0:0:
100,272,98334,1,0,0:0:0:0:
100,272,98417,1,0,0:0:0:0:
264,344,98584,2,0,P|276:304|268:256,1,85
196,160,98917,1,0,0:0:0:0:
196,160,99000,1,0,0:0:0:0:
196,160,99084,2,0,L|144:172,1,42.5
120,176,99250,6,0,L|128:76,1,85,4|0,0:0|0:0,0:0:0:0:
288,40,99584,2,0,L|280:140,1,85,8|0,0:0|0:0,0:0:0:0:
240,232,99917,1,0,0:0:0:0:
360,168,100084,1,0,0:0:0:0:
204,76,100250,1,8,0:0:0:0:
160,252,100417,6,0,L|168:340,1,85
332,376,100750,2,0,L|324:291,2,85,0|8|0,0:0|0:0|0:0,0:0:0:0:
244,344,101250,1,0,0:0:0:0:
348,212,101417,1,0,0:0:0:0:
412,308,101584,1,8,0:0:0:0:
240,232,101750,1,0,0:0:0:0:
452,152,101917,6,0,P|400:141|331:74,1,127.5
335,75,102250,1,8,0:0:0:0:
448,32,102417,1,0,0:0:0:0:
440,232,102584,1,0,0:0:0:0:
312,112,102750,2,0,L|220:100,1,85,0|8,0:0|0:0,0:0:0:0:
104,244,103084,1,0,0:0:0:0:
240,232,103250,5,0,0:0:0:0:
332,372,103417,1,0,0:0:0:0:
196,360,103584,1,8,0:0:0:0:
276,240,103750,1,0,0:0:0:0:
356,368,103917,1,0,0:0:0:0:
176,280,104084,1,0,0:0:0:0:
368,248,104250,1,8,0:0:0:0:
308,88,104417,6,0,P|264:72|160:144,1,170
276,240,104917,2,0,P|272:188|240:148,1,85,8|0,0:0|0:0,0:0:0:0:
72,152,105250,1,0,0:0:0:0:
184,228,105417,1,0,0:0:0:0:
308,88,105584,1,8,0:0:0:0:
144,56,105750,6,0,L|152:156,1,85
276,240,106084,2,0,L|268:340,1,85,0|8,0:0|0:0,0:0:0:0:
388,212,106417,1,0,0:0:0:0:
292,88,106584,1,0,0:0:0:0:
176,192,106750,1,0,0:0:0:0:
172,216,106834,1,0,0:0:0:0:
168,240,106917,1,0,0:0:0:0:
164,264,107000,1,0,0:0:0:0:
160,288,107084,1,0,0:0:0:0:
280,364,107250,6,0,P|324:376|432:300,1,170,4|0,0:0|0:0,0:0:0:0:
376,164,107750,1,0,0:0:0:0:
336,284,107917,1,0,0:0:0:0:
464,212,108084,1,0,0:0:0:0:
256,232,108250,1,0,0:0:0:0:
256,232,108334,1,0,0:0:0:0:
256,232,108417,1,0,0:0:0:0:
464,112,108584,5,0,0:0:0:0:
320,44,108750,1,0,0:0:0:0:
376,260,108917,1,0,0:0:0:0:
484,124,109084,1,0,0:0:0:0:
264,104,109250,1,0,0:0:0:0:
296,312,109417,1,0,0:0:0:0:
392,160,109584,1,0,0:0:0:0:
392,160,109667,1,0,0:0:0:0:
392,160,109750,1,0,0:0:0:0:
176,136,109917,6,0,P|116:160|40:144,1,127.500004863739,0|0,0:0|0:0,0:0:0:0:
108,76,110417,1,0,0:0:0:0:
248,196,110584,2,0,P|264:232|272:320,1,127.500004863739
204,364,111084,5,0,0:0:0:0:
204,364,111250,1,0,0:0:0:0:
140,312,111417,2,0,L|64:320,1,63.7500024318696
20,256,111750,2,0,L|32:184,1,63.7500024318696
48,112,112084,1,0,0:0:0:0:
48,112,112250,1,0,0:0:0:0:
124,80,112417,6,0,P|164:92|252:44,1,127.500004863739
320,80,112917,2,0,L|312:148,1,63.7500024318696
340,220,113250,2,0,P|394:189|456:200,1,127.500004863739
496,272,113750,1,0,0:0:0:0:
496,272,113917,1,0,0:0:0:0:
456,344,114084,6,0,L|376:332,1,63.7500024318696
312,316,114417,1,0,0:0:0:0:
304,332,114584,2,0,L|224:320,1,63.7500024318696
164,360,114917,1,0,0:0:0:0:
164,360,115084,1,0,0:0:0:0:
100,308,115250,5,0,0:0:0:0:
172,160,115584,1,0,0:0:0:0:
324,224,115917,2,0,P|372:240|472:144,1,191.250007295609
424,92,116584,5,0,0:0:0:0:
324,224,116917,1,0,0:0:0:0:
336,240,117084,2,0,L|332:328,1,63.7500024318696
264,352,117417,1,0,0:0:0:0:
200,300,117584,1,0,0:0:0:0:
200,300,117667,1,0,0:0:0:0:
200,300,117750,1,0,0:0:0:0:
128,340,117917,6,0,P|80:352|12:248,1,170,4|0,0:0|0:0,0:0:0:0:
76,168,118417,2,0,L|248:188,1,170,8|0,0:0|0:0,0:0:0:0:
328,280,118917,6,0,P|364:292|448:180,1,191.250007295609,4|0,0:0|0:0,0:0:0:0:
244,224,119584,1,8,0:0:0:0:
368,264,119750,1,0,0:0:0:0:
336,88,119917,1,0,0:0:0:0:
208,208,120084,1,0,0:0:0:0:
312,348,120250,2,0,L|360:344,2,42.5,8|0|0,0:0|0:0|0:0,0:0:0:0:
312,348,120584,6,0,P|256:372|152:332,1,170,4|0,0:0|0:0,0:0:0:0:
80,192,121084,1,8,0:0:0:0:
80,192,121417,1,0,0:0:0:0:
276,332,121584,6,0,P|328:336|380:216,1,191.250007295609,4|0,0:0|0:0,0:0:0:0:
195,183,122250,1,8,0:0:0:0:
312,256,122417,1,0,0:0:0:0:
312,120,122584,1,0,0:0:0:0:
176,316,122750,5,0,0:0:0:0:
336,372,122917,1,8,0:0:0:0:
336,372,123000,1,0,0:0:0:0:
336,372,123084,1,0,0:0:0:0:
176,316,123250,6,0,P|128:296|32:316,1,127.5
32,316,123584,2,0,L|40:224,1,85,8|0,0:0|0:0,0:0:0:0:
196,192,123917,1,0,0:0:0:0:
56,116,124084,1,0,0:0:0:0:
220,296,124250,2,0,P|268:272|296:224,1,85,8|0,0:0|0:0,0:0:0:0:
336,56,124584,2,0,P|344:128|352:164,1,85
436,324,124917,2,0,P|428:252|420:216,1,85
428,136,125250,2,0,P|500:128|536:120,1,85
336,248,125584,1,8,0:0:0:0:
232,88,125750,1,0,0:0:0:0:
92,344,126084,5,0,0:0:0:0:
92,344,126250,1,0,0:0:0:0:
420,344,126584,1,0,0:0:0:0:
420,344,126750,1,0,0:0:0:0:
256,72,127084,1,0,0:0:0:0:
256,72,127250,1,0,0:0:0:0:
208,172,127417,1,0,0:0:0:0:
208,172,127500,1,0,0:0:0:0:
208,172,127584,2,0,L|148:163,1,42.5
88,112,127750,1,0,0:0:0:0:
15,254,127917,5,0,0:0:0:0:
11,296,128000,1,0,0:0:0:0:
29,334,128084,1,0,0:0:0:0:
63,359,128167,1,0,0:0:0:0:
104,364,128250,1,0,0:0:0:0:
145,352,128334,1,0,0:0:0:0:
181,327,128417,6,0,P|225:307|349:323,1,170,4|2,0:0|0:0,0:0:0:0:
504,260,128917,2,0,P|460:244|416:208,1,85,8|0,0:0|0:0,0:0:0:0:
312,256,129250,1,0,0:0:0:0:
504,168,129417,1,0,0:0:0:0:
424,320,129584,1,8,0:0:0:0:
320,116,129750,2,0,P|264:120|180:32,1,170
80,128,130250,1,8,0:0:0:0:
168,332,130417,2,0,P|184:276|216:232,1,85
320,116,130750,1,0,0:0:0:0:
312,256,130917,1,8,0:0:0:0:
173,76,131084,6,0,P|92:81|52:152,1,170
168,332,131584,2,0,L|176:236,1,85,8|0,0:0|0:0,0:0:0:0:
284,112,131917,1,0,0:0:0:0:
264,280,132084,1,0,0:0:0:0:
284,112,132250,1,8,0:0:0:0:
368,244,132417,5,0,0:0:0:0:
192,200,132584,1,0,0:0:0:0:
336,120,132750,1,0,0:0:0:0:
264,280,132917,1,8,0:0:0:0:
140,128,133084,1,0,0:0:0:0:
56,292,133250,1,0,0:0:0:0:
179,370,133417,1,0,0:0:0:0:
217,343,133500,1,0,0:0:0:0:
263,337,133584,1,8,0:0:0:0:
309,341,133667,1,0,0:0:0:0:
352,359,133750,6,0,P|408:371|500:307,1,170,4|0,0:0|0:0,0:0:0:0:
432,148,134250,1,8,0:0:0:0:
260,176,134417,2,0,P|248:160|248:84,1,85
396,252,134750,1,0,0:0:0:0:
192,224,134917,1,8,0:0:0:0:
328,120,135084,6,0,P|380:128|464:36,1,170
240,68,135584,2,0,L|228:168,1,85,8|0,0:0|0:0,0:0:0:0:
100,112,135917,2,0,L|108:208,1,85
25,330,136250,1,8,0:0:0:0:
212,360,136417,6,0,P|272:368|356:280,1,170
136,280,136917,1,8,0:0:0:0:
136,280,137250,1,0,0:0:0:0:
224,248,137417,1,0,0:0:0:0:
56,176,137584,1,8,0:0:0:0:
236,112,137750,5,0,0:0:0:0:
252,132,137834,2,0,L|352:116,1,85
356,136,138084,1,0,0:0:0:0:
472,240,138250,1,8,0:0:0:0:
472,240,138334,1,0,0:0:0:0:
472,240,138417,1,0,0:0:0:0:
380,356,138584,6,0,L|332:344,1,42.5
248,304,138750,2,0,L|206:314,1,42.5
100,348,138917,1,8,0:0:0:0:
24,240,139084,6,0,P|16:184|112:108,1,170,4|0,0:0|0:0,0:0:0:0:
203,274,139584,2,0,L|186:370,1,85,8|0,0:0|0:0,0:0:0:0:
121,202,139917,1,2,0:0:0:0:
310,229,140084,1,0,0:0:0:0:
302,200,140167,1,0,0:0:0:0:
295,171,140250,1,8,0:0:0:0:
480,63,140417,6,0,P|470:136|381:169,1,170,2|0,0:0|0:0,0:0:0:0:
213,34,140917,1,8,0:0:0:0:
396,88,141084,1,0,0:0:0:0:
220,211,141250,1,2,0:0:0:0:
299,86,141417,1,0,0:0:0:0:
299,86,141500,1,0,0:0:0:0:
299,86,141584,1,8,0:0:0:0:
410,178,141750,1,0,0:0:0:0:
220,221,141917,5,4,0:0:0:0:
370,309,142084,1,2,0:0:0:0:
299,86,142250,1,8,0:0:0:0:
270,294,142417,6,0,P|211:309|147:269,1,127.5,6|0,0:0|0:0,0:0:0:0:
127,198,142750,2,0,L|140:70,1,127.5,2|0,0:0|0:0,0:0:0:0:
28,15,143084,2,0,L|38:155,1,127.5,14|0,0:0|0:0,0:0:0:0:
37,142,143417,1,2,0:0:0:0:
136,39,143584,1,8,0:0:0:0:
243,117,143750,1,10,0:0:0:0:
142,135,143917,5,2,0:0:0:0:
232,16,144084,1,0,0:0:0:0:
293,220,144250,1,8,0:0:0:0:
293,220,144334,1,0,0:0:0:0:
293,220,144417,2,0,B|244:237|205:218|205:218|162:207|112:235,1,170,6|0,0:0|0:0,0:0:0:0:
175,376,144917,1,8,0:0:0:0:
296,309,145084,1,0,0:0:0:0:
180,297,145250,5,2,0:0:0:0:
317,340,145417,1,0,0:0:0:0:
379,194,145584,1,8,0:0:0:0:
158,207,145750,2,0,L|177:388,1,170,2|0,0:0|0:0,0:0:0:0:
175,376,146167,1,0,0:0:0:0:
175,376,146250,1,8,0:0:0:0:
359,273,146417,2,0,P|427:262|456:172,1,170,2|0,0:0|0:0,0:0:0:0:
362,44,146917,5,8,0:0:0:0:
272,192,147084,1,0,0:0:0:0:
447,154,147250,2,0,L|358:144,1,85,2|0,0:0|0:0,0:0:0:0:
263,86,147500,1,0,0:0:0:0:
263,86,147584,2,0,L|165:87,1,85,8|0,0:0|0:0,0:0:0:0:
83,163,147834,1,0,0:0:0:0:
83,163,147917,2,0,L|23:173,1,42.5,2|0,0:0|0:0,0:0:0:0:
143,253,148084,2,0,L|184:246,1,42.5,2|0,0:0|0:0,0:0:0:0:
314,185,148250,2,0,L|254:195,1,42.5,8|0,0:0|0:0,0:0:0:0:
364,306,148417,6,0,P|445:298|484:217,1,170,6|0,0:0|0:0,0:0:0:0:
369,126,148917,1,8,0:0:0:0:
401,232,149084,1,2,0:0:0:0:
294,71,149250,5,2,0:0:0:0:
279,261,149417,1,0,0:0:0:0:
456,161,149584,1,8,0:0:0:0:
279,261,149750,6,0,P|222:274|137:195,1,170,4|0,0:0|0:0,0:0:0:0:
33,352,150250,2,0,P|60:320|107:300,1,85,8|0,0:0|0:0,0:0:0:0:
224,366,150584,1,2,0:0:0:0:
62,224,150750,1,0,0:0:0:0:
237,163,150917,1,8,0:0:0:0:
136,262,151084,1,2,0:0:0:0:
136,262,151417,5,2,0:0:0:0:
327,213,151584,1,8,0:0:0:0:
152,176,151750,1,0,0:0:0:0:
152,176,151834,1,0,0:0:0:0:
152,176,151917,1,2,0:0:0:0:
270,339,152084,1,0,0:0:0:0:
265,163,152250,5,8,0:0:0:0:
254,175,152334,2,0,L|153:167,1,85,8|0,0:0|0:0,0:0:0:0:
152,176,152584,1,6,0:0:0:0:
266,255,152750,1,0,0:0:0:0:
363,114,152917,1,8,0:0:0:0:
213,9,153084,6,0,P|207:51|221:96,1,85,2|0,0:0|0:0,0:0:0:0:
423,241,153417,2,0,P|437:198|432:140,1,85,2|8,0:0|0:0,0:0:0:0:
177,277,153750,2,0,B|229:299|274:262|274:262|350:300,1,170,2|0,0:0|0:0,0:0:0:0:
333,291,154167,1,0,0:0:0:0:
333,291,154250,1,8,0:0:0:0:
197,362,154417,2,0,P|140:359|86:267,1,170,2|0,0:0|0:0,0:0:0:0:
132,156,154917,2,0,L|141:209,1,42.5,8|0,0:0|0:0,0:0:0:0:
71,98,155084,2,0,L|74:56,1,42.5,8|0,0:0|0:0,0:0:0:0:
145,9,155250,5,4,0:0:0:0:
54,179,155417,1,2,0:0:0:0:
294,122,155584,1,10,0:0:0:0:
188,310,155750,2,0,L|180:221,1,85,2|0,0:0|0:0,0:0:0:0:
401,277,156084,2,0,L|391:375,1,85,2|8,0:0|0:0,0:0:0:0:
136,384,156417,6,0,P|191:340|292:368,1,170,6|0,0:0|0:0,0:0:0:0:
420,180,156917,1,8,0:0:0:0:
314,245,157084,1,2,0:0:0:0:
479,246,157250,5,2,0:0:0:0:
327,162,157417,1,0,0:0:0:0:
486,119,157584,1,8,0:0:0:0:
420,180,157750,5,0,0:0:0:0:
420,180,157834,1,0,0:0:0:0:
420,180,157917,1,2,0:0:0:0:
286,85,158084,1,2,0:0:0:0:
220,250,158250,1,8,0:0:0:0:
56,165,158417,2,0,L|46:76,1,85,2|0,0:0|0:0,0:0:0:0:
186,136,158750,1,2,0:0:0:0:
178,156,158834,1,0,0:0:0:0:
170,175,158917,1,8,0:0:0:0:
215,30,159084,5,2,0:0:0:0:
198,68,159167,1,2,0:0:0:0:
199,110,159250,1,2,0:0:0:0:
219,147,159334,1,2,0:0:0:0:
254,171,159417,1,2,0:0:0:0:
295,178,159500,1,0,0:0:0:0:
336,165,159584,2,0,L|381:157,1,42.5,8|0,0:0|0:0,0:0:0:0:
261,333,159750,6,0,P|195:342|141:290,1,127.5,2|0,0:0|0:0,0:0:0:0:
126,235,160084,2,0,L|136:180,1,42.5,2|0,0:0|0:0,0:0:0:0:
59,38,160250,6,0,L|65:169,1,127.5,8|0,0:0|0:0,0:0:0:0:
41,238,160584,6,2,P|43:278|56:305,1,63.75,2|0,0:0|0:0,0:0:0:0:
130,335,160917,6,0,L|296:319,1,152.999995330811,8|0,0:0|0:0,0:0:0:0:
282,320,161250,1,6,0:0:0:0:
135,133,161417,1,0,0:0:0:0:
5,325,161584,1,8,0:0:0:0:
344,378,161750,6,0,P|420:370|457:290,1,170,12|0,0:0|0:0,0:0:0:0:
296,187,162250,1,8,0:0:0:0:
364,289,162417,1,2,0:0:0:0:
400,79,162584,5,2,0:0:0:0:
388,188,162750,1,0,0:0:0:0:
388,188,162834,1,0,0:0:0:0:
388,188,162917,1,8,0:0:0:0:
247,36,163084,1,2,0:0:0:0:
111,248,163250,6,0,L|249:245,1,127.5,6|0,0:0|0:0,0:0:0:0:
238,245,163584,1,8,0:0:0:0:
124,148,163750,1,0,0:0:0:0:
87,358,163917,1,2,0:0:0:0:
0,249,164084,1,0,0:0:0:0:
0,249,164167,1,0,0:0:0:0:
0,249,164250,1,8,0:0:0:0:
159,62,164417,6,0,B|204:95|209:136|209:136|195:179|214:220,1,170,6|0,0:0|0:0,0:0:0:0:
448,90,164917,1,8,0:0:0:0:
500,242,165084,1,2,0:0:0:0:
354,99,165250,5,8,0:0:0:0:
345,279,165417,1,8,0:0:0:0:
165,266,165584,1,8,0:0:0:0:
174,86,165751,1,8,0:0:0:0:
408,237,165917,6,0,P|411:318|334:353,1,170,4|8,0:0|0:0,0:0:0:0:
254,293,166417,1,0,0:0:0:0:
254,293,166500,1,2,0:0:0:0:
254,293,166584,1,2,0:0:0:0:
358,154,166750,1,0,0:0:0:0:
240,33,166917,1,8,0:0:0:0:
331,238,167084,6,0,P|385:240|447:147,1,170,2|0,0:0|0:0,0:0:0:0:
255,148,167584,1,10,0:0:0:0:
242,165,167667,1,2,0:0:0:0:
230,182,167750,1,2,0:0:0:0:
16,315,167917,5,2,0:0:0:0:
56,301,168000,1,2,0:0:0:0:
98,302,168084,1,2,0:0:0:0:
138,313,168167,1,0,0:0:0:0:
166,344,168250,6,0,B|211:350|211:350|298:327,1,127.5,8|0,0:0|0:0,0:0:0:0:
290,329,168584,1,2,0:0:0:0:
163,231,168750,1,0,0:0:0:0:
67,384,168917,1,8,0:0:0:0:
249,257,169084,1,0,0:0:0:0:
249,257,169167,1,0,0:0:0:0:
249,257,169250,5,2,0:0:0:0:
72,218,169417,1,2,0:0:0:0:
280,119,169584,1,10,0:0:0:0:
136,56,169750,2,0,L|144:147,1,85,2|0,0:0|0:0,0:0:0:0:
334,343,170084,1,2,0:0:0:0:
249,257,170250,1,8,0:0:0:0:
359,131,170417,1,2,0:0:0:0:
424,320,170584,5,2,0:0:0:0:
247,363,170750,1,8,0:0:0:0:
97,328,170917,1,8,0:0:0:0:
97,328,171250,5,2,0:0:0:0:
319,151,176584,5,0,0:0:0:0:
257,86,177417,2,0,L|261:42,2,31.8750012159348,0|0|0,0:0|0:0|0:0,0:0:0:0:
400,136,177750,2,0,P|396:180|316:229,1,127.500004863739
345,60,178250,2,0,P|413:45|471:86,1,127.500004863739
491,165,178750,5,0,0:0:0:0:
481,202,178834,1,0,0:0:0:0:
471,238,178917,1,0,0:0:0:0:
462,275,179000,1,0,0:0:0:0:
452,312,179084,1,0,0:0:0:0:
439,348,179167,1,0,0:0:0:0:
424,383,179250,6,0,L|390:293,1,85
167,196,179584,1,0,0:0:0:0:
140,358,179750,2,0,P|179:360|229:345,1,85
321,150,180084,1,0,0:0:0:0:
87,192,180250,6,0,P|104:244|219:256,1,170
483,175,180750,2,0,B|375:138|375:138|321:150,1,170
381,240,181250,5,0,0:0:0:0:
483,84,181417,1,0,0:0:0:0:
307,55,181584,1,0,0:0:0:0:
307,55,181667,1,0,0:0:0:0:
307,55,181750,1,0,0:0:0:0:
235,213,181917,6,0,L|248:309,1,85,4|0,0:0|0:0,0:0:0:0:
349,371,182250,1,0,0:0:0:0:
104,256,182417,2,0,L|108:156,1,85,8|0,0:0|0:0,0:0:0:0:
197,71,182750,1,0,0:0:0:0:
164,341,182917,6,0,P|103:361|9:301,1,170,4|0,0:0|0:0,0:0:0:0:
145,169,183417,1,0,0:0:0:0:
252,298,183584,1,0,0:0:0:0:
104,256,183750,1,0,0:0:0:0:
235,160,183917,1,0,0:0:0:0:
51,178,184084,1,0,0:0:0:0:
196,237,184250,1,0,0:0:0:0:
196,237,184334,1,0,0:0:0:0:
196,237,184417,1,0,0:0:0:0:
86,97,184584,5,4,0:0:0:0:
19,256,184750,1,0,0:0:0:0:
161,323,184917,1,0,0:0:0:0:
235,160,185084,6,0,L|224:16,1,127.5
225,32,185417,1,0,0:0:0:0:
145,160,185584,1,0,0:0:0:0:
306,264,185750,1,0,0:0:0:0:
356,125,185917,1,0,0:0:0:0:
356,125,186084,1,0,0:0:0:0:
221,243,186250,1,0,0:0:0:0:
221,243,186417,1,0,0:0:0:0:
366,349,186584,5,0,0:0:0:0:
460,236,186750,1,0,0:0:0:0:
286,176,186917,1,0,0:0:0:0:
453,33,187084,6,0,L|449:146,1,95.6250036478044
370,237,187417,2,0,L|367:193,1,31.8750012159348
464,18,187584,6,0,L|460:131,1,95.6250036478044
381,222,187917,2,0,L|378:178,1,31.8750012159348,0|0,0:0|0:0,0:0:0:0:
475,2,188084,6,0,L|471:115,1,95.6250036478044
392,206,188417,2,0,L|389:162,1,31.8750012159348,0|0,0:0|0:0,0:0:0:0:
479,269,188584,2,0,L|476:309,1,31.8750012159348
385,366,188750,2,0,L|382:322,1,31.8750012159348,0|0,0:0|0:0,0:0:0:0:
282,265,188917,2,0,L|279:305,1,31.8750012159348
96,329,189084,5,0,0:0:0:0:
96,329,189167,1,0,0:0:0:0:
96,329,189250,1,0,0:0:0:0:
191,324,189417,5,0,0:0:0:0:
282,265,189584,5,0,0:0:0:0:
295,145,189750,5,4,0:0:0:0:
204,132,191084,1,4,0:0:0:0:
220,152,192417,1,4,0:0:0:0:
84,292,193750,1,4,0:0:0:0:
144,360,194750,5,0,0:0:0:0:
160,356,194834,1,0,0:0:0:0:
176,352,194917,1,0,0:0:0:0:
192,348,195000,1,0,0:0:0:0:
208,344,195084,1,0,0:0:0:0:
296,320,195250,6,0,L|288:384,1,63.7500024318696,4|0,0:0|0:0,0:0:0:0:
384,300,195584,2,0,L|376:364,1,63.7500024318696
276,176,195917,2,0,L|268:240,1,63.7500024318696
364,156,196251,2,0,L|356:220,1,63.7500024318696
384,300,196584,6,0,P|424:292|460:280,1,63.7500024318696
296,320,196917,2,0,P|256:328|220:340,1,63.7500024318696
176,232,197250,2,0,P|207:237|237:246,1,63.7500024318696
87,210,197583,2,0,P|55:205|25:196,1,63.7500024318696
148,144,197917,6,0,P|156:104|156:68,1,63.7500024318696
87,210,198250,2,0,P|48:223|17:241,1,63.7500024318696
176,232,198584,2,0,P|206:258|237:276,1,63.7500024318696
256,184,198917,5,0,0:0:0:0:
156,324,199084,2,0,P|92:344|16:284,1,159.375006079674,4|0,0:0|0:0,0:0:0:0:
48,120,199584,1,0,0:0:0:0:
96,260,199750,1,0,0:0:0:0:
28,140,199917,1,0,0:0:0:0:
176,232,200084,1,0,0:0:0:0:
72,344,200250,1,0,0:0:0:0:
140,132,200417,1,0,0:0:0:0:
244,292,200584,5,8,0:0:0:0:
96,260,200750,1,0,0:0:0:0:
192,128,200917,1,0,0:0:0:0:
332,256,201084,1,8,0:0:0:0:
156,328,201250,1,0,0:0:0:0:
276,184,201417,1,0,0:0:0:0:
316,360,201584,1,0,0:0:0:0:
176,232,201750,1,8,0:0:0:0:
368,168,201917,1,8,0:0:0:0:
368,168,202000,1,0,0:0:0:0:
368,168,202084,1,0,0:0:0:0:
316,360,202250,5,0,0:0:0:0:
240,328,202417,5,0,0:0:0:0:
164,364,202584,2,0,L|80:372,1,63.7500024318696
188,204,202917,5,0,0:0:0:0:
188,204,203000,1,0,0:0:0:0:
188,204,203084,6,0,P|224:240|344:220,1,170,4|2,0:0|0:0,0:0:0:0:
420,68,203584,2,0,L|328:52,1,85,8|0,0:0|0:0,0:0:0:0:
268,176,203917,1,2,0:0:0:0:
156,52,204084,1,0,0:0:0:0:
92,248,204250,1,10,0:0:0:0:
256,320,204417,6,0,P|288:340|392:272,1,170,2|0,0:0|0:0,0:0:0:0:
268,176,204917,1,8,0:0:0:0:
160,296,205084,2,0,L|172:392,1,85,2|0,0:0|0:0,0:0:0:0:
308,256,205417,1,0,0:0:0:0:
172,148,205584,1,10,0:0:0:0:
104,344,205750,6,0,P|48:348|8:236,1,170,4|0,0:0|0:0,0:0:0:0:
172,148,206250,2,0,L|272:124,1,85,8|2,0:0|0:0,0:0:0:0:
340,360,206584,2,0,P|290:362|240:336,1,85,0|2,0:0|0:0,0:0:0:0:
348,168,206917,5,8,0:0:0:0:
487,274,207084,6,0,L|471:335,1,42.5
472,337,207250,1,0,0:0:0:0:
348,168,207417,2,0,L|357:221,1,42.5
305,278,207584,1,0,0:0:0:0:
285,271,207667,1,0,0:0:0:0:
265,264,207750,1,0,0:0:0:0:
218,78,207917,2,0,L|229:136,1,42.5
233,138,208084,1,0,0:0:0:0:
476,100,208250,1,0,0:0:0:0:
476,100,208334,1,0,0:0:0:0:
476,100,208417,6,0,P|456:56|328:40,1,170,6|2,0:0|0:0,0:0:0:0:
264,224,208917,1,8,0:0:0:0:
384,116,209084,2,0,P|388:164|364:212,1,85
176,172,209417,1,2,0:0:0:0:
216,56,209584,1,8,0:0:0:0:
304,312,209750,2,0,P|256:352|136:320,1,170,4|0,0:0|0:0,0:0:0:0:
152,148,210250,1,8,0:0:0:0:
220,276,210417,1,2,0:0:0:0:
216,56,210584,2,0,L|320:40,1,85,0|2,0:0|0:0,0:0:0:0:
444,172,210917,1,8,0:0:0:0:
304,312,211084,6,0,P|260:304|216:192,1,170,6|0,0:0|0:0,0:0:0:0:
216,56,211584,1,10,0:0:0:0:
152,148,211750,1,0,0:0:0:0:
296,184,211917,1,0,0:0:0:0:
152,256,212084,1,2,0:0:0:0:
236,360,212250,1,8,0:0:0:0:
60,208,212417,1,2,0:0:0:0:
132,104,212584,6,0,L|144:64,1,42.5,4|0,0:0|0:0,0:0:0:0:
244,96,212750,2,0,L|274:67,1,42.5
344,140,212917,2,0,L|384:130,1,42.5,2|0,0:0|0:0,0:0:0:0:
388,244,213084,1,0,0:0:0:0:
296,352,213250,1,0,0:0:0:0:
272,348,213334,1,0,0:0:0:0:
248,344,213417,1,2,0:0:0:0:
224,340,213500,1,0,0:0:0:0:
200,336,213584,1,0,0:0:0:0:
88,364,213750,6,0,P|40:332|44:216,1,170,4|2,0:0|0:0,0:0:0:0:
136,124,214250,1,10,0:0:0:0:
104,280,214417,1,0,0:0:0:0:
28,128,214584,1,2,0:0:0:0:
176,212,214750,1,0,0:0:0:0:
168,28,214917,1,10,0:0:0:0:
76,236,215084,6,0,L|268:228,1,170
380,172,215584,2,0,P|392:216|384:272,1,85,8|2,0:0|0:0,0:0:0:0:
245,228,215917,1,0,0:0:0:0:
408,144,216084,1,0,0:0:0:0:
332,340,216250,1,10,0:0:0:0:
244,144,216417,1,0,0:0:0:0:
152,340,216584,6,0,L|64:332,1,85,4|2,0:0|0:0,0:0:0:0:
20,224,216917,1,8,0:0:0:0:
132,136,217084,2,0,L|268:124,1,127.5,2|0,0:0|0:0,0:0:0:0:
324,200,217417,2,0,L|451:211,1,127.5,2|0,0:0|0:0,0:0:0:0:
496,304,217750,6,0,P|476:352|360:360,1,170,6|0,0:0|0:0,0:0:0:0:
276,272,218250,2,0,L|288:176,1,85,8|2,0:0|0:0,0:0:0:0:
416,72,218584,1,0,0:0:0:0:
460,216,218750,1,2,0:0:0:0:
312,116,218917,1,8,0:0:0:0:
504,32,219084,6,0,L|320:16,1,170,4|0,0:0|0:0,0:0:0:0:
264,184,219584,1,8,0:0:0:0:
236,48,219750,1,2,0:0:0:0:
396,152,219917,1,0,0:0:0:0:
276,272,220084,1,2,0:0:0:0:
352,48,220250,1,8,0:0:0:0:
453,276,220417,6,0,P|384:322|304:304,1,170,6|0,0:0|0:0,0:0:0:0:
188,376,220917,1,8,0:0:0:0:
264,184,221084,1,2,0:0:0:0:
368,240,221250,1,0,0:0:0:0:
180,296,221417,1,2,0:0:0:0:
236,104,221584,1,8,0:0:0:0:
324,344,221750,1,0,0:0:0:0:
324,344,221834,1,0,0:0:0:0:
324,344,221917,6,0,P|372:352|428:336,1,85,4|2,0:0|0:0,0:0:0:0:
264,184,222250,2,0,P|216:176|160:192,1,85,8|2,0:0|0:0,0:0:0:0:
56,284,222584,2,0,L|64:372,1,85,8|2,0:0|0:0,0:0:0:0:
264,184,222917,1,8,0:0:0:0:
76,112,223084,5,6,0:0:0:0:
80,72,225250,6,0,L|72:128,1,42.5,2|2,0:0|0:0,0:0:0:0:
168,160,225417,2,0,L|161:117,1,42.5,2|2,0:0|0:0,0:0:0:0:
264,108,225584,6,0,L|292:60,1,42.5
368,140,225750,2,0,L|416:116,1,42.5
416,244,225917,6,0,P|424:304|344:368,1,170,6|10,0:0|0:0,0:0:0:0:
244,348,226417,1,0,0:0:0:0:
168,160,226584,1,0,0:0:0:0:
264,228,226750,1,0,0:0:0:0:
76,248,226917,1,8,0:0:0:0:
88,80,227084,6,0,P|244:52|288:48,1,170,2|0,0:0|0:0,0:0:0:0:
404,100,227584,1,8,0:0:0:0:
347,243,227750,2,0,P|305:238|264:228,1,85,2|0,0:0|0:0,0:0:0:0:
120,100,228084,2,0,P|162:94|203:84,2,85,0|8|0,0:0|0:0|0:0,0:0:0:0:
60,224,228584,6,0,P|52:272|64:332,1,85,2|0,0:0|0:0,0:0:0:0:
224,364,228917,2,0,P|232:316|220:256,1,85,10|0,0:0|0:0,0:0:0:0:
124,144,229250,1,0,0:0:0:0:
296,84,229417,1,0,0:0:0:0:
180,88,229584,1,8,0:0:0:0:
312,232,229750,6,0,P|360:252|472:168,1,170,6|0,0:0|0:0,0:0:0:0:
424,80,230250,1,8,0:0:0:0:
296,140,230417,6,0,L|248:132,1,42.5,2|0,0:0|0:0,0:0:0:0:
180,88,230584,1,0,0:0:0:0:
140,76,230667,1,0,0:0:0:0:
100,84,230750,1,0,0:0:0:0:
68,112,230834,1,0,0:0:0:0:
60,156,230917,2,0,L|72:220,1,42.5
144,244,231084,2,0,L|151:202,1,42.5
240,156,231250,6,0,P|296:144|352:152,1,85,4|0,0:0|0:0,0:0:0:0:
412,176,231584,1,8,0:0:0:0:
424,352,231750,2,0,L|332:336,1,85,0|2,0:0|0:0,0:0:0:0:
236,264,232084,2,0,L|152:278,1,85,0|10,0:0|0:0,0:0:0:0:
52,200,232417,1,2,0:0:0:0:
112,360,232584,5,4,0:0:0:0:
204,168,232750,1,0,0:0:0:0:
316,224,232917,2,0,P|324:268|316:312,1,85,8|0,0:0|0:0,0:0:0:0:
224,368,233250,1,2,0:0:0:0:
136,272,233417,1,0,0:0:0:0:
292,128,233584,5,0,0:0:0:0:
316,124,233667,1,0,0:0:0:0:
340,120,233750,5,0,0:0:0:0:
364,116,233834,1,0,0:0:0:0:
388,112,233917,1,0,0:0:0:0:
136,272,234084,5,4,0:0:0:0:
136,272,234250,1,4,0:0:0:0:
256,192,234417,12,0,239917,0:0:0:0:
