osu file format v13

[General]
AudioFilename: Kayano Ai - Oracion.mp3
AudioLeadIn: 1301
PreviewTime: 51301
Countdown: 1
SampleSet: Soft
StackLeniency: 0.7
Mode: 2
LetterboxInBreaks: 0
WidescreenStoryboard: 0

[Editor]
DistanceSpacing: 1.4
BeatDivisor: 4
GridSize: 16
TimelineZoom: 1

[Metadata]
Title:Oracion(TV-Size)
TitleUnicode:オラシオン(TV-Size)
Artist:Kayano Ai
ArtistUnicode:茅野愛衣
Creator:Serena-
Version:Cup
Source:ノーゲーム・ノーライフ
Tags:No Game No Life Yuu Kamiya Atsuko Ishizuka madhouse super sweep Kuuhaku CLSW
BeatmapID:413084
BeatmapSetID:170658

[Difficulty]
HPDrainRate:3.5
CircleSize:3
OverallDifficulty:5
ApproachRate:5
SliderMultiplier:1.2
SliderTickRate:1

[Events]
//Background and Video events
0,0,"game2.jpg",0,0
Video,0,"Ending.avi"
//Break Periods
//Storyboard Layer 0 (Background)
//Storyboard Layer 1 (Fail)
//Storyboard Layer 2 (Pass)
//Storyboard Layer 3 (Foreground)
//Storyboard Sound Samples
//Background Colour Transformations
3,100,163,162,255

[TimingPoints]
699,361.44578313253,4,2,1,5,1,0
1421,-100,4,2,1,10,0,0
2867,-100,4,2,1,18,0,0
5036,-100,4,2,1,25,0,0
40458,-100,4,2,1,30,0,0
48409,-100,4,3,1,32,0,0
48952,-100,4,3,1,35,0,0
49494,-100,4,3,1,37,0,0
50036,-100,4,3,1,40,0,0
51301,-100,4,2,1,40,0,1
73891,-100,4,2,1,40,0,0
74433,-100,4,2,1,40,0,1
87445,-100,4,2,1,5,0,1
88439,-100,4,2,1,5,0,0

[Colours]
Combo1 : 118,221,115
Combo2 : 255,74,165
Combo3 : 255,155,205
Combo4 : 255,128,128

[HitObjects]
256,192,699,12,0,3590,0:0:0:0:
192,272,5036,6,0,P|96:256|32:192,2,180,10|0|0,0:0|0:0|0:0,0:0:0:0:
336,160,6482,2,0,P|192:176|64:16,1,360,2|0,0:0|0:0,0:0:0:0:
208,272,7927,6,0,P|304:256|368:192,2,180,10|0|0,0:0|0:0|0:0,0:0:0:0:
64,192,9373,2,0,P|208:208|336:48,1,360,2|0,0:0|0:0,0:0:0:0:
208,160,10819,2,0,B|256:160|256:160|256:96|256:96|336:128,2,180,2|0|0,0:0|0:0|0:0,0:0:0:0:
96,96,12265,5,10,0:0:0:0:
208,96,12626,1,0,0:0:0:0:
96,96,12988,1,0,0:0:0:0:
208,96,13349,1,0,0:0:0:0:
336,96,13711,6,0,P|416:86|496:160,2,180,10|0|0,0:0|0:0|0:0,0:0:0:0:
208,272,15156,2,0,P|304:240|336:208,1,120,2|0,0:0|0:0,0:0:0:0:
240,224,15698,2,0,P|160:208|48:240,1,180,2|0,0:0|0:0,0:0:0:0:
64,176,16602,6,0,P|144:176|192:208,2,120,6|8|0,0:0|0:0|0:0,0:0:0:0:
128,144,17686,2,0,P|64:224|160:336,1,240,0|0,0:0|0:0,0:0:0:0:
256,304,18771,2,0,P|337:271|368:240,1,120,0|0,0:0|0:0,0:0:0:0:
480,176,19494,6,0,P|448:112|384:80,2,120,2|8|0,0:0|0:0|0:0,0:0:0:0:
384,208,20578,2,0,P|382:310|237:334,1,240,0|0,0:0|0:0,0:0:0:0:
368,272,21662,2,0,P|320:336|272:352,1,120,0|0,0:0|0:0,0:0:0:0:
144,336,22385,6,0,P|48:304|64:176,1,240,4|0,0:0|0:0,0:0:0:0:
176,176,23470,1,0,0:0:0:0:
304,176,23831,6,0,P|368:144|352:80,2,120,0|0|0,0:0|0:0|0:0,0:0:0:0:
192,176,24915,1,0,0:0:0:0:
320,176,25277,6,0,L|64:176,1,240,6|0,0:0|0:0,0:0:0:0:
160,224,26180,2,0,L|208:160,3,60,0|0|0|2,0:0|0:0|0:0|0:0,0:0:0:0:
272,176,26903,2,0,L|128:176,1,120
80,176,27445,2,0,L|32:128,2,60,2|0|2,0:0|0:0|0:0,0:0:0:0:
270,242,28168,6,0,P|324:218|384:224,2,120,6|0|0,0:0|0:0|0:0,0:0:0:0:
128,240,29253,2,0,L|384:240,1,240
224,176,30337,2,0,P|305:209|338:290,1,180
432,288,31060,6,8,P|464:224|528:192,2,120,6|0|0,0:0|0:0|0:0,0:0:0:0:
288,208,32144,1,0,0:0:0:0:
192,208,32325,6,0,P|224:272|336:288,1,180,0|0,0:0|0:0,0:0:0:0:
464,208,33229,2,0,P|416:272|336:272,1,120,0|0,0:0|0:0,0:0:0:0:
272,272,33951,6,0,L|128:272,1,120,6|0,0:0|0:0,0:0:0:0:
208,272,34494,1,0,0:0:0:0:
144,272,34674,2,0,P|240:256|368:176,2,240,2|2|2,0:0|0:0|0:0,0:1:0:0:
256,240,36482,1,0,0:0:0:0:
368,240,36843,6,0,L|176:240,2,180,6|0|0,0:0|0:0|0:0,0:0:0:0:
272,240,38108,2,0,P|352:208|368:112,1,180,2|0,0:0|0:0,0:0:0:0:
256,96,38831,5,0,0:0:0:0:
176,96,39011,1,8,0:0:0:0:
368,112,39373,1,2,0:0:0:0:
464,112,39735,1,4,0:0:0:0:
160,176,40458,5,8,0:0:0:0:
272,176,40819,1,0,0:0:0:0:
384,176,41180,2,0,P|448:144|480:80,1,120,8|0,0:0|0:0,0:0:0:0:
368,96,41723,2,0,B|304:128|272:176|272:176|208:176,1,180,8|0,0:0|0:0,0:0:0:0:
64,176,42626,6,0,L|256:176,1,180,4|0,0:0|0:0,0:0:0:0:
336,176,43349,2,0,P|256:176|224:80,1,180,8|0,0:0|0:0,0:0:0:0:
144,112,44072,5,8,0:0:0:0:
272,112,44433,1,0,0:0:0:0:
336,112,44614,2,0,P|432:128|448:160,1,120
352,208,45156,1,8,0:0:0:0:
160,208,45518,1,6,0:0:0:0:
320,208,46241,6,0,L|176:208,1,120,0|8,0:0|0:0,0:0:0:0:
80,144,46964,1,0,0:0:0:0:
192,144,47325,1,8,0:0:0:0:
304,144,47686,1,0,0:0:0:0:
416,144,48048,1,8,0:0:0:0:
256,240,48409,5,0,0:0:0:0:
256,240,48590,1,0,0:0:0:0:
352,240,48952,5,0,0:0:0:0:
352,240,49132,1,8,2:0:0:0:
448,240,49494,5,0,0:0:0:0:
448,240,49674,1,0,0:0:0:0:
352,240,50036,5,0,0:0:0:0:
272,240,50217,1,8,2:0:0:0:
208,192,50397,1,0,0:0:0:0:
176,112,50578,1,0,0:0:0:0:
368,112,50939,1,8,2:0:0:0:
112,208,51301,6,0,P|208:208|224:176,1,120,6|8,0:0|0:0,0:0:0:0:
288,192,51843,1,0,0:0:0:0:
368,192,52024,2,0,P|272:192|256:160,1,120,0|8,0:0|0:0,0:0:0:0:
176,176,52566,1,0,0:0:0:0:
80,176,52747,5,0,0:0:0:0:
256,176,53108,1,8,0:0:0:0:
432,176,53470,1,0,0:0:0:0:
256,176,53831,1,8,0:0:0:0:
80,176,54192,6,4,L|272:176,1,180,6|0,0:0|0:0,0:0:0:0:
432,176,55096,1,0,0:0:0:0:
240,176,55458,6,0,L|384:176,1,120,2|0,0:0|0:0,0:0:0:0:
448,176,56180,1,2,0:0:0:0:
288,176,56542,1,0,0:0:0:0:
128,176,56903,5,0,0:0:0:0:
176,176,57084,2,0,P|256:176|288:144,1,120,6|0,0:0|0:0,0:0:0:0:
336,144,57626,1,0,0:0:0:0:
208,144,57988,1,0,0:0:0:0:
80,144,58349,6,0,L|224:144,1,120,2|0,0:0|0:0,0:0:0:0:
320,144,59072,1,0,0:0:0:0:
128,144,59433,1,0,0:0:0:0:
251,20,59795,2,0,B|144:144|144:144|232:144|232:144|352:144|352:144|384:192,1,420,6|0,0:0|0:0,0:0:0:0:
464,176,61241,1,0,0:0:0:0:
352,176,61421,6,0,L|232:176,2,120,0|0|0,0:0|0:0|0:0,0:0:0:0:
272,96,62325,1,0,0:0:0:0:
64,144,62686,1,0,0:0:0:0:
144,144,62867,5,2,0:0:0:0:
256,176,63229,2,0,P|227:174|196:176,1,60,10|0,0:0|0:0,0:0:0:0:
276,176,63590,2,0,L|336:176,1,60,2|0,0:0|0:0,0:0:0:0:
416,176,63952,2,0,L|356:176,1,60,10|0,0:0|0:0,0:0:0:0:
432,176,64313,2,0,P|416:240|336:240,1,120,2|8,0:0|0:0,0:0:0:0:
272,160,64855,1,6,0:0:0:0:
144,160,65217,6,0,L|84:160,2,60,8|0|0,0:0|0:0|0:0,0:0:0:0:
208,160,65759,1,8,0:0:0:0:
288,160,65939,1,0,0:0:0:0:
368,160,66120,1,8,0:0:0:0:
448,160,66301,1,0,0:0:0:0:
368,160,66482,5,8,0:0:0:0:
144,224,66843,2,0,B|104:224|360:224|360:224|360:64|360:64|240:64,1,480,6|0,0:0|0:0,0:0:0:0:
128,128,68650,6,0,P|208:112|240:64,1,120,2|8,0:0|0:0,0:0:0:0:
336,96,69192,1,0,0:0:0:0:
192,96,69554,1,0,0:0:0:0:
272,96,69915,1,2,0:0:0:0:
128,96,70277,1,0,0:0:0:0:
288,96,70638,2,0,B|192:96|192:96|276:96,1,180,0|8,0:0|0:0,0:0:0:0:
352,96,71361,6,0,L|412:96,2,60,0|2|0,0:0|0:0|0:0,0:0:0:0:
272,96,71903,2,0,L|160:96,1,60,8|0,0:0|0:0,0:0:0:0:
160,96,72265,2,0,L|240:192,1,120,2|8,0:0|0:0,0:0:0:0:
304,192,72807,1,0,0:0:0:0:
352,192,72988,6,0,L|224:192,1,120,2|8,0:0|0:0,0:0:0:0:
160,192,73530,1,0,0:0:0:0:
80,192,73711,1,2,0:0:0:0:
0,192,73891,1,0,0:0:0:0:
176,256,74433,6,0,P|80:256|64:224,1,120,4|8,0:0|0:0,0:0:0:0:
128,256,74976,1,0,0:0:0:0:
160,256,75156,2,0,P|80:240|48:192,1,120,0|8,0:0|0:0,0:0:0:0:
128,208,75698,1,0,0:0:0:0:
192,208,75879,5,0,0:0:0:0:
320,208,76241,1,8,0:0:0:0:
448,208,76602,1,0,0:0:0:0:
384,208,76783,1,0,0:0:0:0:
320,208,76964,1,8,0:0:0:0:
256,208,77144,1,0,0:0:0:0:
176,208,77324,6,0,L|368:208,1,180,6|0,0:0|0:0,0:0:0:0:
464,208,78228,1,2,0:0:0:0:
304,208,78590,2,0,L|160:208,1,120,0|0,0:0|0:0,0:0:0:0:
80,208,79312,1,2,0:0:0:0:
256,208,79674,1,0,0:0:0:0:
160,144,80035,5,0,0:0:0:0:
208,144,80216,2,0,P|288:144|320:112,1,120,6|8,0:0|0:0,0:0:0:0:
368,112,80758,1,0,0:0:0:0:
224,144,81120,1,0,0:0:0:0:
368,144,81481,6,0,L|176:144,1,180,2|8,0:0|0:0,0:0:0:0:
128,144,82204,1,0,0:0:0:0:
256,144,82565,1,0,0:0:0:0:
384,144,82927,6,0,B|448:144|448:144|448:208|448:208|336:208|336:208|384:208|384:208|382:272|382:272|288:272,1,420,4|0,0:0|0:0,0:0:0:0:
320,272,84735,1,0,0:0:0:0:
320,272,84915,1,0,0:0:0:0:
128,272,85276,1,0,0:0:0:0:
128,272,85457,2,0,P|216:270|240:240,1,120
336,240,86000,5,2,0:0:0:0:
384,144,86362,2,0,L|444:144,1,60,10|0,0:0|0:0,0:0:0:0:
364,144,86723,2,0,L|304:144,1,60,2|0,0:0|0:0,0:0:0:0:
224,144,87084,2,0,L|284:144,1,60,10|0,0:0|0:0,0:0:0:0:
256,192,87445,12,0,88439,0:0:0:0:
