osu file format v12

[General]
AudioFilename: Ending Servant x Service.mp3
AudioLeadIn: 0
PreviewTime: 51387
Countdown: 0
SampleSet: Soft
StackLeniency: 0.7
Mode: 0
LetterboxInBreaks: 1
WidescreenStoryboard: 1

[Editor]
DistanceSpacing: 0.8
BeatDivisor: 4
GridSize: 8

[Metadata]
Title:Hachimitsu Doki(TV Size)
TitleUnicode:ハチミツ時間(TV Size)
Artist:Kayano Ai
ArtistUnicode:茅野愛衣
Creator:blacktea989
Version:Hard
Source:Servant x Service
Tags:サーバント×サービス
BeatmapID:289165
BeatmapSetID:111089

[Difficulty]
HPDrainRate:5
CircleSize:4
OverallDifficulty:6
ApproachRate:7
SliderMultiplier:1.4
SliderTickRate:1

[Events]
//Background and Video events
Video,0,"videoplayback.flv"
0,0,"bandicam 2013-09-05 00-54-09-785.png",0,0
//Break Periods
2,61953,63220
//Storyboard Layer 0 (Background)
//Storyboard Layer 1 (Fail)
//Storyboard Layer 2 (Pass)
//Storyboard Layer 3 (Foreground)
//Storyboard Sound Samples
//Background Colour Transformations
3,100,163,162,255

[TimingPoints]
2574,394.451383866938,4,2,2,30,1,0
7307,-100,4,2,1,30,0,0
10462,-100,4,2,1,30,0,0
10857,-100,4,2,1,30,0,0
16774,-100,4,2,1,30,0,0
17168,-100,4,2,2,30,0,0
19535,-100,4,2,1,30,0,0
19929,-100,4,2,2,30,0,0
22296,-100,4,3,1,30,0,0
22690,-100,4,3,1,30,0,0
23085,-100,4,2,1,30,0,0
23479,-100,4,2,2,30,0,0
28607,-100,4,3,1,30,0,0
29002,-100,4,3,1,30,0,0
29396,-100,4,3,1,30,0,0
29790,-100,4,2,1,30,0,0
32552,-100,4,3,2,30,0,0
34129,-100,4,3,1,30,0,0
35707,-100,4,3,1,30,0,0
36496,-100,4,3,1,30,0,0
37285,-100,4,3,1,30,0,0
37877,-100,4,3,2,30,0,0
40441,-100,4,3,1,30,0,0
42018,-100,4,3,1,30,0,0
42807,-100,4,3,1,30,0,0
43596,-100,4,3,1,30,0,0
45174,-100,4,2,2,30,0,0
47541,-100,4,2,2,30,0,0
48330,-100,4,2,3,30,0,0
50105,-100,4,2,3,50,0,1
51485,-100,4,1,2,50,0,1
53063,-100,4,2,1,50,0,1
54641,-100,4,2,2,50,0,1
56021,-100,4,2,1,50,0,1
57796,-100,4,3,1,50,0,1
58585,-100,4,3,1,50,0,1
59374,-100,4,3,1,50,0,1
60952,-100,4,2,2,50,0,1
61741,-100,4,2,1,50,0,1
64108,-100,4,3,1,50,0,1
64108,-100,4,3,1,50,0,1
64897,-100,4,3,1,50,0,1
65686,-100,4,2,1,50,0,1
66277,-100,4,2,1,50,0,1
67264,-100,4,2,1,50,0,1
68052,-100,4,2,1,50,0,1
69630,-100,4,3,2,50,0,1
71997,-100,4,3,1,50,0,1
73575,-100,4,2,1,50,0,1
76336,-100,4,2,1,30,0,0
76730,-100,4,3,2,30,0,0
81464,-100,4,2,2,30,0,0
83042,-100,4,3,1,30,0,0
84619,-100,4,3,1,30,0,0
86197,-100,4,2,2,10,0,0

[HitObjects]
112,144,207,1,0,0:0:0:0:
112,144,305,1,0,0:0:0:0:
112,144,404,1,0,0:0:0:0:
216,64,1007,2,0,P|344:80|360:104,2,140
272,144,2191,1,8,0:0:0:0:
208,224,2585,2,0,P|312:240|336:216,2,140
120,280,3769,1,8,0:0:0:0:
40,224,4163,2,0,L|40:80,2,140
136,168,5346,1,8,0:0:0:0:
240,168,5741,2,0,L|384:168,2,140
240,264,6924,1,8,0:0:0:0:
168,88,7319,6,0,L|248:88,4,70
336,80,8502,1,8,0:0:0:0:
336,80,8699,2,0,L|336:232,3,140
336,216,10080,1,8,0:0:0:0:
184,336,10869,6,0,P|88:240|88:224,1,140
80,152,11658,2,8,L|128:88,2,70
184,176,12447,2,0,P|320:184|336:176,1,140
352,104,13235,1,8,0:0:0:0:
424,168,13630,2,0,L|392:240,1,70
408,312,14024,2,0,L|328:320,1,70
304,240,14419,1,8,0:0:0:0:
200,288,14813,2,0,P|160:240|160:208,1,70
80,224,15208,2,0,P|104:168|112:160,1,70
192,152,15602,1,8,0:0:0:0:
192,152,15997,1,0,0:0:0:0:
72,112,16786,5,8,0:0:0:0:
152,64,17180,2,0,P|256:64|280:88,1,140
277,84,17772,1,0,0:0:0:0:
277,84,17969,1,8,0:0:0:0:
208,128,18363,2,8,P|424:144|432:128,1,280
464,240,19547,1,0,0:0:0:0:
240,288,19941,6,0,L|320:288,4,70
128,288,21124,1,0,0:0:0:0:
128,224,21322,2,0,L|128:72,3,140
128,84,22702,1,8,0:0:0:0:
184,80,23097,6,0,L|328:80,1,140
416,80,23886,2,8,L|456:160,2,70
320,128,24675,2,0,P|216:168|216:192,1,140
264,272,25463,2,8,P|144:272|136:256,1,140
40,240,26252,2,0,L|40:152,1,70
112,184,26647,2,0,L|112:104,1,70
112,48,27041,1,8,0:0:0:0:
216,88,27436,2,0,L|288:48,1,70
280,136,27830,2,0,L|344:176,1,70
368,104,28225,1,8,0:0:0:0:
368,104,28619,1,0,0:0:0:0:
408,240,29408,5,0,0:0:0:0:
336,288,29802,2,8,P|232:288|208:264,1,140
210,267,30394,1,0,0:0:0:0:
210,267,30591,1,8,0:0:0:0:
312,192,30986,2,0,P|96:176|88:192,1,280,0|8,0:0|0:0,0:0:0:0:
48,288,32169,1,0,0:0:0:0:
64,104,32564,5,0,0:0:0:0:
136,72,32958,2,8,P|240:112|248:144,1,140
256,152,33550,1,0,0:0:0:0:
264,184,33747,1,8,0:0:0:0:
184,232,34141,2,8,P|80:192|72:160,1,140
160,88,34930,2,0,L|248:88,4,70,0|0|0|0|8,0:0|0:0|0:0|0:0|0:0,0:0:0:0:
280,144,36114,2,0,L|368:144,4,70,0|0|0|0|8,0:0|0:0|0:0|0:0|0:0,0:0:0:0:
448,192,37297,2,0,P|400:320|384:328,1,140
406,315,37889,1,8,0:0:0:0:
406,315,38086,1,8,0:0:0:0:
248,296,38875,5,0,0:0:0:0:
152,216,39269,2,0,L|152:136,4,70,0|0|0|0|8,0:0|0:0|0:0|0:0|0:0,0:0:0:0:
248,168,40453,2,0,L|336:168,4,70,0|0|0|0|8,0:0|0:0|0:0|0:0|0:0,0:0:0:0:
416,192,41636,6,8,L|320:296,1,140,0|8,0:0|0:0,0:0:0:0:
208,288,42425,2,8,L|304:184,1,140,0|8,0:0|0:0,0:0:0:0:
176,184,43214,1,0,0:0:0:0:
112,272,43608,1,8,0:0:0:0:
64,168,44003,1,0,0:0:0:0:
56,64,44397,1,8,0:0:0:0:
152,64,44792,1,0,0:0:0:0:
248,56,45186,2,0,L|320:56,1,70,0|8,0:0|0:0,0:0:0:0:
280,144,45580,2,0,L|370:144,1,70,0|8,0:0|0:0,0:0:0:0:
352,144,45975,1,8,0:0:0:0:
352,144,46369,1,8,0:0:0:0:
464,144,46764,6,0,L|464:288,1,140
464,280,47553,1,8,0:0:0:0:
464,280,47750,1,0,0:0:0:0:
464,280,47947,1,8,0:0:0:0:
464,280,48144,1,0,0:0:0:0:
464,280,48342,1,8,0:0:0:0:
360,272,50117,5,0,0:0:0:0:
264,272,50314,2,0,L|264:224,2,35
168,272,50708,1,0,0:0:0:0:
64,272,50906,2,0,L|64:224,2,35
40,128,51497,5,0,0:0:0:0:
112,64,51892,2,0,L|144:32,2,35
176,136,52286,1,0,0:0:0:0:
256,64,52681,2,0,L|320:64,2,35
416,88,53667,5,8,0:0:0:0:
416,176,54061,1,0,0:0:0:0:
416,176,54160,1,0,0:0:0:0:
416,176,54258,1,0,0:0:0:0:
408,272,54653,5,0,0:0:0:0:
312,272,55047,2,0,L|312:232,2,35
224,280,55442,1,0,0:0:0:0:
144,272,55836,2,0,L|96:248,2,35
136,168,56231,1,8,0:0:0:0:
72,80,56625,1,0,0:0:0:0:
168,40,57020,1,0,0:0:0:0:
168,40,57119,1,0,0:0:0:0:
168,40,57217,1,0,0:0:0:0:
320,80,57808,6,0,L|400:80,4,70
320,80,58992,1,0,0:0:0:0:
320,80,59189,1,8,0:0:0:0:
320,184,59781,1,0,0:0:0:0:
320,272,60175,2,0,L|320:352,2,70
176,256,60964,2,0,P|168:144|184:120,1,140
179,125,61556,1,0,0:0:0:0:
179,125,61753,1,8,0:0:0:0:
80,144,64120,5,8,0:0:0:0:
176,144,64514,2,0,L|176:184,2,35
280,144,64909,1,8,0:0:0:0:
376,144,65303,2,0,L|376:184,2,35
472,144,66289,1,8,0:0:0:0:
472,240,66683,1,0,0:0:0:0:
472,240,66782,1,0,0:0:0:0:
472,240,66880,1,0,0:0:0:0:
384,320,67275,1,0,0:0:0:0:
296,320,67670,2,0,L|256:288,2,35
184,320,68064,1,0,0:0:0:0:
96,320,68459,2,0,L|96:256,2,35
160,112,69642,6,0,L|248:112,4,70
224,192,71023,1,0,0:0:0:0:
224,192,71220,1,0,0:0:0:0:
336,240,72009,2,0,P|104:240|80:216,2,280
256,192,73685,12,8,76348,0:0:0:0:
112,184,76742,6,0,L|184:184,2,70,0|0|8,0:0|0:0|0:0,0:0:0:0:
400,184,77531,2,0,L|328:184,2,70,0|0|8,0:0|0:0|0:0,0:0:0:0:
176,32,78320,6,0,L|112:88,1,70,0|8,0:0|0:0,0:0:0:0:
200,112,78714,2,0,L|256:160,1,70,0|8,0:0|0:0,0:0:0:0:
184,216,79109,1,0,0:0:0:0:
248,288,79503,1,8,0:0:0:0:
320,224,79898,1,0,0:0:0:0:
408,168,80292,1,0,0:0:0:0:
408,168,80489,1,0,0:0:0:0:
408,168,80687,1,0,0:0:0:0:
448,72,81476,1,8,0:0:0:0:
104,144,83053,6,0,P|232:144|256:168,1,140,0|4,0:0|0:0,0:0:0:0:
176,216,83842,2,0,P|304:216|320:192,1,140,0|4,0:0|0:0,0:0:0:0:
368,160,84631,1,8,0:0:0:0:
456,160,85026,1,8,0:0:0:0:
440,256,85420,2,8,L|360:256,1,70
256,192,86209,12,4,87787,0:0:0:0:
