osu file format v14

[General]
AudioFilename: Kayano Ai - Anohi no mamade.mp3
AudioLeadIn: 0
PreviewTime: -1
Countdown: 0
SampleSet: Normal
StackLeniency: 0.7
Mode: 0
LetterboxInBreaks: 1
WidescreenStoryboard: 0

[Editor]
DistanceSpacing: 1
BeatDivisor: 4
GridSize: 4
TimelineZoom: 1

[Metadata]
Title:Anohi no mamade
TitleUnicode:あの日のままで
Artist:Kayano Ai
ArtistUnicode:茅野愛衣
Creator:- N a g i -
Version:Normal
Source:
Tags:Nagi no Asukara
BeatmapID:681010
BeatmapSetID:303919

[Difficulty]
HPDrainRate:3
CircleSize:4
OverallDifficulty:3
ApproachRate:5
SliderMultiplier:1
SliderTickRate:2

[Events]
//Background and Video events
0,0,"77a51791gw1eh2asekpm6j21hc0u0tdb.jpg",0,0
//Break Periods
2,90792,100839
2,206449,217681
//Storyboard Layer 0 (Background)
//Storyboard Layer 1 (Fail)
//Storyboard Layer 2 (Pass)
//Storyboard Layer 3 (Foreground)
//Storyboard Sound Samples

[TimingPoints]
0,789.473684210526,4,1,0,100,1,0

[HitObjects]
344,228,13618,5,0,0:0:0:0:
344,232,14407,1,0,0:0:0:0:
344,228,15197,1,0,0:0:0:0:
344,232,15986,1,0,0:0:0:0:
344,228,16776,1,0,0:0:0:0:
344,232,17565,1,0,0:0:0:0:
344,228,18355,1,0,0:0:0:0:
344,232,19144,1,0,0:0:0:0:
232,120,20328,6,0,L|284:164,1,50
244,240,21513,2,0,L|192:200,1,50
112,160,22697,2,0,L|264:160|260:160,1,150
136,160,26249,6,0,B|240:160|240:160|232:160,1,100
336,176,27828,1,0,0:0:0:0:
336,176,29013,1,0,0:0:0:0:
188,172,30197,2,0,B|420:296|416:292,1,250
376,196,32960,6,0,L|312:168,1,50
236,140,34144,2,0,L|200:204,1,50
116,212,35328,2,0,L|232:212,2,100
248,148,38092,6,0,L|352:148,1,100
420,148,39671,1,0,0:0:0:0:
164,144,40263,2,0,L|204:144,1,25
164,216,40855,1,0,0:0:0:0:
246,216,41249,1,0,0:0:0:0:
336,220,41644,2,0,L|500:220,2,150
208,144,44407,6,0,L|208:260,2,100
344,176,46578,2,0,L|364:200,1,25
240,176,47171,1,0,0:0:0:0:
156,176,47565,2,0,L|156:240,3,50
100,144,50723,6,0,L|216:144,2,100
184,208,52697,2,0,L|224:236,2,25
344,156,53486,1,0,0:0:0:0:
436,156,53881,1,0,0:0:0:0:
332,228,54276,2,0,L|236:292,2,100
200,228,56249,1,0,0:0:0:0:
200,228,57434,5,0,0:0:0:0:
200,228,58618,2,0,L|352:228,2,150
256,192,61381,12,0,63749,0:0:0:0:
352,232,64144,5,0,0:0:0:0:
432,244,64934,2,0,L|480:276,1,50
352,232,65723,1,0,0:0:0:0:
280,176,66513,2,0,L|224:136,1,50
352,232,67302,1,0,0:0:0:0:
352,160,68092,2,0,L|352:108,1,50
352,232,68881,1,0,0:0:0:0:
352,304,69671,2,0,L|352:368,1,50
240,184,70460,5,0,0:0:0:0:
312,184,71249,2,0,L|372:184,1,50
240,184,72039,1,0,0:0:0:0:
164,184,72828,2,0,L|100:184,1,50
240,184,73618,1,0,0:0:0:0:
240,84,74407,2,0,L|240:24,1,50
240,184,75197,1,0,0:0:0:0:
244,284,75986,2,0,L|244:320,2,25
240,184,76776,6,0,L|276:184,2,25
292,184,77565,1,0,0:0:0:0:
236,184,78355,2,0,L|208:184,2,25
184,184,79144,1,0,0:0:0:0:
240,184,79934,2,0,L|280:184,2,25
240,112,80723,2,0,L|240:80,2,25
120,176,81513,2,0,L|120:136,2,25
260,332,82302,2,0,L|260:292,2,25
224,184,83092,6,0,L|248:184,4,25
320,184,84276,1,0,0:0:0:0:
216,184,84671,2,0,L|184:184,4,25
92,184,85855,1,0,0:0:0:0:
204,184,86249,2,0,L|248:184,8,25
256,192,88223,12,0,90592,0:0:0:0:
368,168,102039,5,0,0:0:0:0:
368,168,103618,1,0,0:0:0:0:
368,168,105197,1,0,0:0:0:0:
368,168,106776,1,0,0:0:0:0:
220,172,107565,2,0,L|176:172,2,25
220,172,108749,6,0,L|248:168,2,25
224,172,109934,2,0,L|176:172,2,25
224,168,111118,2,0,L|384:168,1,150
164,244,113092,1,0,0:0:0:0:
264,244,113881,1,0,0:0:0:0:
260,144,114671,5,0,0:0:0:0:
360,144,115460,1,0,0:0:0:0:
364,240,116249,1,0,0:0:0:0:
224,236,117039,2,0,L|104:236,2,100
320,236,119013,1,0,0:0:0:0:
392,200,119407,2,0,L|436:172,1,50
408,108,120197,2,0,L|352:144,1,50
164,184,121381,6,0,L|208:184,2,25
168,96,122565,2,0,L|132:96,2,25
268,92,123749,1,0,0:0:0:0:
368,92,124144,2,0,L|412:92,2,25
152,160,126513,6,0,L|220:160,1,50
324,144,128092,1,0,0:0:0:0:
420,144,128486,2,0,L|452:144,2,25
420,212,129276,1,0,0:0:0:0:
332,212,129671,2,0,L|260:212,2,50
420,212,130855,1,0,0:0:0:0:
232,184,132828,6,0,L|160:184,2,50
180,184,134407,1,0,0:0:0:0:
252,184,134802,2,0,L|312:184,2,50
372,184,135986,1,0,0:0:0:0:
376,268,136381,2,0,L|320:268,4,50
296,204,138355,2,0,L|328:204,2,25
232,168,139144,5,0,0:0:0:0:
228,264,139539,2,0,L|336:264,1,100
348,132,141118,2,0,L|396:136,2,25
260,132,141907,1,0,0:0:0:0:
176,132,142302,1,0,0:0:0:0:
172,228,142697,2,0,L|288:228,2,100
84,228,144671,1,0,0:0:0:0:
252,192,145460,5,0,0:0:0:0:
252,108,145855,2,0,L|360:108,1,100
328,192,147039,1,0,0:0:0:0:
400,188,147434,2,0,L|520:188,3,100
468,268,150592,2,0,L|428:268,2,25
256,188,152565,5,0,0:0:0:0:
252,268,153355,2,0,L|316:268,1,50
256,188,154144,1,0,0:0:0:0:
168,188,154934,2,0,L|108:188,1,50
248,92,155723,2,0,L|296:92,2,25
248,296,156513,2,0,L|200:292,2,25
136,184,157302,2,0,L|136:144,2,25
408,156,158092,2,0,L|408:200,2,25
236,160,158881,6,0,L|236:272,2,100
332,132,161249,2,0,L|332:180,2,25
332,232,162039,2,0,L|332:336,2,100
248,288,164407,1,0,0:0:0:0:
248,264,164605,1,0,0:0:0:0:
248,240,164802,1,0,0:0:0:0:
248,144,165197,5,0,0:0:0:0:
344,144,165986,2,0,L|408:144,1,50
248,144,166776,1,0,0:0:0:0:
152,140,167565,2,0,L|88:140,1,50
152,268,168355,2,0,L|152:308,2,25
256,268,169144,2,0,L|256:316,2,25
364,268,169934,2,0,L|364:312,2,25
464,268,170723,2,0,L|464:316,2,25
252,176,171513,6,0,L|324:176,1,50
256,256,172302,2,0,L|256:296,2,25
252,176,173092,2,0,L|192:176,1,50
256,256,173881,2,0,L|256:292,2,25
256,152,174671,2,0,L|372:152,3,100
216,192,178618,6,0,L|288:192,2,50
120,192,179802,2,0,L|120:160,2,25
120,288,180592,1,0,0:0:0:0:
212,292,180986,2,0,L|240:292,2,25
312,292,181776,1,0,0:0:0:0:
316,184,182171,6,0,L|364:184,2,25
184,184,182960,2,0,L|120:180,2,50
192,272,184144,1,0,0:0:0:0:
192,168,184934,6,0,L|264:168,2,50
316,168,186118,2,0,L|316:240,2,50
312,304,187302,2,0,L|192:304,3,100
216,188,190460,6,0,L|280:188,1,50
360,188,191249,1,0,0:0:0:0:
360,212,191447,1,0,0:0:0:0:
360,236,191644,1,0,0:0:0:0:
292,244,192039,2,0,L|224:244,1,50
176,236,192828,2,0,L|176:192,2,25
176,124,193618,2,0,L|232:124,6,50
256,192,196381,5,0,0:0:0:0:
368,192,196776,2,0,L|368:312,1,100
264,300,197960,2,0,L|232:300,4,25
256,188,199144,5,0,0:0:0:0:
280,188,199342,1,0,0:0:0:0:
304,188,199539,2,0,L|408:188,1,100
408,256,200723,1,0,0:0:0:0:
408,280,200921,1,0,0:0:0:0:
408,304,201118,2,0,L|292:304,1,100
256,192,202302,5,0,0:0:0:0:
232,192,202499,1,0,0:0:0:0:
208,192,202697,1,0,0:0:0:0:
256,192,203092,12,0,206249,0:0:0:0:
256,192,218881,5,0,0:0:0:0:
360,192,219671,2,0,L|420:192,1,50
256,192,220460,1,0,0:0:0:0:
156,192,221249,2,0,L|88:192,1,50
256,192,222039,1,0,0:0:0:0:
256,92,222828,2,0,L|256:32,1,50
256,192,223618,1,0,0:0:0:0:
260,292,224407,2,0,L|260:360,1,50
256,192,225197,5,0,0:0:0:0:
356,192,225986,2,0,L|428:192,1,50
256,192,226776,1,0,0:0:0:0:
156,192,227565,2,0,L|96:192,1,50
156,284,228355,2,0,L|272:284,2,100
160,184,230723,2,0,L|160:152,2,25
260,184,231513,6,0,L|288:184,2,25
260,264,232302,1,0,0:0:0:0:
176,264,232697,1,0,0:0:0:0:
76,264,233092,2,0,P|76:108|148:144,1,300
236,140,235855,1,0,0:0:0:0:
320,144,236249,2,0,L|384:140,2,50
236,140,237434,1,0,0:0:0:0:
104,136,237828,6,0,L|104:184,2,25
236,280,238618,2,0,L|276:280,2,25
388,164,239407,2,0,L|388:132,2,25
256,80,240197,2,0,L|224:80,2,25
256,192,240986,2,0,L|144:192,3,100
256,308,244144,5,0,0:0:0:0:
360,308,244934,1,0,0:0:0:0:
476,304,245723,2,0,P|392:164|368:192,1,300
296,180,248486,1,0,0:0:0:0:
196,176,248881,2,0,L|124:176,3,50
144,276,250460,6,0,L|188:276,2,25
256,280,251249,1,0,0:0:0:0:
360,280,251644,1,0,0:0:0:0:
492,280,252039,2,0,L|448:280,2,25
492,192,252828,1,0,0:0:0:0:
400,188,253223,1,0,0:0:0:0:
312,188,253618,2,0,L|212:188,2,100
256,192,255592,12,0,256776,0:0:0:0:
