osu file format v5

[General]
AudioFilename: 祝英台.mp3
AudioLeadIn: 0
PreviewTime: -1
Countdown: 1
SampleSet: Normal
StackLeniency: 0.7
Mode: 0
LetterboxInBreaks: 1

[Metadata]
Title:KAY
Artist:Kay
Creator:chit0818
Version:Normal
Source:
Tags:Kay

[Difficulty]
HPDrainRate:5
CircleSize:5
OverallDifficulty:5
SliderMultiplier:1.5
SliderTickRate:1

[Events]
//Background and Video events
0,0,"1229256979.jpg"
//Break Periods
//Storyboard Layer 0 (Background)
//Storyboard Layer 1 (Failing)
//Storyboard Layer 2 (Passing)
//Storyboard Layer 3 (Foreground)
//Storyboard Sound Samples
//Background Colour Transformations
3,100,163,162,255

[TimingPoints]
1177.91124260355,352.929585798816,4,1,0,100,1

[HitObjects]
32,160,23412,5,0
64,160,23765,1,0
96,160,24824,1,0
128,160,25530,1,0
160,160,26235,1,0
192,160,26941,1,0
224,160,27647,1,0
256,160,29059,1,0
288,160,29765,1,0
320,160,30471,1,0
352,160,31176,1,0
352,192,32588,1,0
192,96,34706,5,0
256,96,35412,1,0
224,160,36117,1,0
192,128,37176,1,0
224,128,37529,1,0
192,160,38588,1,0
224,160,39294,1,0
64,64,40706,1,0
128,64,41058,1,0
192,64,42117,1,0
256,64,42823,1,0
320,64,43882,1,0
128,128,46352,5,0
128,128,47058,1,0
128,128,47764,1,0
192,128,48470,1,0
192,128,49176,1,0
192,128,49882,1,0
256,128,50588,1,0
416,128,51999,1,0
416,128,52705,1,0
416,128,53411,1,0
352,128,54117,1,0
320,128,55176,1,0
128,128,56940,1,0
192,128,57646,1,0
224,128,58352,1,0
256,128,59058,1,0
352,96,59764,1,0
288,160,60470,1,0
192,64,61175,1,0
320,64,61881,1,0
160,128,63293,5,0
192,128,63999,1,0
224,128,64705,1,0
256,128,65411,1,0
288,128,66116,1,0
160,96,68234,1,0
192,96,68940,1,0
224,96,69646,1,0
256,96,70352,1,0
288,96,71057,1,0
320,96,71763,1,0
96,192,74234,1,0
128,192,74587,1,0
160,192,75293,1,0
192,192,75998,1,0
224,192,76704,1,0
256,192,77410,1,0
448,64,79881,5,0
448,96,80234,1,0
448,128,81292,1,0
448,160,81645,1,0
448,192,81998,1,0
384,224,82704,1,0
320,224,83410,1,0
256,224,83763,1,0
224,224,84469,1,0
224,224,84822,1,0
192,64,86233,1,0
224,64,86939,1,0
224,96,87292,1,0
192,128,87645,1,0
256,160,88351,1,0
352,128,89057,1,0
128,128,92233,1,0
192,128,92586,1,0
256,128,92939,1,0
320,128,93292,1,0
384,128,93645,1,0
416,128,93998,1,0
416,128,94351,1,0
416,192,95057,1,0
352,192,95410,1,0
288,192,95763,1,0
224,192,96468,1,0
160,192,96821,1,0
96,192,97174,1,0
96,128,98233,1,0
160,128,98586,1,0
192,128,98939,1,0
256,128,99645,1,0
288,128,99998,1,0
320,128,100704,1,0
192,32,103174,5,0
192,96,103880,1,0
192,160,104586,1,0
192,224,105292,1,0
192,256,105645,1,0
256,256,106350,1,0
320,256,107056,1,0
320,192,107409,1,0
256,192,107762,1,0
256,160,108115,1,0
256,160,108468,1,0
256,160,108821,1,0
96,160,109527,2,0,B|352:96|352:96|64:64|64:64|0:96,2,600
128,96,114468,1,0
192,96,114821,1,0
224,96,115527,1,0
256,96,116232,1,0
320,96,116938,1,0
128,96,119409,5,0
224,96,119762,1,0
320,96,120468,1,0
320,192,120821,1,0
160,128,126820,5,0
224,128,127173,1,0
288,128,127526,1,0
352,128,128232,1,0
352,192,128938,1,0
256,192,129291,1,0
192,192,129997,1,0
128,192,130350,1,0
128,192,130703,1,0
224,96,132114,1,0
224,96,132467,1,0
224,96,133173,1,0
288,96,134232,1,0
288,96,134585,1,0
288,96,134938,1,0
224,96,137055,1,0
256,128,137408,1,0
224,192,138114,1,0
128,128,138467,1,0
192,64,138820,1,0
256,64,139879,1,0
256,64,140232,1,0
256,96,140585,1,0
192,96,140938,1,0
192,160,141290,1,0
256,224,141643,1,0
160,64,143055,1,0
192,64,143408,1,0
224,64,144114,1,0
416,64,144820,5,0
352,128,145526,1,0
224,160,146231,1,0
128,96,148349,1,0
320,96,149055,1,0
288,192,149761,1,0
160,192,150467,1,0
192,96,151172,1,0
224,96,151878,1,0
160,64,153996,5,0
192,160,154349,1,0
160,256,154702,1,0
288,256,155408,1,0
320,160,155761,1,0
320,128,156113,1,0
224,96,156819,1,0
192,96,157525,1,0
32,32,159643,5,0
32,320,160349,1,0
512,320,161055,1,0
512,32,161760,1,0
64,32,162819,1,0
64,224,163172,1,0
352,192,163878,1,0
352,64,164231,1,0
224,32,166348,1,0
160,96,166701,1,0
96,192,167054,1,0
128,288,167407,1,0
256,288,167760,1,0
384,256,168113,1,0
320,96,168466,1,0
192,32,168819,1,0
128,128,172348,1,0
192,64,172701,1,0
320,96,173054,1,0
320,224,173407,1,0
160,256,173760,1,0
192,160,174113,1,0
256,64,174466,1,0
320,128,175172,1,0
160,128,175878,1,0
224,32,176230,1,0
256,192,176583,1,0
416,128,176936,1,0
320,64,177289,1,0
352,64,177995,5,0
224,128,178348,1,0
64,160,178701,1,0
96,256,179054,1,0
256,256,179760,1,0
352,160,180113,1,0
320,64,180466,1,0
128,64,183642,5,0
128,192,183995,1,0
256,192,184348,1,0
320,96,184701,1,0
224,64,185054,1,0
192,96,185407,1,0
256,128,185760,1,0
256,128,186465,1,0
256,128,186818,1,0
256,128,187171,1,0
256,128,187524,1,0
256,128,187877,1,0
256,128,188230,1,0
256,128,188583,1,0
352,32,189642,5,0
192,64,189995,1,0
32,224,190348,1,0
256,256,191054,1,0
256,160,191406,1,0
256,160,192465,1,0
160,64,194230,1,0
256,64,194583,1,0
320,64,194936,1,0
384,64,195289,1,0
480,64,195642,1,0
416,192,195995,1,0
256,192,196347,1,0
384,96,197053,1,0
160,96,197406,1,0
128,224,198112,1,0
64,64,199524,1,0
448,320,199877,1,0
448,64,200583,1,0
32,352,200936,1,0
256,192,202347,12,0,206935
96,64,213994,5,0
256,96,214347,1,0
256,192,214700,1,0
96,288,215053,1,0
128,160,215406,1,0
384,64,215759,1,0
384,192,216464,1,0
224,224,216817,1,0
160,96,217170,1,0
288,64,217523,1,0
160,192,217876,1,0
256,288,218229,1,0
384,128,218582,1,0
320,64,219288,5,0
224,128,219994,1,0
96,128,220347,1,0
192,32,220700,1,0
224,128,221053,1,0
224,128,221758,1,0
224,128,222111,1,0
32,224,224935,1,0
96,224,225288,1,0
128,224,225641,1,0
192,224,225994,1,0
224,224,226346,1,0
224,288,226699,1,0
160,288,227052,1,0
480,64,228464,5,0
416,128,228817,1,0
320,192,229170,1,0
224,288,229523,1,0
64,288,229876,1,0
64,128,230229,1,0
320,64,230935,1,0
384,128,231288,1,0
384,256,231640,1,0
160,288,231993,1,0
128,160,232699,1,0
224,64,233052,1,0
384,64,233405,1,0
256,192,237993,12,0,253169
