osu file format v14

[General]
AudioFilename: opto.mp3
AudioLeadIn: 0
PreviewTime: 256057
Countdown: 0
SampleSet: Soft
StackLeniency: 0.7
Mode: 0
LetterboxInBreaks: 0
WidescreenStoryboard: 0

[Editor]
Bookmarks: 13827,26800,52746,81936,107882,133827,159773,188963,214909,227882,257071,283017,308963,333287
DistanceSpacing: 1.5
BeatDivisor: 4
GridSize: 32
TimelineZoom: 1

[Metadata]
Title:Weight of the World Kowaretasekainouta
TitleUnicode:Weight of the World/壊レタ世界ノ歌
Artist:Kawano Marina
ArtistUnicode:河野万里奈
Creator:Shad0w1and
Version:Aishiteru
Source:NieR:Automata
Tags:Kowareta Sekai no Uta SQUARE ENIX 岡部啓一 Keiichi Okabe 2B 9S A2
BeatmapID:1341766
BeatmapSetID:632018

[Difficulty]
HPDrainRate:5
CircleSize:4
OverallDifficulty:5
ApproachRate:7
SliderMultiplier:2.2
SliderTickRate:1

[Events]
//Background and Video events
Video,0,"opto.flv"
0,0,"BG.png",0,0
//Break Periods
2,108082,115900
2,215109,222927
2,309163,317882
//Storyboard Layer 0 (Background)
//Storyboard Layer 1 (Fail)
//Storyboard Layer 2 (Pass)
//Storyboard Layer 3 (Foreground)
//Storyboard Sound Samples

[TimingPoints]
855,810.810810810811,4,2,1,30,1,0
3287,-100,4,2,1,5,0,0
4098,-100,4,2,1,30,0,0
6530,-100,4,2,1,5,0,0
7341,-100,4,2,1,30,0,0
9773,-100,4,2,1,5,0,0
10584,-100,4,2,1,30,0,0
13017,-100,4,2,1,5,0,0
13827,-100,4,2,1,40,0,0
52746,-100,4,2,1,45,0,0
72206,-100,4,2,1,50,0,0
78692,-100,4,2,1,60,0,0
80314,-100,4,2,1,70,0,0
81936,-90.9090909090909,4,2,1,70,0,1
107882,-100,4,2,1,50,0,0
120044,-100,4,2,1,5,0,0
120855,-100,4,2,1,45,0,0
133827,-100,4,2,1,50,0,0
159773,-100,4,2,1,55,0,0
185719,-100,4,2,1,60,0,0
187341,-100,4,2,1,70,0,0
188963,-90.9090909090909,4,2,1,70,0,1
214909,-100,4,2,1,50,0,0
227882,-100,4,2,1,70,0,1
255449,-100,4,2,1,50,0,0
257071,-100,4,2,1,30,0,0
270044,-100,4,2,1,40,0,0
279773,-100,4,2,1,60,0,0
281395,-100,4,2,1,70,0,0
283017,-90.9090909090909,4,2,1,70,0,1
308963,-100,4,2,1,50,0,0
320314,810.810810810811,4,2,1,40,1,0
333489,-100,4,2,1,20,0,0
339773,-100,4,2,1,5,0,0

[Colours]
Combo1 : 205,205,205
Combo2 : 227,230,134
Combo3 : 248,150,78
Combo4 : 118,235,208

[HitObjects]
160,192,855,5,2,0:0:0:0:
256,192,1057,12,0,3287,0:0:0:0:
224,192,4098,5,2,0:0:0:0:
256,192,4300,12,0,6530,0:0:0:0:
288,192,7341,5,2,0:0:0:0:
256,192,7544,12,0,9773,0:0:0:0:
352,192,10584,5,2,0:0:0:0:
256,192,10787,12,0,13017,0:0:0:0:
0,82,13827,6,0,P|49:64|109:84,1,110,6|0,0:1|0:0,0:0:0:0:
165,133,14436,2,0,P|221:148|294:111,1,110,0|0,0:0|0:0,0:0:0:0:
412,50,15246,2,0,L|403:179,1,110,0|0,0:0|0:0,0:0:0:0:
485,141,15855,2,0,L|489:78,2,55,0|0|0,0:0|0:0|0:0,0:0:0:0:
339,217,16665,1,8,0:3:0:0:
339,217,17071,6,0,P|293:255|314:340,1,110,2|0,0:0|0:0,0:0:0:0:
359,345,17679,2,0,P|405:307|384:222,1,110,0|0,0:0|0:0,0:0:0:0:
276,161,18490,2,0,L|159:168,1,110,0|0,0:0|0:0,0:0:0:0:
123,238,19098,1,0,0:0:0:0:
169,305,19300,2,0,P|206:236|167:168,1,165,0|0,0:0|0:0,0:0:0:0:
165,167,20314,6,0,B|237:174|237:174|280:145,1,110,6|0,0:1|0:0,0:0:0:0:
349,170,20922,2,0,B|380:148|380:148|452:155,1,110,0|0,0:0|0:0,0:0:0:0:
480,318,21733,2,0,P|429:284|415:218,1,110,0|0,0:0|0:0,0:0:0:0:
332,257,22341,2,0,L|330:329,2,55,0|0|0,0:0|0:0|0:0,0:0:0:0:
330,91,23152,1,8,0:3:0:0:
330,91,23557,6,0,P|265:76|210:107,1,110,2|0,0:0|0:0,0:0:0:0:
149,62,24165,2,0,P|93:75|33:51,1,110
101,213,24977,2,0,L|84:339,1,110,0|0,0:0|0:0,0:0:0:0:
155,366,25585,1,0,0:0:0:0:
224,325,25787,2,0,P|156:285|86:322,1,165,0|0,0:0|0:0,0:0:0:0:
86,322,26800,6,0,L|84:196,1,110,6|0,0:1|0:0,0:0:0:0:
8,246,27409,1,0,0:0:0:0:
8,246,27611,2,0,L|10:392,1,110,0|0,0:0|0:0,0:0:0:0:
86,322,28219,2,0,P|132:301|193:347,1,110,0|0,0:0|0:0,0:0:0:0:
257,360,28827,2,0,P|303:381|373:345,1,110,0|0,0:0|0:0,0:0:0:0:
499,279,29638,1,8,0:3:0:0:
499,279,30044,6,0,L|506:151,1,110,2|0,0:0|0:0,0:0:0:0:
428,137,30652,1,0,0:0:0:0:
428,137,30855,2,0,L|420:282,1,110,0|0,0:0|0:0,0:0:0:0:
345,277,31463,2,0,P|294:291|225:247,1,110,0|0,0:0|0:0,0:0:0:0:
252,187,32071,2,0,P|303:173|372:217,1,110,0|0,0:0|0:0,0:0:0:0:
387,355,32882,2,0,L|459:363,1,55,0|0,0:0|0:0,0:0:0:0:
345,276,33287,6,0,P|308:313|300:369,1,110,6|0,0:1|0:0,0:0:0:0:
217,373,33895,2,0,P|159:382|103:355,1,110,0|0,0:0|0:0,0:0:0:0:
34,217,34706,2,0,L|60:78,1,110,0|0,0:0|0:0,0:0:0:0:
124,151,35314,2,0,L|110:225,1,55,0|0,0:0|0:0,0:0:0:0:
161,272,35719,2,0,L|150:332,2,55,0|0|8,0:0|0:0|0:3,0:0:0:0:
241,252,36327,1,0,0:0:0:0:
241,252,36530,6,0,P|296:235|361:255,1,110,2|0,0:0|0:0,0:0:0:0:
351,328,37138,2,0,P|295:344|231:325,1,110,0|0,0:0|0:0,0:0:0:0:
164,186,37949,2,0,L|38:212,1,110,0|0,0:0|0:0,0:0:0:0:
67,126,38557,2,0,L|139:113,1,55,0|0,0:0|0:0,0:0:0:0:
204,114,38963,1,0,0:0:0:0:
204,114,39773,6,0,P|246:88|257:3,1,110,6|0,0:1|0:0,0:0:0:0:
181,34,40382,1,0,0:0:0:0:
181,34,40584,2,0,L|60:37,1,110,0|0,0:0|0:0,0:0:0:0:
32,109,41192,2,0,P|16:158|56:224,1,110,0|0,0:0|0:0,0:0:0:0:
120,208,41800,2,0,P|136:162|96:93,1,110,0|0,0:0|0:0,0:0:0:0:
264,32,42611,1,8,0:3:0:0:
264,32,43017,6,0,L|385:27,1,110,2|0,0:0|0:0,0:0:0:0:
416,103,43625,1,0,0:0:0:0:
416,103,43828,2,0,L|284:108,1,110,0|0,0:0|0:0,0:0:0:0:
243,161,44436,2,0,P|220:213|251:282,1,110,0|0,0:0|0:0,0:0:0:0:
303,219,45044,2,0,L|435:214,1,110,0|0,0:0|0:0,0:0:0:0:
475,367,45855,1,0,0:0:0:0:
475,367,46260,6,0,P|406:362|380:316,1,110,6|0,0:1|0:0,0:0:0:0:
305,307,46868,2,0,P|247:347|243:394,1,110,0|0,0:0|0:0,0:0:0:0:
77,357,47679,2,0,B|64:277|64:277|88:216,1,110,0|0,0:0|0:0,0:0:0:0:
138,197,48287,2,0,L|213:211,1,55,0|0,0:0|0:0,0:0:0:0:
260,160,48692,2,0,L|345:176,2,55,0|0|8,0:0|0:0|0:3,0:0:0:0:
237,80,49300,1,0,0:0:0:0:
237,80,49503,6,0,L|94:93,1,110,2|0,0:0|0:0,0:0:0:0:
108,170,50111,2,0,L|-22:146,1,110,0|0,0:0|0:0,0:0:0:0:
52,306,50922,2,0,P|104:294|139:228,1,110
198,304,51530,2,0,L|274:303,1,55,0|0,0:0|0:0,0:0:0:0:
312,245,51936,2,0,L|394:245,2,55,0|0|0,0:0|0:0|0:0,0:0:0:0:
343,83,52746,6,0,P|404:103|428:167,1,110,6|0,0:1|0:0,0:0:0:0:
347,163,53355,1,0,0:0:0:0:
272,128,53557,2,0,L|256:55,2,55,0|0|0,0:0|0:0|0:0,0:0:0:0:
230,288,54368,2,0,L|204:172,1,110,2|0,0:0|0:0,0:0:0:0:
131,327,55179,2,0,L|112:239,2,55,0|0|8,0:0|0:0|0:3,0:0:0:0:
51,182,55990,6,0,P|-10:94|89:101,1,220,2|0,0:0|0:0,0:0:0:0:
168,43,57071,2,0,L|164:124,1,73.3333333333333,0|0,0:0|0:0,0:0:0:0:
251,182,57611,2,0,P|333:136|262:74,1,220,2|0,0:0|0:0,0:0:0:0:
262,74,59233,6,0,L|421:62,1,110,6|0,0:1|0:0,0:0:0:0:
401,142,59841,2,0,L|510:131,2,110
380,222,60855,2,0,P|327:234|277:213,1,110,2|0,0:0|0:0,0:0:0:0:
133,132,61665,2,0,P|185:119|235:140,1,110,0|8,0:0|0:3,0:0:0:0:
319,282,62476,6,0,L|324:142,1,110,2|0,0:0|0:0,0:0:0:0:
400,200,63084,1,0,0:0:0:0:
400,200,63287,2,0,L|398:272,2,55,0|0|0,0:0|0:0|0:0,0:0:0:0:
405,35,64098,2,0,P|451:66|466:122,1,110,2|0,0:0|0:0,0:0:0:0:
322,34,64909,2,0,P|275:65|260:121,1,110,0|0,0:0|0:0,0:0:0:0:
156,243,65719,6,0,L|36:236,1,110,6|0,0:1|0:0,0:0:0:0:
76,315,66327,1,0,0:0:0:0:
76,315,66530,2,0,L|167:321,2,55,0|0|0,0:0|0:0|0:0,0:0:0:0:
236,274,67341,2,0,P|275:239|252:160,1,110,2|0,0:0|0:0,0:0:0:0:
314,344,68152,2,0,L|404:343,2,55,0|0|8,0:0|0:0|0:3,0:0:0:0:
426,222,68963,6,0,P|497:159|417:108,1,220,2|0,0:0|0:0,0:0:0:0:
325,170,70044,2,0,L|233:166,1,73.3333333333333,0|0,0:0|0:0,0:0:0:0:
160,228,70584,2,0,P|79:176|151:114,1,220,2|0,0:0|0:0,0:0:0:0:
240,251,71800,1,0,0:0:0:0:
240,251,72206,6,0,L|397:237,1,110,6|0,0:1|0:0,0:0:0:0:
401,305,72814,2,0,L|542:292,2,110,0|0|0,0:0|0:0|0:0,0:0:0:0:
349,241,73827,2,0,P|357:180|396:152,1,110,2|0,0:0|0:0,0:0:0:0:
497,24,74638,2,0,L|382:18,1,110,0|0,0:0|0:0,0:0:0:0:
236,85,75449,6,0,B|250:130|289:156|289:156|260:158|239:167|239:167|193:158|162:172|130:201|111:253|136:304|178:324|211:330|244:316|260:307,1,440,2|2,0:0|0:0,0:0:0:0:
219,242,77882,2,0,L|285:236,2,55
219,242,78692,6,0,P|246:138|169:145,1,220,6|0,0:1|0:0,0:0:0:0:
136,219,79706,2,0,L|68:221,2,55,0|0|0,0:0|0:0|0:0,0:0:0:0:
219,242,80314,6,0,B|207:281|175:297|175:297|232:296|272:328,2,165,8|8|8,0:0|0:0|0:1,0:0:0:0:
364,133,81936,6,0,L|433:132,2,60.5000018463135,6|0|0,0:1|0:0|0:0,0:0:0:0:
273,134,82544,2,0,L|286:0,2,121.000003692627,2|0|2,0:0|0:0|0:0,0:0:0:0:
186,161,83557,2,0,P|132:180|67:151,1,121.000003692627,8|0,0:0|0:0,0:0:0:0:
134,89,84165,1,8,0:0:0:0:
186,161,84368,2,0,L|178:247,1,60.5000018463135,0|0,0:0|0:0,0:0:0:0:
106,274,84773,2,0,L|115:359,1,60.5000018463135,8|0,0:1|0:0,0:0:0:0:
193,376,85179,6,0,L|280:380,2,60.5000018463135,6|0|0,0:1|0:0|0:0,0:0:0:0:
235,295,85787,2,0,L|385:303,1,121.000003692627,2|0,0:0|0:0,0:0:0:0:
426,243,86395,2,0,L|436:179,1,60.5000018463135,0|2,0:0|0:0,0:0:0:0:
350,150,86800,2,0,L|336:250,1,60.5000018463135,0|0,0:0|0:0,0:0:0:0:
355,301,87206,1,8,0:0:0:0:
436,340,87409,2,0,L|522:331,1,60.5000018463135,0|0,0:0|0:0,0:0:0:0:
507,243,87814,1,8,0:1:0:0:
435,183,88017,2,0,L|351:191,1,60.5000018463135,0|0,0:0|0:0,0:0:0:0:
290,153,88422,6,0,P|246:130|234:36,1,121.000003692627,6|0,0:1|0:0,0:0:0:0:
298,12,89030,2,0,P|342:35|354:129,1,121.000003692627,2|0,0:0|0:0,0:0:0:0:
374,188,89638,1,0,0:0:0:0:
302,243,89841,2,0,B|296:325|296:325|336:375,1,121.000003692627,2|0,0:0|0:0,0:0:0:0:
387,294,90449,2,0,B|417:269|417:269|499:275,1,121.000003692627,8|0,0:0|0:0,0:0:0:0:
496,184,91057,1,8,0:1:0:0:
405,177,91260,2,0,L|344:173,1,60.5000018463135,0|0,0:0|0:0,0:0:0:0:
259,141,91665,6,0,P|234:87|260:35,1,121.000003692627,6|0,0:1|0:0,0:0:0:0:
347,62,92273,2,0,L|481:53,1,121.000003692627,2|0,0:0|0:0,0:0:0:0:
426,135,92882,2,0,L|426:212,1,60.5000018463135,2|0,0:0|0:0,0:0:0:0:
344,173,93287,2,0,L|343:318,1,121.000003692627,8|0,0:0|0:0,0:0:0:0:
262,336,93895,2,0,L|263:215,1,121.000003692627,8|0,0:0|0:0,0:0:0:0:
179,180,94503,2,0,P|134:191|109:220,1,60.5000018463135,8|0,0:1|0:0,0:0:0:0:
178,269,94909,6,0,L|176:355,2,60.5000018463135,6|0|0,0:1|0:0|0:0,0:0:0:0:
124,199,95517,2,0,P|67:209|33:280,2,121.000003692627,2|0|2,0:0|0:0|0:0,0:0:0:0:
211,180,96530,2,0,P|247:158|260:50,1,121.000003692627,8|0,0:0|0:0,0:0:0:0:
181,92,97138,1,8,0:0:0:0:
211,180,97341,2,0,L|285:190,1,60.5000018463135,0|0,0:0|0:0,0:0:0:0:
347,138,97746,2,0,L|407:125,1,60.5000018463135,8|0,0:1|0:0,0:0:0:0:
484,171,98152,6,0,L|476:262,2,60.5000018463135,6|0|0,0:1|0:0|0:0,0:0:0:0:
485,80,98760,2,0,P|444:40|371:39,1,121.000003692627,2|0,0:0|0:0,0:0:0:0:
295,60,99368,1,0,0:0:0:0:
249,138,99571,2,0,L|267:257,1,121.000003692627,2|0,0:0|0:0,0:0:0:0:
239,342,100179,1,8,0:0:0:0:
176,276,100382,2,0,L|88:262,1,60.5000018463135,0|0,0:0|0:0,0:0:0:0:
28,288,100787,1,8,0:1:0:0:
89,354,100990,2,0,L|157:365,1,60.5000018463135,0|0,0:0|0:0,0:0:0:0:
239,342,101395,6,0,P|268:293|234:208,1,121.000003692627,6|0,0:1|0:0,0:0:0:0:
173,187,102003,2,0,P|157:133|184:75,1,121.000003692627,2|0,0:0|0:0,0:0:0:0:
249,138,102611,1,0,0:0:0:0:
256,232,102814,2,0,B|302:245|302:245|412:224,1,121.000003692627,2|0,0:0|0:0,0:0:0:0:
448,282,103422,2,0,B|461:236|461:236|440:126,1,121.000003692627,8|0,0:0|0:0,0:0:0:0:
354,143,104030,1,8,0:1:0:0:
448,165,104233,2,0,L|536:142,1,60.5000018463135,0|0,0:0|0:0,0:0:0:0:
373,231,104638,6,0,L|238:200,1,121.000003692627,6|0,0:1|0:0,0:0:0:0:
199,276,105246,2,0,L|326:306,1,121.000003692627,2|0,0:0|0:0,0:0:0:0:
373,231,105855,2,0,P|391:203|387:145,1,60.5000018463135,2|0,0:0|0:0,0:0:0:0:
336,106,106260,2,0,L|490:95,1,121.000003692627,8|0,0:0|0:0,0:0:0:0:
484,182,106868,1,8,0:0:0:0:
484,182,107071,2,0,L|411:189,1,60.5000018463135,0|0,0:0|0:0,0:0:0:0:
362,254,107476,2,0,L|267:262,1,60.5000018463135,8|0,0:1|0:0,0:0:0:0:
219,269,107882,5,2,0:0:0:0:
256,192,116800,5,2,0:0:0:0:
256,192,117611,12,0,120044,0:0:0:0:
256,192,120855,6,0,P|277:132|236:65,1,110,6|0,0:1|0:0,0:0:0:0:
195,138,121463,2,0,L|68:118,1,110,0|0,0:0|0:0,0:0:0:0:
68,201,122071,2,0,L|190:220,1,110,0|0,0:0|0:0,0:0:0:0:
339,243,122882,2,0,L|327:328,1,55,0|0,0:0|0:0,0:0:0:0:
257,262,123287,2,0,P|276:190|330:160,1,110,0|8,0:0|0:3,0:0:0:0:
416,288,124098,6,0,L|480:290,1,55,2|0,0:0|0:0,0:0:0:0:
498,211,124503,2,0,L|418:208,2,55,0|0|0,0:0|0:0|0:0,0:0:0:0:
364,113,125314,2,0,P|341:74|359:10,1,110,0|0,0:0|0:0,0:0:0:0:
232,123,126125,2,0,L|151:124,1,55,0|0,0:0|0:0,0:0:0:0:
207,200,126530,2,0,L|70:203,1,110,0|8,0:0|0:3,0:0:0:0:
217,315,127341,6,0,L|223:373,2,55,6|0|0,0:1|0:0|0:0,0:0:0:0:
273,254,127949,2,0,P|322:237|383:268,1,110,0|0,0:0|0:0,0:0:0:0:
455,247,128557,2,0,L|468:128,1,110,0|0,0:0|0:0,0:0:0:0:
339,32,129368,2,0,L|329:112,1,55,0|0,0:0|0:0,0:0:0:0:
386,148,129773,2,0,L|373:257,1,110,0|8,0:0|0:3,0:0:0:0:
224,186,130584,6,0,L|140:189,2,55,2|0|0,0:0|0:0|0:0,0:0:0:0:
297,223,131192,2,0,P|309:286|251:353,1,110,0|0,0:0|0:0,0:0:0:0:
228,271,131800,2,0,L|111:275,1,110,0|0,0:0|0:0,0:0:0:0:
138,110,132611,2,0,L|277:106,1,110,0|0,0:0|0:0,0:0:0:0:
390,191,133422,1,8,0:3:0:0:
390,191,133827,6,0,P|450:180|484:117,1,110,6|0,0:1|0:0,0:0:0:0:
403,108,134436,1,0,0:0:0:0:
326,138,134638,2,0,L|326:4,1,110,0|0,0:0|0:0,0:0:0:0:
249,58,135246,2,0,L|250:199,1,110,0|0,0:0|0:0,0:0:0:0:
191,226,135854,2,0,P|130:235|82:206,1,110,0|0,0:0|0:0,0:0:0:0:
29,59,136665,1,8,0:3:0:0:
29,59,137071,6,0,B|112:57,1,55,2|0,0:0|0:0,0:0:0:0:
165,45,137476,1,0,0:0:0:0:
135,122,137679,1,0,0:0:0:0:
212,112,137882,2,0,P|243:164|223:233,1,110,0|0,0:0|0:0,0:0:0:0:
304,257,138490,2,0,L|413:251,1,110
446,326,139098,2,0,L|305:334,1,110
378,173,139909,2,0,L|453:171,1,55
480,104,140314,6,0,P|498:58|463:-8,1,110,6|0,0:1|0:0,0:0:0:0:
395,1,140922,2,0,P|376:49|411:113,1,110,0|0,0:0|0:0,0:0:0:0:
433,172,141530,1,0,0:0:0:0:
361,213,141733,2,0,L|350:354,1,110,0|0,0:0|0:0,0:0:0:0:
282,278,142341,2,0,L|220:277,1,55,0|0,0:0|0:0,0:0:0:0:
173,214,142746,2,0,L|82:212,2,55,0|0|0,0:0|0:0|0:0,0:0:0:0:
234,158,143354,1,0,0:0:0:0:
179,95,143557,6,0,L|98:93,1,55,2|0,0:0|0:0,0:0:0:0:
62,149,143963,1,0,0:0:0:0:
11,84,144165,2,0,L|15:25,2,55,0|0|0,0:0|0:0|0:0,0:0:0:0:
62,149,144773,1,0,0:0:0:0:
139,178,144976,2,0,P|155:230|121:297,1,110
70,232,145584,2,0,P|31:237|-7:269,1,55,0|0,0:0|0:0,0:0:0:0:
63,313,145990,2,0,B|91:358|91:358|158:363,1,110,2|0,0:0|0:0,0:0:0:0:
293,285,146800,6,0,L|402:285,1,110,6|0,0:1|0:0,0:0:0:0:
439,211,147409,1,0,0:0:0:0:
477,138,147611,2,0,L|342:138,1,110,0|0,0:0|0:0,0:0:0:0:
284,137,148219,2,0,P|231:130|199:71,1,110
245,15,148827,2,0,P|297:21|329:80,1,110
258,211,149638,1,8,0:3:0:0:
258,211,150044,6,0,L|178:210,1,55,2|0,0:0|0:0,0:0:0:0:
120,210,150449,1,0,0:0:0:0:
76,280,150652,1,0,0:0:0:0:
93,360,150855,2,0,P|139:333|159:282,1,110,0|0,0:0|0:0,0:0:0:0:
120,210,151463,2,0,P|134:158|181:126,1,110,0|0,0:0|0:0,0:0:0:0:
203,210,152071,2,0,L|351:212,1,110,0|0,0:0|0:0,0:0:0:0:
401,72,152882,1,0,0:0:0:0:
401,72,153287,6,0,P|428:113|431:153,2,55,6|0|0,0:1|0:0|0:0,0:0:0:0:
345,133,153895,1,0,0:0:0:0:
398,195,154098,2,0,L|526:198,1,110,0|0,0:0|0:0,0:0:0:0:
479,275,154706,2,0,L|329:271,1,110,0|0,0:0|0:0,0:0:0:0:
312,211,155314,2,0,P|306:192|311:153,1,55,0|0,0:0|0:0,0:0:0:0:
372,104,155719,2,0,P|376:81|370:40,2,55,0|0|8,0:0|0:0|0:3,0:0:0:0:
293,77,156327,1,0,0:0:0:0:
214,51,156530,6,0,P|210:74|216:115,2,55,2|0|0,0:0|0:0|0:0,0:0:0:0:
134,73,157138,2,0,L|-1:50,1,110,0|0,0:0|0:0,0:0:0:0:
0,133,157746,1,0,0:0:0:0:
54,195,157949,1,0,0:0:0:0:
25,272,158152,2,0,P|37:307|74:333,1,55,0|0,0:0|0:0,0:0:0:0:
107,261,158557,2,0,P|141:257|185:275,1,55,0|0,0:0|0:0,0:0:0:0:
184,341,158963,2,0,P|157:344|131:339,2,55,0|0|0,0:0|0:0|0:0,0:0:0:0:
275,204,159773,6,0,L|266:342,1,110,6|0,0:1|0:0,0:0:0:0:
335,361,160382,1,0,0:0:0:0:
403,315,160584,2,0,L|496:314,2,55,0|0|0,0:0|0:0|0:0,0:0:0:0:
353,157,161395,6,0,L|362:19,1,110,2|0,0:0|0:0,0:0:0:0:
293,0,162003,1,0,0:0:0:0:
225,46,162206,2,0,L|132:47,2,55,0|0|8,0:0|0:0|0:3,0:0:0:0:
126,178,163017,6,0,B|170:189|208:174|208:174|166:241|166:241|169:309,1,220,6|0,0:1|0:0,0:0:0:0:
273,333,164098,2,0,L|273:232,1,73.3333333333333,0|0,0:0|0:0,0:0:0:0:
375,298,164638,2,0,B|377:240|377:240|335:173|335:173|373:188|417:177,1,220,2|0,0:0|0:0,0:0:0:0:
417,177,166260,6,0,L|429:43,1,110,6|0,0:1|0:0,0:0:0:0:
351,33,166868,2,0,P|286:17|229:51,2,110
301,99,167882,2,0,P|233:115|177:81,1,110,2|0,0:0|0:0,0:0:0:0:
50,173,168692,2,0,P|113:159|171:187,1,110,0|8,0:0|0:3,0:0:0:0:
254,304,169503,6,0,P|289:293|315:211,1,110,6|0,0:1|0:0,0:0:0:0:
278,160,170111,1,0,0:0:0:0:
200,130,170314,2,0,L|204:75,2,55,0|0|0,0:0|0:0|0:0,0:0:0:0:
35,146,171125,2,0,L|44:14,1,110,2|0,0:0|0:0,0:0:0:0:
121,181,171936,2,0,L|112:313,1,110,2|0,0:0|0:0,0:0:0:0:
272,246,172746,6,0,P|323:258|363:327,1,110,6|0,0:1|0:0,0:0:0:0:
281,332,173354,1,0,0:0:0:0:
204,300,173557,2,0,L|178:226,2,55,0|0|0,0:0|0:0|0:0,0:0:0:0:
184,135,174368,2,0,P|129:123|96:74,1,110,2|0,0:0|0:0,0:0:0:0:
175,53,174976,1,0,0:0:0:0:
250,86,175179,2,0,L|268:34,2,55,0|0|8,0:0|0:0|0:3,0:0:0:0:
385,182,175990,6,0,B|418:254|355:303|355:303|314:292|314:292|270:304,1,220,6|0,0:1|0:0,0:0:0:0:
202,219,177071,2,0,L|302:189,1,73.3333333333333,0|0,0:0|0:0,0:0:0:0:
207,109,177611,2,0,B|167:119|167:119|126:108|126:108|63:157|97:230,1,220,2|0,0:0|0:0,0:0:0:0:
199,357,178827,1,0,0:0:0:0:
199,357,179233,6,0,L|356:343,1,110,6|0,0:1|0:0,0:0:0:0:
391,342,179841,2,0,P|434:310|421:212,2,110,0|0|0,0:0|0:0|0:0,0:0:0:0:
364,263,180854,2,0,B|347:233|347:233|365:139,1,110,2|0,0:0|0:0,0:0:0:0:
340,78,181463,1,0,0:0:0:0:
282,136,181665,2,0,L|255:274,1,110,0|0,0:0|0:0,0:0:0:0:
96,262,182476,6,0,B|51:271|25:255|6:232|-7:215|-10:190|-10:164|4:134|23:117|49:108|80:106|80:106|117:125|117:125|148:108|190:96|190:96|157:75|122:65,1,440,6|2,0:1|0:0,0:0:0:0:
145,72,184909,2,0,L|130:4,2,55,0|0|0,0:0|0:0|0:0,0:0:0:0:
234,210,185719,6,0,P|320:222|298:119,1,220,6|0,0:1|0:0,0:0:0:0:
221,126,186733,2,0,L|178:92,2,55,0|0|0,0:0|0:0|0:0,0:0:0:0:
234,210,187341,6,0,B|199:257|199:257|148:263|148:263|113:314,1,165,8|8,0:0|0:0,0:0:0:0:
64,244,188152,2,0,B|101:189|101:189|166:179,1,110,0|8,0:0|0:1,0:0:0:0:
279,303,188963,6,0,L|280:372,2,60.5000018463135,6|0|0,0:1|0:0|0:0,0:0:0:0:
362,266,189571,2,0,L|496:279,2,121.000003692627,2|0|2,0:0|0:0|0:0,0:0:0:0:
289,211,190584,2,0,P|270:157|299:92,1,121.000003692627,8|0,0:0|0:0,0:0:0:0:
358,160,191192,1,8,0:0:0:0:
289,211,191395,2,0,L|203:203,1,60.5000018463135,0|0,0:0|0:0,0:0:0:0:
167,137,191800,2,0,L|82:146,1,60.5000018463135,8|0,0:1|0:0,0:0:0:0:
27,97,192206,6,0,L|23:10,2,60.5000018463135,6|0|0,0:1|0:0|0:0,0:0:0:0:
106,143,192814,2,0,L|98:293,1,121.000003692627,2|0,0:0|0:0,0:0:0:0:
158,333,193422,2,0,L|222:343,1,60.5000018463135,0|2,0:0|0:0,0:0:0:0:
294,293,193827,2,0,L|353:301,1,60.5000018463135,0|0,0:0|0:0,0:0:0:0:
435,259,194233,1,8,0:0:0:0:
379,187,194436,2,0,L|388:101,1,60.5000018463135,0|0,0:0|0:0,0:0:0:0:
453,66,194841,1,8,0:1:0:0:
507,138,195044,2,0,L|499:222,1,60.5000018463135,0|0,0:0|0:0,0:0:0:0:
505,289,195449,6,0,P|447:273|417:223,1,121.000003692627,6|0,0:1|0:0,0:0:0:0:
430,133,196057,2,0,P|396:82|340:70,1,121.000003692627,2|0,0:0|0:0,0:0:0:0:
349,157,196665,1,0,0:0:0:0:
273,207,196868,2,0,B|267:289|267:289|307:339,1,121.000003692627,2|0,0:0|0:0,0:0:0:0:
359,259,197476,2,0,B|389:234|389:234|471:240,1,121.000003692627,8|0,0:0|0:0,0:0:0:0:
428,320,198084,1,8,0:1:0:0:
359,259,198287,2,0,L|363:198,1,60.5000018463135,0|0,0:0|0:0,0:0:0:0:
302,130,198692,6,0,P|247:106|191:123,1,121.000003692627,6|0,0:1|0:0,0:0:0:0:
243,198,199300,2,0,L|234:332,1,121.000003692627,2|0,0:0|0:0,0:0:0:0:
153,277,199909,2,0,L|157:215,1,60.5000018463135,2|0,0:0|0:0,0:0:0:0:
78,171,200314,2,0,P|36:143|46:50,1,121.000003692627,8|0,0:0|0:0,0:0:0:0:
103,34,200922,2,0,P|151:68|156:126,1,121.000003692627,8|0,0:0|0:0,0:0:0:0:
156,216,201530,2,0,L|244:211,1,60.5000018463135,8|0,0:1|0:0,0:0:0:0:
307,209,201936,6,0,L|305:295,2,60.5000018463135,6|0|0,0:1|0:0|0:0,0:0:0:0:
383,159,202544,2,0,P|440:169|474:240,2,121.000003692627,2|0|2,0:0|0:0|0:0,0:0:0:0:
307,209,203557,2,0,P|250:197|207:130,1,121.000003692627,8|0,0:0|0:0,0:0:0:0:
297,115,204165,1,8,0:0:0:0:
307,209,204368,2,0,L|297:279,1,60.5000018463135,0|0,0:0|0:0,0:0:0:0:
214,303,204773,2,0,L|206:363,1,60.5000018463135,8|0,0:1|0:0,0:0:0:0:
125,321,205179,6,0,L|64:315,2,60.5000018463135,6|0|0,0:1|0:0|0:0,0:0:0:0:
214,303,205787,2,0,P|242:249|228:180,1,121.000003692627,2|0,0:0|0:0,0:0:0:0:
158,140,206395,1,0,0:0:0:0:
66,161,206598,2,0,P|97:212|153:233,1,121.000003692627,2|0,0:0|0:0,0:0:0:0:
234,191,207206,1,8,0:0:0:0:
153,233,207409,2,0,L|150:326,1,60.5000018463135,0|0,0:0|0:0,0:0:0:0:
234,328,207814,1,8,0:1:0:0:
297,263,208017,2,0,L|371:265,1,60.5000018463135,0|0,0:0|0:0,0:0:0:0:
420,329,208422,6,0,P|449:280|415:195,1,121.000003692627,6|0,0:1|0:0,0:0:0:0:
358,174,209030,2,0,P|342:120|369:62,1,121.000003692627,2|0,0:0|0:0,0:0:0:0:
434,125,209638,1,0,0:0:0:0:
358,174,209841,2,0,B|312:187|312:187|202:166,1,121.000003692627,2|0,0:0|0:0,0:0:0:0:
173,234,210449,2,0,B|101:220|101:220|55:233,1,121.000003692627,8|0,0:0|0:0,0:0:0:0:
111,304,211057,1,8,0:1:0:0:
173,234,211260,2,0,L|181:142,1,60.5000018463135,0|0,0:0|0:0,0:0:0:0:
233,99,211665,6,0,L|371:94,1,121.000003692627,6|0,0:1|0:0,0:0:0:0:
388,178,212273,2,0,L|257:183,1,121.000003692627,2|0,0:0|0:0,0:0:0:0:
302,267,212882,2,0,L|388:262,1,60.5000018463135,2|0,0:0|0:0,0:0:0:0:
393,348,213287,2,0,L|247:356,1,121.000003692627,8|0,0:0|0:0,0:0:0:0:
209,288,213895,1,8,0:0:0:0:
209,288,214098,2,0,L|202:215,1,60.5000018463135,0|0,0:0|0:0,0:0:0:0:
116,200,214503,2,0,L|121:260,1,60.5000018463135,8|0,0:1|0:0,0:0:0:0:
130,342,214909,5,2,0:0:0:0:
256,192,223827,5,2,0:0:0:0:
256,192,224638,12,0,227071,0:0:0:0:
287,89,227882,6,0,B|337:114|337:114|414:66,1,110,6|0,0:3|0:0,0:0:0:0:
431,152,228490,2,0,B|384:182|384:182|387:273,1,110,0|0,0:0|0:0,0:0:0:0:
303,245,229098,2,0,B|299:189|299:189|219:146,1,110,8|8,0:3|0:0,0:0:0:0:
161,301,229909,2,0,L|81:302,1,55,8|0,0:3|0:0,0:0:0:0:
78,223,230314,2,0,L|218:221,1,110,2|8,0:0|0:3,0:0:0:0:
287,89,231125,6,0,L|288:16,2,55,6|0|0,0:1|0:0|0:0,0:0:0:0:
340,151,231733,2,0,P|380:170|455:132,1,110,0|0,0:0|0:0,0:0:0:0:
509,196,232341,2,0,L|493:337,1,110,8|8,0:3|0:0,0:0:0:0:
345,237,233152,2,0,L|284:238,1,55,8|0,0:3|0:0,0:0:0:0:
224,287,233557,2,0,P|205:241|244:166,1,110,2|8,0:0|0:3,0:0:0:0:
386,163,234368,6,0,L|469:162,1,55,6|0,0:1|0:0,0:0:0:0:
472,85,234773,2,0,L|417:85,1,55,0|0,0:0|0:0,0:0:0:0:
333,87,235179,1,2,0:0:0:0:
180,149,235584,2,0,P|122:136|87:59,1,110,8|8,0:3|0:0,0:0:0:0:
244,33,236395,2,0,L|242:118,1,55,8|0,0:3|0:0,0:0:0:0:
304,142,236800,2,0,L|303:284,1,110,2|8,0:0|0:3,0:0:0:0:
384,108,237611,6,0,P|424:116|456:146,2,55,6|0|0,0:1|0:0|0:0,0:0:0:0:
384,190,238219,2,0,L|384:333,1,110,0|0,0:0|0:0,0:0:0:0:
312,340,238827,2,0,P|255:327|221:259,2,110,8|8|8,0:3|0:0|0:3,0:0:0:0:
233,194,240044,5,2,0:0:0:0:
157,160,240246,1,2,0:0:0:0:
91,211,240449,1,2,0:0:0:0:
13,184,240652,1,2,0:0:0:0:
6,266,240854,6,0,P|58:255|91:212,1,110,6|0,0:3|0:0,0:0:0:0:
13,184,241463,1,0,0:0:0:0:
6,266,241665,2,0,B|-3:338|-3:338|18:375,1,110,2|8,0:0|0:3,0:0:0:0:
179,352,242476,2,0,B|188:280|188:280|167:243,1,110,8|8,0:0|0:3,0:0:0:0:
65,119,243287,5,2,0:0:0:0:
13,184,243490,1,2,0:0:0:0:
68,244,243692,1,2,0:0:0:0:
20,311,243895,1,2,0:0:0:0:
89,355,244098,6,0,L|169:354,1,55,6|0,0:3|0:0,0:0:0:0:
201,294,244503,2,0,L|264:294,1,55,0|0,0:0|0:0,0:0:0:0:
318,238,244909,2,0,P|341:189|314:121,1,110,2|8,0:0|0:3,0:0:0:0:
258,181,245517,2,0,L|174:181,1,55,0|8,0:0|0:0,0:0:0:0:
111,43,246125,2,0,P|100:91|162:156,1,110,8|2,0:3|0:0,0:0:0:0:
273,62,246936,1,8,0:3:0:0:
273,62,247341,6,0,L|361:62,1,55,6|0,0:3|0:0,0:0:0:0:
388,118,247746,2,0,L|462:118,1,55,0|0,0:0|0:0,0:0:0:0:
505,173,248152,2,0,P|522:218|483:296,1,110,2|8,0:0|0:3,0:0:0:0:
428,307,248760,1,0,0:0:0:0:
428,307,248963,2,0,L|356:307,1,55,8|0,0:0|0:0,0:0:0:0:
383,225,249368,2,0,L|477:225,1,55,8|0,0:3|0:0,0:0:0:0:
505,173,249773,2,0,P|526:126|492:56,1,110,2|8,0:0|0:3,0:0:0:0:
345,92,250584,6,0,L|345:164,2,55,6|0|0,0:3|0:0|0:0,0:0:0:0:
289,30,251192,2,0,P|234:11|167:46,1,110,0|0,0:0|0:0,0:0:0:0:
235,93,251800,2,0,L|235:155,1,55,8|0,0:3|0:0,0:0:0:0:
164,191,252206,2,0,P|102:182|32:178,1,110,8|8,0:0|0:3,0:0:0:0:
188,275,253017,2,0,P|232:265|313:256,1,110,2|8,0:0|0:3,0:0:0:0:
169,361,253827,6,0,B|120:338|79:333|79:333|105:283|105:283|66:231|90:178|90:178|135:208|188:163|169:94|107:97,1,440,6|0,0:3|0:0,0:0:0:0:
106,97,256665,5,0,0:0:0:0:
106,97,257071,6,0,L|111:180,2,55,2|0|0,0:0|0:0|0:0,0:0:0:0:
167,41,257679,2,0,P|220:26|282:53,1,110
371,175,258490,2,0,P|465:154|370:78,1,275,0|0,0:0|0:0,0:0:0:0:
256,192,259909,1,0,0:0:0:0:
256,192,260314,6,0,L|256:268,2,55,2|0|0,0:0|0:0|0:0,0:0:0:0:
224,115,260922,2,0,P|161:101|116:123,1,110,0|0,0:0|0:0,0:0:0:0:
8,239,261733,2,0,L|24:369,1,110,0|0,0:0|0:0,0:0:0:0:
91,304,262341,2,0,P|141:283|202:313,1,110,0|0,0:0|0:0,0:0:0:0:
344,239,263152,2,0,L|429:245,1,55,0|0,0:0|0:0,0:0:0:0:
395,326,263557,6,0,L|246:317,1,110,2|0,0:0|0:0,0:0:0:0:
256,242,264165,2,0,P|214:206|210:134,1,110,0|0,0:0|0:0,0:0:0:0:
344,239,264976,2,0,P|386:275|390:347,1,110,0|0,0:0|0:0,0:0:0:0:
313,318,265584,2,0,L|197:305,1,110,0|0,0:0|0:0,0:0:0:0:
144,151,266395,1,0,0:0:0:0:
144,151,266800,6,0,P|66:173|134:262,1,220,2|0,0:0|0:0,0:0:0:0:
240,149,268017,1,0,0:0:0:0:
240,149,268219,2,0,B|284:150|310:170|310:170|340:146|340:146|386:172|429:151|451:108|430:63,1,275,0|2,0:0|0:0,0:0:0:0:
267,70,269638,1,0,0:0:0:0:
267,70,270044,6,0,L|234:18,2,55,2|0|0,0:0|0:0|0:0,0:0:0:0:
240,149,270652,2,0,P|209:196|131:189,1,110,0|0,0:0|0:0,0:0:0:0:
76,60,271463,2,0,B|52:56|18:41|18:41|46:96|52:138|52:138|25:185|38:250,1,275,0|0,0:0|0:0,0:0:0:0:
155,359,272882,1,0,0:0:0:0:
155,359,273287,6,0,L|232:353,2,55,2|0|0,0:0|0:0|0:0,0:0:0:0:
152,276,273895,2,0,L|286:266,1,110
110,201,274706,2,0,L|-2:199,1,110,0|0,0:0|0:0,0:0:0:0:
2,116,275314,2,0,P|13:75|92:41,1,110,0|0,0:0|0:0,0:0:0:0:
200,137,276125,2,0,L|196:208,1,55,0|0,0:0|0:0,0:0:0:0:
272,225,276530,6,0,L|281:79,1,110,2|0,0:0|0:0,0:0:0:0:
358,91,277138,2,0,L|350:213,1,110,2|0,0:0|0:0,0:0:0:0:
193,252,277949,2,0,P|137:289|123:339,1,110,2|0,0:0|0:0,0:0:0:0:
183,383,278557,2,0,P|239:346|253:296,1,110,2|2,0:0|0:0,0:0:0:0:
147,179,279368,1,2,0:0:0:0:
147,179,279773,6,0,B|151:119|118:69|118:69|172:96|172:96|237:85,1,220,4|0,0:3|0:0,0:0:0:0:
380,95,280990,2,0,L|346:172,1,55,0|0,0:0|0:0,0:0:0:0:
278,170,281395,6,0,B|303:226|359:229|359:229|323:232|298:261,2,165,8|8|8,0:0|0:0|0:1,0:0:0:0:
122,262,283017,6,0,L|53:263,2,60.5000018463135,6|0|0,0:1|0:0|0:0,0:0:0:0:
187,199,283625,2,0,P|219:144|203:74,2,121.000003692627,2|0|2,0:0|0:0|0:0,0:0:0:0:
99,174,284638,2,0,P|92:114|123:64,1,121.000003692627,8|0,0:0|0:0,0:0:0:0:
211,89,285246,1,8,0:0:0:0:
270,157,285449,2,0,L|342:148,1,60.5000018463135,0|0,0:0|0:0,0:0:0:0:
397,210,285854,2,0,L|470:201,1,60.5000018463135,8|0,0:1|0:0,0:0:0:0:
512,129,286260,6,0,P|513:98|503:70,2,60.5000018463135,6|0|0,0:1|0:0|0:0,0:0:0:0:
422,112,286868,2,0,P|366:103|338:17,1,121.000003692627,2|0,0:0|0:0,0:0:0:0:
257,101,287476,2,0,L|168:92,1,60.5000018463135,0|2,0:0|0:0,0:0:0:0:
141,166,287881,2,0,L|73:170,1,60.5000018463135,0|0,0:0|0:0,0:0:0:0:
30,246,288287,1,8,0:0:0:0:
99,304,288490,2,0,L|185:298,1,60.5000018463135,0|0,0:0|0:0,0:0:0:0:
209,223,288895,1,8,0:1:0:0:
141,166,289098,2,0,L|142:91,1,60.5000018463135,0|0,0:0|0:0,0:0:0:0:
215,52,289503,6,0,P|259:75|271:169,1,121.000003692627,6|0,0:1|0:0,0:0:0:0:
207,193,290111,2,0,P|163:170|151:76,1,121.000003692627,2|0,0:0|0:0,0:0:0:0:
215,52,290719,1,0,0:0:0:0:
141,105,290922,2,0,B|59:111|59:111|9:71,1,121.000003692627,2|0,0:0|0:0,0:0:0:0:
3,174,291530,2,0,B|33:199|33:199|115:193,1,121.000003692627,8|0,0:0|0:0,0:0:0:0:
158,272,292138,1,8,0:1:0:0:
91,333,292341,2,0,L|68:267,1,60.5000018463135,0|0,0:0|0:0,0:0:0:0:
114,193,292746,6,0,P|181:184|231:223,1,121.000003692627,6|0,0:1|0:0,0:0:0:0:
311,188,293355,2,0,P|362:217|420:206,1,121.000003692627,2|0,0:0|0:0,0:0:0:0:
377,126,293963,2,0,L|377:65,1,60.5000018463135,2|0,0:0|0:0,0:0:0:0:
292,98,294368,2,0,L|147:97,1,121.000003692627,8|0,0:0|0:0,0:0:0:0:
184,187,294976,2,0,L|63:186,1,121.000003692627,8|0,0:0|0:0,0:0:0:0:
8,258,295584,2,0,P|14:304|44:343,1,60.5000018463135,8|0,0:1|0:0,0:0:0:0:
100,273,295990,6,0,L|187:273,2,60.5000018463135,6|0|0,0:1|0:0|0:0,0:0:0:0:
63,186,296598,2,0,L|196:186,2,121.000003692627,2|0|2,0:0|0:0|0:0,0:0:0:0:
39,98,297611,2,0,P|59:50|146:25,1,121.000003692627,8|0,0:0|0:0,0:0:0:0:
129,112,298219,1,8,0:0:0:0:
184,186,298422,2,0,L|267:191,1,60.5000018463135
294,114,298827,2,0,L|356:108,1,60.5000018463135,8|0,0:1|0:0,0:0:0:0:
416,175,299233,6,0,L|504:178,2,60.5000018463135,6|0|0,0:1|0:0|0:0,0:0:0:0:
338,218,299841,2,0,P|325:160|353:108,1,121.000003692627,2|0,0:0|0:0,0:0:0:0:
416,175,300449,1,0,0:0:0:0:
417,265,300652,2,0,P|349:311|290:297,1,121.000003692627,2|0,0:0|0:0,0:0:0:0:
338,218,301260,1,8,0:0:0:0:
416,175,301463,2,0,L|431:90,1,60.5000018463135
367,46,301868,1,8,0:1:0:0:
288,90,302071,2,0,L|277:149,1,60.5000018463135
338,218,302476,6,0,P|296:265|217:268,1,121.000003692627,6|0,0:1|0:0,0:0:0:0:
168,220,303084,2,0,P|109:231|71:276,1,121.000003692627,2|0,0:0|0:0,0:0:0:0:
155,310,303692,1,0,0:0:0:0:
168,220,303895,2,0,B|182:138|182:138|151:99,1,121.000003692627,2|0,0:0|0:0,0:0:0:0:
90,168,304503,2,0,B|66:138|66:138|80:56,1,121.000003692627,8|0,0:0|0:0,0:0:0:0:
163,18,305111,1,8,0:1:0:0:
158,108,305314,2,0,P|184:121|255:107,1,60.5000018463135,0|0,0:0|0:0,0:0:0:0:
298,158,305719,6,0,L|329:293,1,121.000003692627,6|0,0:1|0:0,0:0:0:0:
253,332,306327,2,0,L|223:205,1,121.000003692627,2|0,0:0|0:0,0:0:0:0:
143,172,306936,2,0,P|98:184|69:219,1,60.5000018463135,2|0,0:0|0:0,0:0:0:0:
144,262,307341,2,0,L|174:385,1,121.000003692627,8|0,0:0|0:0,0:0:0:0:
253,332,307949,1,8,0:0:0:0:
253,332,308152,2,0,L|330:331,1,60.5000018463135,0|0,0:0|0:0,0:0:0:0:
341,244,308557,2,0,L|406:244,1,60.5000018463135,8|0,0:1|0:0,0:0:0:0:
431,166,308963,5,2,0:0:0:0:
289,219,320314,6,0,P|340:194|344:112,1,110,2|0,0:0|0:0,0:0:0:0:
294,90,320922,2,0,P|243:115|239:197,1,110,0|0,0:0|0:0,0:0:0:0:
327,294,321733,2,0,L|461:291,1,110,0|0,0:0|0:0,0:0:0:0:
466,214,322341,2,0,L|400:214,1,55,0|0,0:0|0:0,0:0:0:0:
163,222,323152,1,0,0:0:0:0:
163,222,323558,6,0,L|177:361,1,110,2|0,0:0|0:0,0:0:0:0:
92,317,324165,2,0,L|78:182,1,110
220,120,324977,2,0,P|234:61|191:5,1,110,0|0,0:0|0:0,0:0:0:0:
151,76,325585,1,0,0:0:0:0:
220,120,325787,2,0,B|331:99|331:99|391:125,1,165,0|0,0:0|0:0,0:0:0:0:
368,284,326801,6,0,L|239:310,1,110,2|0,0:0|0:0,0:0:0:0:
252,223,327408,2,0,L|385:199,1,110,0|0,0:0|0:0,0:0:0:0:
456,68,328220,2,0,P|422:23|351:14,1,110,0|0,0:0|0:0,0:0:0:0:
374,92,328827,2,0,L|309:104,1,55,0|0,0:0|0:0,0:0:0:0:
78,159,329639,1,0,0:0:0:0:
78,159,330043,6,0,P|41:112|60:30,1,110,2|0,0:0|0:0,0:0:0:0:
115,30,330651,2,0,P|152:77|133:159,1,110,0|0,0:0|0:0,0:0:0:0:
286,223,331462,2,0,L|414:215,1,110
436,144,332070,1,0,0:0:0:0:
387,77,332274,2,0,P|353:149|395:216,1,165,0|0,0:0|0:0,0:0:0:0:
260,310,333287,5,2,0:0:0:0:
256,192,333490,12,0,339773,0:0:0:0:
