osu file format v9

[General]
AudioFilename: Morning arch (short ver).mp3
AudioLeadIn: 1500
PreviewTime: 58364
Countdown: 0
SampleSet: Soft
StackLeniency: 0.5
Mode: 0
LetterboxInBreaks: 1

[Editor]
DistanceSpacing: 1
BeatDivisor: 4
GridSize: 8

[Metadata]
Title:Morning Arch (TV Size)
Artist:Kawano Marina
Creator:S o r d a
Version:Normal
Source:A Channel
Tags:miccoliasms quintitem sorda akarina kanarin

[Difficulty]
HPDrainRate:4
CircleSize:4
OverallDifficulty:4
ApproachRate:5
SliderMultiplier:1.2
SliderTickRate:0.5

[Events]
//Background and Video events
0,0,"BG.jpg"
Video,0,"video.avi"
//Break Periods
//Storyboard Layer 0 (Background)
//Storyboard Layer 1 (Fail)
//Storyboard Layer 2 (Pass)
//Storyboard Layer 3 (Foreground)
//Storyboard Sound Samples
//Background Colour Transformations
3,100,163,162,255

[TimingPoints]
560,365.853658536585,4,2,1,40,1,0
742,-100,4,2,1,60,0,0
23425,-86.9565217391304,4,2,1,50,0,0
35499,-86.9565217391304,4,2,1,45,0,0
53425,-86.9565217391304,4,2,1,55,0,0
55986,-86.9565217391304,4,2,1,60,0,0
59096,-80,4,2,1,60,0,1
64401,-80,4,2,1,50,0,1
65316,-80,4,2,1,60,0,1
74919,-80,4,2,1,50,0,1
75559,-80,4,2,1,60,0,1
76657,-80,4,2,1,60,0,0
78395,-100,4,2,1,60,0,0
79218,-100,4,2,1,40,0,0
79767,-100,4,2,1,60,0,0
83791,-100,4,2,1,45,0,0
88364,-100,4,2,1,5,0,0

[Colours]
Combo1 : 0,255,0
Combo2 : 0,255,255
Combo3 : 170,170,255

[HitObjects]
216,84,560,1,4
184,200,925,2,0,B|45:174|39:15,2,240,2|2|2
408,112,3120,2,0,B|408:360,2,240,2|2|2
176,176,5316,6,0,B|37:202|31:361,2,240,2|2|2
376,40,7511,1,2
476,260,8242,1,2
256,352,8974,1,2
256,192,9340,12,0,12267
280,96,12633,6,0,B|408:96,2,120,2|0|2
164,124,13730,2,0,B|32:124,2,120,0|2|0
124,236,14828,2,0,B|124:360,2,120,2|0|2
240,260,15925,2,0,B|308:274|310:344,2,120,0|2|0
340,192,17023,6,0,B|480:192,2,120,2|0|2
300,148,17938,1,0
340,104,18120,2,0,B|472:104,2,120,0|2|0
220,112,19218,2,0,B|151:97|149:27,2,120,2|0|2
128,192,20316,1,0
168,304,20681,1,2
284,328,21047,6,0,B|420:328,1,120,0|2
464,224,21779,2,0,B|328:224,1,120,0|2
316,108,22511,1,0
196,92,22877,2,0,B|196:20,2,60,2|0|0
168,212,23608,5,8
168,212,23791,1,0
168,212,23974,2,0,B|20:212,2,138.000004523993,4|8|0
228,220,24889,2,0,B|315:231|314:330,2,138.000004523993,0|0|8
188,104,25986,1,0
188,104,26169,1,0
312,92,26535,2,0,B|312:20,2,69.0000022619963,8|0|0
420,152,27267,6,0,B|420:296,1,138.000004523993,8|0
376,332,27816,2,0,B|224:332,2,138.000004523993,0|0|8
320,224,28913,1,0
320,224,29096,1,0
256,116,29462,5,8
256,116,29645,1,0
256,116,29828,2,0,B|400:116,2,138.000004523993,0|8|0
208,76,30742,2,0,B|64:76,1,138.000004523993
108,196,31474,2,0,B|21:207|22:306,2,138.000004523993,8|0|0
168,220,32389,6,0,B|168:364,2,138.000004523993,8|0|8
276,284,33486,1,0
276,284,33669,2,0,B|488:284,1,207.000006785989
492,224,34401,2,0,B|492:152,2,69.0000022619963,8|0|0
376,176,35133,1,0
376,176,35316,1,8
256,152,35681,6,0,B|256:8,2,138.000004523993,6|2|2
140,192,36779,2,0,B|53:181|54:82,2,138.000004523993,2|2|2
184,308,37877,2,0,B|32:308,2,138.000004523993,2|2|2
300,260,38974,6,0,B|387:271|386:370,2,138.000004523993,2|2|2
380,164,40072,2,0,B|378:83|465:72,2,138.000004523993,2|2|2
256,140,41169,1,2
164,60,41535,5,2
56,120,41901,1,2
68,244,42267,1,2
192,224,42633,2,0,B|192:364,2,138.000004523993,2|2|2
308,264,43730,2,0,B|456:264,2,138.000004523993,2|2|2
328,140,44828,6,0,B|326:59|413:48,2,138.000004523993,2|2|2
216,88,45925,2,0,B|72:88,1,138.000004523993
40,208,46657,2,0,B|184:208,1,138.000004523993,0|4
256,304,47389,6,0,B|408:304,1,138.000004523993,2|2
480,212,48120,2,0,B|482:131|395:120,1,138.000004523993,2|2
308,36,48852,2,0,B|223:46|225:127,1,138.000004523993,2|2
104,148,49584,2,0,B|104:288,1,138.000004523993,2|2
220,332,50316,5,2
328,272,50681,2,0,B|472:272,2,138.000004523993,2|2|6
384,160,51779,1,2
320,52,52145,1,2
196,36,52511,1,2
80,84,52877,1,2
40,200,53242,5,6
96,312,53608,2,0,B|380:312,1,276.000009047985,10|10
468,232,54706,1,2
452,108,55072,2,0,B|160:108,1,276.000009047985,8|8
256,192,56169,12,8,57633
140,144,59096,6,0,B|47:130|47:23,2,149.999997764826,6|8|0
152,264,60194,2,0,B|72:264,2,74.9999988824129,8|0|2
256,208,60925,2,0,B|256:364,2,149.999997764826,8|0|8
376,192,62023,6,0,B|468:205|468:312,2,149.999997764826,2|8|0
268,136,63120,2,0,B|267:47|359:34,2,149.999997764826,8|2|8
152,104,64218,1,0
68,192,64584,5,8
68,192,64767,1,8
68,192,64950,2,0,B|68:344,2,149.999997764826,6|8|0
180,236,66047,1,8
260,328,66413,1,2
380,340,66779,1,8
480,276,67145,1,2
468,156,67511,1,8
348,136,67877,6,0,B|347:47|439:34,2,149.999997764826,2|8|2
344,256,68974,1,8
344,256,69157,2,0,B|112:256,1,224.999996647239,2|8
32,172,70072,2,0,B|32:16,2,149.999997764826,8|8|6
148,136,71169,6,0,B|147:47|239:34,2,149.999997764826,8|0|8
184,184,72084,1,0
148,232,72267,2,0,B|147:321|239:334,2,149.999997764826,2|8|0
268,236,73364,2,0,B|420:236,2,149.999997764826,8|2|8
328,132,74462,5,0
268,28,74828,1,8
268,28,75011,2,0,B|138:47|121:197,1,224.999996647239,6|8
112,296,75925,2,0,B|22:283|23:194,2,149.999997764826,0|8|2
224,336,77023,5,8
344,324,77389,1,0
436,244,77755,1,0
444,124,78120,1,8
444,124,78303,1,8
444,124,78486,2,0,B|368:188|288:56|204:136,1,240,8|8
144,32,79584,5,4
36,84,79950,2,0,B|36:328,1,240,2|2
272,344,81413,2,0,B|411:318|417:159,1,240,2|2
220,40,82877,2,0,B|81:66|75:225,1,240,2|2
184,264,83974,1,4
296,216,84340,2,0,B|296:356,2,120,2|2|2
256,192,85438,12,0,88364
