osu file format v9

[General]
AudioFilename: Morning arch (short ver).mp3
AudioLeadIn: 1500
PreviewTime: 58364
Countdown: 0
SampleSet: Soft
StackLeniency: 0.7
Mode: 0
LetterboxInBreaks: 1

[Editor]
DistanceSpacing: 1
BeatDivisor: 4
GridSize: 8

[Metadata]
Title:Morning Arch (TV Size)
Artist:Kawano Marina
Creator:S o r d a
Version:Insane
Source:A Channel
Tags:miccoliasms quintitem sorda akarina kanarin

[Difficulty]
HPDrainRate:8
CircleSize:4
OverallDifficulty:8
ApproachRate:8
SliderMultiplier:1.6
SliderTickRate:0.5

[Events]
//Background and Video events
0,0,"BG.jpg"
Video,0,"video.avi"
//Break Periods
//Storyboard Layer 0 (Background)
//Storyboard Layer 1 (Fail)
//Storyboard Layer 2 (Pass)
//Storyboard Layer 3 (Foreground)
//Storyboard Sound Samples
//Background Colour Transformations
3,100,163,162,255

[TimingPoints]
560,365.853658536585,4,2,1,80,1,0
23517,-100,4,1,1,80,0,0
58181,-100,4,1,1,90,0,1
76657,-100,4,1,1,90,0,0
85620,-100,4,2,0,5,0,0

[Colours]
Combo1 : 0,255,0
Combo2 : 0,255,255
Combo3 : 170,170,255

[HitObjects]
408,136,560,2,0,B|440:96|496:112|496:112,2,80,4|0|8
360,200,1108,1,0
328,128,1291,2,0,B|296:56|296:56,1,80
168,24,1657,2,0,B|200:96|200:96,1,80,8|0
216,176,2023,2,0,B|208:272|112:304|112:304,1,160,0|8
8,248,2572,2,0,B|0:200|56:184|56:184,1,80
120,144,2938,1,0
152,72,3120,1,8
120,144,3303,1,0
200,144,3486,6,0,B|248:160|240:216|240:216,1,80
208,280,3852,1,8
128,304,4035,1,0
56,264,4218,2,0,B|24:240|32:192|32:192,1,80
96,72,4584,2,0,B|128:96|120:144|120:144,1,80,8|0
184,192,4950,2,0,B|256:144|336:192|336:192,1,160,0|8
440,264,5499,2,0,B|368:312|288:264|288:264,1,160
287,263,6047,1,8
287,263,6230,1,0
216,224,6413,6,0,B|168:200|128:224|128:224,2,80,0|0|8
287,263,6962,1,0
288,184,7145,2,0,B|296:104|296:104,1,80
416,56,7511,2,0,B|408:136|408:136,1,80,8|0
400,216,7877,1,0
360,288,8059,1,0
280,312,8242,1,8
200,296,8425,1,0
152,232,8608,1,0
152,232,8791,1,0
160,152,8974,1,8
160,152,9157,1,0
208,88,9340,6,0,B|240:48|280:56|280:56,1,80
392,120,9706,2,0,B|360:160|320:152|320:152,1,80,8|0
280,56,10072,6,0,B|312:16|352:24|352:24,1,80
320,224,10438,2,0,B|288:264|248:256|248:256,1,80,8|0
168,240,10803,5,0
112,184,10986,1,0
112,184,11078,1,0
112,184,11169,1,8
112,104,11352,1,0
160,40,11535,1,0
192,16,11627,1,0
232,8,11718,1,0
272,16,11809,1,0
304,40,11901,1,8
320,80,11992,1,0
320,120,12084,1,0
304,152,12175,1,0
288,192,12267,6,0,B|248:272|296:352|296:352,1,160,4|8
200,224,12816,1,0
200,224,12999,2,0,B|240:144|192:64|192:64,1,160,0|8
72,24,13547,1,0
72,24,13730,2,0,B|160:72|240:16|240:16,1,160,0|8
304,0,14279,1,0
296,80,14462,2,0,B|280:120|312:160|312:160,1,80
256,272,14828,2,0,B|272:232|240:192|240:192,1,80,8|0
176,152,15194,6,0,B|112:216|16:184|16:184,1,160,0|8
120,104,15742,1,0
120,104,15925,2,0,B|184:40|280:72|280:72,1,160,0|8
392,104,16474,1,0
392,104,16657,2,0,B|344:184|400:272|400:272,1,160,0|8
448,320,17206,1,0
368,336,17389,2,0,B|280:360|280:360,1,80
208,256,17755,2,0,B|296:232|296:232,1,80,8|0
360,208,18120,6,0,B|416:120|352:48|352:48,2,160,0|8|0
312,272,19035,1,0
200,336,19218,1,8
256,216,19401,1,0
280,344,19584,1,0
184,256,19767,5,0
160,128,19950,1,8
256,216,20133,1,0
128,200,20316,1,0
240,136,20499,1,0
184,256,20681,1,8
184,256,20864,1,0
128,200,21047,6,0,B|64:128|112:40|112:40,1,160,0|8
184,24,21596,1,0
184,24,21779,2,0,B|264:88|344:40|344:40,1,160,0|8
408,16,22328,1,0
400,96,22511,2,0,B|384:192|384:192,2,80,0|0|8
472,64,23059,1,0
480,144,23242,1,0
488,184,23334,1,0
472,216,23425,1,0
400,256,23608,6,0,B|320:304|240:256|240:256,1,160,8|4
176,216,24157,1,0
144,136,24340,2,0,B|112:48|112:48,2,80,8|0|0
104,208,24889,1,0
56,272,25072,1,8
104,336,25255,1,0
184,336,25438,2,0,B|264:288|352:344|352:344,1,160,0|8
424,240,25986,1,0
424,240,26169,2,0,B|344:288|256:232|256:232,1,160,0|8
208,192,26718,5,0
208,192,26809,1,0
208,192,26901,1,0
160,128,27084,2,0,B|128:80|168:32|168:32,1,80,0|8
224,88,27450,1,0
304,88,27633,2,0,B|384:88|384:88,2,80,0|0|8
224,88,28181,1,0
264,160,28364,1,0
312,224,28547,2,0,B|368:296|320:384|320:384,1,160,8|0
248,344,29096,2,0,B|200:328|168:352|168:352,1,80
56,288,29462,2,0,B|104:304|136:280|136:280,1,80,8|0
200,240,29828,6,0,B|264:160|208:72|208:72,1,160,4|8
176,16,30377,1,0
256,24,30559,2,0,B|360:32|360:32,1,80
384,152,30925,1,8
384,152,31108,2,0,B|280:144|280:144,1,80
200,240,31474,1,0
200,240,31657,2,0,B|304:248|304:248,1,80,8|0
360,248,32023,5,0
360,248,32114,1,0
360,248,32206,1,0
464,160,32389,1,8
464,160,32480,1,0
464,160,32572,1,0
408,32,32755,2,0,B|320:0|232:40|232:40,1,160,0|8
144,96,33303,1,0
144,96,33486,2,0,B|232:128|320:88|320:88,1,160,0|8
408,32,34035,5,0
384,112,34218,2,0,B|368:168|408:200|408:200,1,80
344,304,34584,2,0,B|360:248|320:216|320:216,1,80,8|0
272,168,34950,1,0
272,168,35041,1,0
272,168,35133,1,0
192,152,35316,2,0,B|112:192|32:152|32:152,1,160,8|6
40,232,35864,6,0,B|72:272|40:320|40:320,1,80,0|10
112,192,36230,2,0,B|160:224|160:264|160:264,1,80,0|2
144,112,36596,2,0,B|200:112|224:160|224:160,2,80,0|10|0
64,128,37145,1,2
88,48,37328,1,0
168,24,37511,2,0,B|208:8|256:24|256:24,1,80,10|0
320,48,37877,6,0,B|360:72|416:48|416:48,1,80,2|0
496,136,38242,2,0,B|456:112|400:136|400:136,1,80,10|0
360,184,38608,2,0,B|408:272|336:352|336:352,1,160,2|10
280,376,39157,1,0
208,344,39340,2,0,B|168:328|128:352|128:352,2,80,2|0|10
280,376,39889,1,0
272,296,40072,2,0,B|256:248|208:240|208:240,1,80,2|0
184,120,40438,2,0,B|200:168|248:176|248:176,1,80,10|0
320,184,40803,1,2
320,184,40895,1,0
320,184,40986,1,0
400,160,41169,2,0,B|456:80|400:8|400:8,1,160,10|2
344,72,41718,5,0
288,16,41901,1,10
272,96,42084,1,0
216,40,42267,1,2
216,40,42633,5,10
200,120,42816,1,0
144,64,42999,1,2
128,144,43181,1,0
72,88,43364,1,10
72,88,43730,5,2
48,168,43913,1,0
64,248,44096,1,10
112,312,44279,1,0
184,344,44462,2,0,B|224:368|264:352|264:352,1,80,2|0
336,248,44828,2,0,B|296:224|256:240|256:240,1,80,10|0
184,344,45194,1,2
264,352,45377,1,0
344,344,45559,1,10
416,304,45742,6,0,B|496:240|456:144|456:144,1,160,2|2
448,120,46200,1,0
416,96,46291,1,8
384,168,46474,1,2
384,168,46566,1,0
384,168,46657,1,0
328,224,46840,2,0,B|296:256|240:240|240:240,2,80,2|8|0
312,144,47389,6,0,B|288:64|288:64,1,80,6|0
232,176,47755,2,0,B|176:112|176:112,1,80,10|0
184,248,48120,1,2
184,248,48486,6,0,B|208:328|208:328,1,80,10|0
264,216,48852,2,0,B|320:280|320:280,1,80,2|0
312,144,49217,1,10
312,144,49584,5,2
168,72,49767,1,0
328,56,49950,1,10
208,160,50133,1,0
240,0,50316,6,0,B|320:40|400:0|400:0,1,160,2|10
448,64,50864,2,0,B|408:144|456:224,1,160,2|0
456,256,51322,1,0
416,264,51413,2,0,B|320:248|264:336|264:336,1,160,10|2
224,384,51962,1,0
192,312,52145,1,10
224,240,52328,1,0
240,160,52511,5,2
240,120,52602,1,0
224,80,52694,1,0
200,48,52785,1,0
168,24,52877,1,10
160,64,52968,1,0
144,96,53059,1,0
112,112,53151,1,0
72,128,53242,6,0,B|16:208|72:288|72:288,1,160,6|8
128,336,53791,2,0,B|200:272|288:312|288:312,1,160,2|0
352,336,54340,1,10
352,336,54523,1,0
400,272,54706,2,0,B|456:184|392:104|392:104,1,160,2|8
368,48,55255,2,0,B|296:112|192:64|192:64,1,160,2|0
144,40,55803,1,10
144,40,55986,1,0
136,120,56169,6,0,B|128:176|80:192|80:192,1,80
112,312,56535,2,0,B|120:256|168:240|168:240,1,80,8|0
224,208,56901,1,0
256,184,56992,1,0
296,176,57084,1,0
336,184,57175,1,0
368,208,57267,1,8
384,248,57358,1,0
376,288,57450,1,0
360,328,57541,1,0
328,352,57633,5,2
224,208,57816,1,2
160,360,57999,1,10
160,360,58364,6,0,B|72:320|96:224|96:224,1,160,0|4
136,144,58913,1,0
208,80,59096,2,0,B|248:48|304:64|304:64,1,80
400,120,59462,2,0,B|360:152|304:136|304:136,1,80,8|0
248,192,59828,2,0,B|216:232|248:288|248:288,2,80,0|0|8
336,224,60377,2,0,B|360:320|464:328|464:328,1,160
408,184,60925,2,0,B|440:216|480:208|480:208,1,80,8|0
400,104,61291,2,0,B|448:104|472:64|472:64,1,80
392,16,61657,1,8
392,16,61840,1,0
312,72,62023,6,0,B|232:120|144:64|144:64,1,160,0|8
80,16,62572,1,0
88,112,62755,2,0,B|104:200|32:272|32:272,1,160,0|8
128,376,63303,2,0,B|112:288|184:216|184:216,1,160
248,168,63852,1,8
304,88,64035,1,0
248,168,64218,1,0
344,160,64401,1,0
248,168,64584,1,8
312,240,64767,5,0
312,240,64858,1,0
312,240,64950,2,0,B|224:288|160:216|160:216,1,160,0|8
120,136,65499,1,0
160,48,65681,2,0,B|184:8|232:8|232:8,1,80
328,112,66047,2,0,B|304:152|256:152|256:152,1,80,8|0
328,24,66413,2,0,B|424:16|456:112|456:112,1,160,0|8
448,200,66962,1,0
384,272,67145,2,0,B|344:312|376:368|376:368,1,80
304,216,67511,2,0,B|344:176|312:120|312:120,1,80,8|0
224,168,67877,6,0,B|144:120|72:168|72:168,2,160,0|8|0
304,216,68791,1,0
304,216,68974,1,8
392,184,69157,2,0,B|448:104|392:32|392:32,1,160
393,34,69614,1,0
393,34,69706,1,8
328,104,69889,1,0
328,104,69980,1,0
328,104,70072,1,0
296,16,70255,1,0
256,32,70346,1,0
232,64,70438,1,8
224,104,70529,1,0
232,144,70620,1,0
256,176,70712,1,0
288,200,70803,6,0,B|352:272|296:360|296:360,2,160,4|8|0
376,168,71718,2,0,B|416:200|464:168|464:168,1,80,0|8
416,88,72084,2,0,B|336:32|256:88|256:88,1,160
176,128,72633,2,0,B|128:152|80:120|80:120,1,80,8|0
232,192,72999,2,0,B|256:240|224:288|224:288,1,80
296,136,73364,1,8
296,136,73456,1,0
296,136,73547,1,0
296,136,73639,1,0
296,136,73730,6,0,B|344:112|392:144|392:144,1,80
448,192,74096,2,0,B|424:232|448:272|448:272,1,80,8|0
376,336,74462,2,0,B|296:384|208:328|208:328,1,160,0|8
96,264,75011,2,0,B|176:216|264:272|264:272,2,160
24,200,75925,2,0,B|0:160|24:112|24:112,1,80
72,40,76291,1,8
72,40,76474,1,0
152,96,76657,2,0,B|240:144|312:96|312:96,1,160,0|8
368,24,77206,1,0
400,112,77389,1,0
416,152,77480,1,0
424,192,77572,1,0
424,232,77663,1,0
408,272,77755,1,8
384,304,77846,1,0
352,328,77938,1,0
312,336,78029,1,0
272,328,78120,5,0
184,192,78303,1,0
344,184,78486,1,8
344,184,79218,6,0,B|408:112|352:24|352:24,1,160,4|0
280,40,79767,2,0,B|240:72|176:40|176:40,1,80,0|8
136,8,80133,5,0
128,88,80316,1,0
64,40,80499,5,0
96,112,80681,1,8
16,104,80864,5,0
80,152,81047,2,0,B|144:216|96:312|96:312,1,160,0|8
184,200,81596,2,0,B|224:176|264:200|264:200,1,80
328,304,81962,2,0,B|288:328|248:304|248:304,2,80,0|8|0
384,248,82511,6,0,B|424:224|472:248|472:248,1,80
464,160,82877,2,0,B|416:136|424:80|424:80,1,80,8|0
440,16,83242,1,0
440,16,83425,1,0
360,40,83608,1,8
360,40,83791,1,0
280,40,83974,6,0,B|184:24|184:24,1,80
120,128,84340,2,0,B|216:144|216:144,1,80,8|0
280,160,84706,1,0
312,184,84797,1,0
328,216,84889,1,0
328,256,84980,1,0
312,296,85072,1,8
280,320,85163,1,0
240,328,85255,1,0
200,320,85346,1,0
168,296,85438,1,4
256,192,85620,12,0,88730
