osu file format v9

[General]
AudioFilename: Morning arch (short ver).mp3
AudioLeadIn: 1500
PreviewTime: 58364
Countdown: 1
SampleSet: Soft
StackLeniency: 0.7
Mode: 0
LetterboxInBreaks: 1

[Editor]
DistanceSpacing: 1.2
BeatDivisor: 4
GridSize: 8

[Metadata]
Title:Morning Arch (TV Size)
Artist:Kawano Marina
Creator:S o r d a
Version:Hard
Source:A Channel
Tags:miccoliasms quintitem sorda akarina kanarin

[Difficulty]
HPDrainRate:6
CircleSize:4
OverallDifficulty:7
ApproachRate:8
SliderMultiplier:1.5
SliderTickRate:1

[Events]
//Background and Video events
0,0,"BG.jpg"
Video,0,"video.avi"
//Break Periods
//Storyboard Layer 0 (Background)
//Storyboard Layer 1 (Fail)
//Storyboard Layer 2 (Pass)
//Storyboard Layer 3 (Foreground)
//Storyboard Sound Samples
//Background Colour Transformations
3,100,163,162,255

[TimingPoints]
560,365.853658536585,4,2,1,60,1,0
56078,-100,4,2,0,60,0,0
57724,-100,4,2,0,20,0,0
58181,-100,4,2,1,70,0,1
75194,-100,4,2,1,35,0,1
75559,-100,4,2,1,60,0,1
76657,-100,4,2,1,60,0,0
84614,-100,4,2,1,45,0,0
84980,-100,4,2,1,25,0,0
85346,-100,4,2,1,10,0,0
85620,-100,4,2,1,5,0,0

[Colours]
Combo1 : 0,255,0
Combo2 : 0,255,255
Combo3 : 170,170,255

[HitObjects]
120,88,560,2,0,B|88:160,1,75,8|0
176,176,925,2,0,B|176:264,1,75,8|0
264,256,1291,2,0,B|280:344,1,75,8|0
368,320,1657,1,8
376,232,1840,1,0
368,144,2023,2,0,B|320:64|208:96|208:96,1,150,8|0
152,123,2572,2,0,B|70:164|102:251|102:251,1,150,2|0
107,339,3120,1,8
190,303,3303,1,0
268,258,3486,6,0,B|308:210|292:170|292:170,1,75,8|0
205,191,3852,2,0,B|173:135|205:95|205:95,1,75,8|0
280,80,4218,1,8
280,80,4401,1,0
359,122,4584,1,8
336,209,4767,2,0,B|248:209,1,75,0|8
202,278,5133,1,0
119,314,5316,1,8
83,231,5499,2,0,B|43:143|139:87|139:87,1,150,2|0
211,110,6047,2,0,B|291:110,1,75,8|0
357,165,6413,6,0,B|461:221|373:309|373:309,1,150,8|8
297,292,6962,1,0
232,355,7145,1,8
167,292,7328,2,0,B|95:228|159:148|159:148,1,150,2|0
240,179,7877,2,0,B|312:115|248:35|248:35,1,150,8|8
168,72,8425,1,0
77,71,8608,1,8
121,149,8791,1,0
121,149,8883,1,0
121,149,8974,1,8
210,151,9157,6,0,B|298:183|258:287|258:287,1,150,2|0
171,269,9706,1,8
125,191,9889,1,0
94,106,10072,2,0,B|82:70,2,37.5,8|0|0
181,81,10438,1,8
267,103,10620,2,0,B|339:135,1,75,0|8
315,221,10986,2,0,B|355:309,1,75,0|8
257,306,11352,2,0,B|81:306,1,150,2|0
107,306,11901,1,8
114,216,12084,6,0,B|130:160|186:160|186:160,1,75,0|8
251,142,12450,2,0,B|347:142,1,75,0|8
328,232,12816,2,0,B|384:240|392:280|392:280,1,75,0|8
305,304,13181,2,0,B|217:304,1,75,0|8
167,238,13547,1,0
131,155,13730,1,8
205,104,13913,1,0
290,130,14096,2,0,B|370:170|338:258|338:258,1,150,8|8
61,290,15011,5,0
124,226,15194,1,8
179,296,15376,1,0
243,233,15559,1,8
203,152,15742,2,0,B|155:120|187:80|187:80,2,75,0|8|0
383,160,16474,6,0,B|439:200|415:240|415:240,1,75,0|8
357,287,16840,1,0
269,267,17023,1,8
206,201,17206,1,0
171,117,17389,1,8
237,55,17572,1,0
306,112,17755,2,0,B|370:112|370:112|386:152|386:152|338:208|338:208,2,150,8|8|8
280,198,18669,6,0,B|208:254,1,75,0|8
133,269,19035,1,0
75,200,19218,1,8
100,113,19401,1,0
100,113,19492,1,0
100,113,19584,1,8
182,76,19767,1,0
229,152,19950,2,0,B|189:192|220:229|220:229,1,75,8|0
250,302,20316,1,8
424,312,20681,6,0,B|424:152,1,150,8|8
245,186,21413,1,8
101,294,21779,1,8
162,124,22145,1,8
205,298,22511,1,8
113,143,22877,1,8
291,127,23242,1,8
331,151,23334,1,0
355,183,23425,1,0
379,223,23517,1,0
395,263,23608,1,8
324,319,23791,5,0
240,288,23974,1,4
166,235,24157,1,0
162,145,24340,1,8
112,74,24523,2,0,B|24:74|24:74,1,75,2|0
51,163,24889,1,0
67,204,24980,1,0
81,246,25072,1,8
144,312,25255,6,0,B|240:312,1,75
312,304,25620,1,0
264,232,25803,1,8
264,144,25986,2,0,B|288:72,2,75,0|8|0
503,117,26718,5,0
503,117,26901,1,8
422,77,27084,1,0
422,77,27267,1,8
334,97,27450,2,0,B|238:97,1,75,0|8
91,165,27999,6,0,B|35:237|91:325|91:325,1,150,8|8
171,311,28547,1,0
260,298,28730,1,8
346,273,28913,1,0
281,209,29096,2,0,B|185:185,1,75,8|0
194,101,29462,5,0
194,101,29645,1,0
283,109,29828,2,0,B|456:87,1,150,8|8
272,304,30559,5,8
132,184,30925,1,8
272,304,31291,1,8
135,186,31657,2,0,B|87:98|175:58|175:58,1,150,10|8
312,168,32389,6,0,B|392:152|360:256|456:224,1,150,8|8
265,278,33120,2,8,B|185:262|217:366|121:334,1,150
63,175,33852,1,8
238,122,34218,1,8
342,186,34401,1,0
238,242,34584,1,8
134,186,34767,1,0
238,337,35316,1,8
238,337,35407,1,0
238,337,35499,1,0
405,272,35681,6,0,B|445:248|429:208|429:208,1,75,4|0
354,156,36047,1,8
276,110,36230,1,0
187,91,36413,1,8
188,271,36779,5,8
242,342,36962,1,0
331,353,37145,1,8
420,343,37328,2,0,B|468:327|476:287|476:287,1,75,0|8
368,147,37877,6,0,B|328:75,1,75,8|0
291,161,38242,2,0,B|203:193,1,75,8|0
135,218,38608,2,0,B|71:186|23:218|23:290|79:322|135:298,1,225,8|2
376,192,39706,1,8
256,64,40072,1,8
128,192,40438,1,8
256,320,40803,1,8
256,192,41169,1,8
416,272,41535,6,0,B|416:328|360:320|360:320,1,75,4|0
344,168,41901,2,0,B|344:112|288:120|288:120,1,75,8|0
176,208,42267,2,0,B|176:264|232:256|232:256,1,75,8|0
232,104,42633,2,0,B|176:104|184:160|184:160,1,75,8|0
280,264,42999,2,0,B|336:264|328:208|328:208,1,75,8|0
256,192,43364,1,8
104,88,43730,6,0,B|24:136|72:224|72:224,1,150,8|8
160,240,44279,1,0
236,287,44462,2,0,B|300:407|436:383|452:287|372:207|372:207,1,300,8|2
265,104,45559,1,8
84,105,45925,1,8
171,262,46291,1,8
196,83,46657,1,8
237,258,47023,1,8
362,129,47389,6,0,B|394:153|386:217|386:217,1,75,8|0
297,208,47755,2,0,B|257:240|265:280|265:280,1,75,8|0
331,332,48120,1,8
156,287,48486,5,8
156,287,48669,1,0
100,216,48852,1,8
100,216,49035,1,0
105,126,49218,1,8
284,112,49584,6,0,B|228:168|308:216|252:272,1,150,8|8
444,277,50316,2,0,B|500:181|380:141|380:141,1,150,8|8
318,181,50864,1,0
231,157,51047,1,8
142,175,51230,1,0
81,241,51413,2,0,B|-15:233|9:353|9:353,1,150,8|8
97,334,51962,1,0
142,256,52145,1,8
160,167,52328,1,0
243,199,52511,2,0,B|323:159|307:263|387:239,1,150,8|8
373,242,53242,1,8
400,64,53608,1,8
400,64,53700,1,0
400,64,53791,1,0
137,267,54157,6,0,B|41:139,1,150,2|0
132,116,54706,1,8
18,255,55072,1,8
9,75,55438,1,8
107,225,55803,1,8
256,192,56169,12,4,57633
256,192,57816,5,0
256,192,57999,1,0
191,130,58181,6,0,B|127:194,1,75,0|8
73,246,58547,2,0,B|49:342,1,75,0|8
54,318,58913,1,0
137,285,59096,2,0,B|249:237|249:237|265:277,1,150,4|8
338,218,59645,2,0,B|386:330|386:330|346:346,1,150,0|0
278,300,60194,1,8
274,210,60377,1,0
261,166,60468,1,0
240,126,60559,1,8
202,100,60651,1,0
160,83,60742,1,0
96,18,60925,1,8
71,104,61108,6,0,B|23:192,1,75,0|8
125,161,61474,2,0,B|205:233,1,75,0|8
254,263,61840,2,0,B|214:327,2,75
163,258,62389,1,8
93,200,62572,1,0
163,258,62755,2,0,B|203:178|283:170|283:170,1,150,8|8
289,81,63303,1,0
367,125,63486,1,8
373,214,63669,1,0
335,295,63852,1,8
245,281,64035,6,0,B|261:233|221:201|221:201,1,75,0|8
140,213,64401,2,0,B|124:165|164:133|164:133,1,75,0|8
135,54,64767,2,0,B|63:46|71:102|71:102,1,75,0|8
233,164,65316,2,0,B|297:108|321:196|385:132,1,150,8|8
512,163,66047,2,0,B|448:107|424:195|360:131,1,150,8|8
202,80,66779,1,8
22,89,67145,1,8
70,262,67511,1,8
230,181,67877,6,0,B|278:261,1,75
190,285,68242,1,8
109,325,68425,2,0,B|61:246,1,75,0|8
69,170,68791,1,0
124,99,68974,1,8
214,99,69157,2,0,B|358:163|278:315,1,225,0|8
205,275,69889,5,0
205,275,70072,1,8
117,252,70255,1,0
117,252,70438,1,8
109,162,70620,1,0
109,162,70803,2,0,B|189:162,1,75,4|0
254,105,71169,6,0,B|334:33|390:137|390:137,1,150,8|8
381,123,71718,1,0
313,184,71901,2,0,B|281:224|313:272|313:272,2,80,8|0|8
252,134,72450,1,0
252,134,72541,1,0
252,134,72633,1,8
340,152,72816,5,0
376,234,72999,1,8
334,313,73181,1,0
244,304,73364,1,8
159,271,73547,1,0
157,171,73730,1,8
123,87,73913,1,0
34,71,74096,1,8
19,159,74279,1,0
46,244,74462,2,0,B|-2:324|70:396|70:396,1,150,8|0
142,346,75012,1,8
142,346,75377,1,8
292,247,75742,6,0,B|324:215|324:215|308:183,1,75,0|8
220,194,76108,2,0,B|188:162|188:162|204:130,1,75,0|8
291,142,76474,1,0
261,226,76657,1,8
224,308,76840,2,0,B|165:376|94:302,1,150,2|0
118,124,77572,5,0
82,206,77755,1,8
100,294,77938,1,0
189,300,78120,1,8
278,296,78303,2,0,B|366:296,1,75,0|8
318,212,78669,1,0
318,121,78852,1,8
235,159,79035,1,0
144,159,79218,1,8
97,235,79401,1,0
186,227,79584,6,0,B|274:227,1,75,8|0
327,288,79950,2,0,B|391:240,1,75,8|0
367,154,80316,2,0,B|311:106,1,75,8|0
222,84,80681,2,0,B|158:16|84:77|84:77,1,150,8|8
100,164,81230,1,0
150,238,81413,1,8
233,270,81596,1,0
233,270,81779,2,0,B|233:190,1,75,8|0
143,179,82145,6,0,B|164:77|47:51|47:51,1,150,8|8
251,91,82877,2,0,B|230:193|347:219|347:219,1,150,8|8
409,203,83425,1,0
346,268,83608,1,8
257,253,83791,1,0
172,222,83974,1,8
131,141,84157,1,0
131,141,84340,1,8
213,176,84523,5,8
309,176,84706,1,8
357,280,84889,1,8
261,344,85072,1,8
165,280,85255,1,8
261,256,85438,1,8
256,192,85620,12,0,88730
