osu file format v13

[General]
AudioFilename: audio.mp3
AudioLeadIn: 0
PreviewTime: 38043
Countdown: 0
SampleSet: Soft
StackLeniency: 0.7
Mode: 0
LetterboxInBreaks: 0
WidescreenStoryboard: 0

[Editor]
Bookmarks: 71812
DistanceSpacing: 1.4
BeatDivisor: 4
GridSize: 4
TimelineZoom: 1

[Metadata]
Title:1/2
TitleUnicode:1/2
Artist:Kawamoto Makoto
ArtistUnicode:川本真琴
Creator:Natsu
Version:Normal
Source:るろうに剣心-明治剣客浪漫譚-
Tags:opening El Guerrero samurai x Rurouni Kenshin Meiji Kenkaku Romantan One Half
BeatmapID:519934
BeatmapSetID:222119

[Difficulty]
HPDrainRate:4
CircleSize:3.5
OverallDifficulty:4
ApproachRate:5
SliderMultiplier:1.2
SliderTickRate:1

[Events]
//Background and Video events
Video,-1901,"Rurouni Kenshin OP.avi"
0,0,"123.jpg",0,0
//Break Periods
//Storyboard Layer 0 (Background)
//Storyboard Layer 1 (Fail)
//Storyboard Layer 2 (Pass)
//Storyboard Layer 3 (Foreground)
//Storyboard Sound Samples
//Background Colour Transformations
3,100,163,162,255

[TimingPoints]
3044,487.80487804878,4,2,1,55,1,0
6946,-111.111111111111,4,2,1,60,0,0
30361,-111.111111111111,4,2,1,55,0,0
38165,-100,4,2,1,60,0,1
38287,-100,4,2,1,55,0,0
57678,-100,4,2,1,60,0,1
71336,-100,4,2,1,55,0,0
84995,490.596892886345,4,2,1,55,1,0
90882,489.795918367347,4,2,1,55,1,0
96759,497.100248550124,4,2,1,55,1,0
98871,-100,4,2,1,10,0,0

[Colours]
Combo1 : 2,89,176
Combo2 : 0,179,179
Combo3 : 234,117,0
Combo4 : 164,189,165

[HitObjects]
256,192,3044,6,0,P|304:200|348:184,2,90,4|2|0,0:0|0:0|0:0,0:0:0:0:
192,148,4019,2,0,P|148:128|88:132,2,90,2|0|0,0:0|0:0|0:0,0:0:0:0:
268,172,4995,2,0,P|220:222|166:223,1,120,4|2,0:0|0:0,0:0:0:0:
108,268,5726,1,0,0:0:0:0:
152,332,5970,2,0,P|204:332|256:284,1,120,2|2,0:0|0:0,0:0:0:0:
256,148,6946,6,0,B|300:116|360:128|360:128|388:184,1,161.999995056152,4|0,0:0|0:0,0:0:0:0:
352,244,7922,2,0,P|408:248|452:208,1,107.999996704102,2|0,0:0|0:0,0:0:0:0:
472,68,8897,2,0,L|364:44,1,107.999996704102,4|0,0:0|0:0,0:0:0:0:
292,24,9629,1,0,0:0:0:0:
216,20,9873,2,0,P|228:72|280:100,1,107.999996704102,2|0,0:0|0:0,0:0:0:0:
404,28,10848,6,0,B|456:12|496:64|496:64|468:120|404:104,1,215.999993408203,4|0,0:0|0:0,0:0:0:0:
336,72,12068,2,0,P|324:45|324:8,2,53.9999983520508,0|2|0,0:0|0:0|0:0,0:0:0:0:
344,148,12800,2,0,B|280:143|265:93|265:93|216:124|212:192,1,215.999993408203,4|0,0:0|0:0,0:0:0:0:
464,356,14751,5,4,0:0:0:0:
472,204,15239,2,0,L|476:103,2,80.9999975280763,2|0|0,0:0|0:0|0:0,0:0:0:0:
436,268,16214,2,0,L|388:244,1,53.9999983520508,2|0,0:0|0:0,0:0:0:0:
320,208,16702,2,0,L|344:160,1,53.9999983520508,4|0,0:0|0:0,0:0:0:0:
356,84,17190,2,0,L|300:60,1,53.9999983520508,2|0,0:0|0:0,0:0:0:0:
244,104,17678,2,0,L|216:164,1,53.9999983520508,2|0,0:0|0:0,0:0:0:0:
148,128,18165,2,0,L|116:196,2,53.9999983520508,2|0|4,0:0|0:0|0:0,0:0:0:0:
164,52,18897,5,0,0:0:0:0:
164,52,19141,2,0,P|116:56|76:104,1,107.999996704102,2|2,0:0|0:0,0:0:0:0:
64,248,20117,1,2,0:0:0:0:
216,232,20604,2,0,B|264:244|296:300|296:300|352:296|364:216,1,215.999993408203,4|0,0:0|0:0,0:0:0:0:
476,28,22312,5,0,0:0:0:0:
476,28,22556,2,0,P|420:24|376:56,1,107.999996704102,4|0,0:0|0:0,0:0:0:0:
360,124,23287,1,0,0:0:0:0:
360,124,23531,2,0,P|304:128|260:92,1,107.999996704102,2|0,0:0|0:0,0:0:0:0:
228,32,24263,1,0,0:0:0:0:
228,32,24507,2,0,P|172:28|128:64,1,107.999996704102,4|0,0:0|0:0,0:0:0:0:
96,124,25239,2,0,L|28:124,2,53.9999983520508,0|2|0,0:0|0:0|0:0,0:0:0:0:
172,124,25970,1,2,0:0:0:0:
324,120,26458,6,0,B|384:156|352:240|352:240|432:244,1,215.999993408203,4|0,0:0|0:0,0:0:0:0:
432,320,27678,2,0,L|364:316,1,53.9999983520508,0|2,0:0|0:0,0:0:0:0:
304,308,28165,1,0,0:0:0:0:
244,264,28409,2,0,B|128:196|200:88|200:88|288:156|224:160,1,323.999990112305,4|0,0:0|0:0,0:0:0:0:
72,152,30361,5,4,0:0:0:0:
156,24,30848,2,0,B|192:8|192:8|248:20,2,80.9999975280763,2|0|0,0:0|0:0|0:0,0:0:0:0:
104,80,31824,2,0,L|76:132,1,53.9999983520508,2|0,0:0|0:0,0:0:0:0:
48,196,32312,2,0,L|12:256,2,53.9999983520508,4|0|2,0:0|0:0|0:0,0:0:0:0:
124,196,33043,1,0,0:0:0:0:
200,184,33287,2,0,L|236:124,2,53.9999983520508,2|0|2,0:0|0:0|0:0,0:0:0:0:
252,240,34019,2,0,L|224:286,1,53.9999983520508,0|4,0:0|0:0,0:0:0:0:
176,348,34507,5,0,0:0:0:0:
104,328,34751,2,0,P|64:292|52:240,1,107.999996704102,2|2,0:0|0:0,0:0:0:0:
84,92,35727,1,2,0:0:0:0:
156,64,35970,1,0,0:0:0:0:
220,104,36214,2,0,B|264:160|344:116|344:116|344:212,1,215.999993408203,4|0,0:0|0:0,0:0:0:0:
40,336,38165,5,4,0:0:0:0:
120,360,38409,1,0,0:0:0:0:
192,328,38653,2,0,L|260:328,2,60,8|0|2,0:0|0:0|0:0,0:0:0:0:
168,252,39385,2,0,L|100:252,2,60,0|8|0,0:0|0:0|0:0,0:0:0:0:
192,176,40117,2,0,L|260:176,2,60,4|0|8,0:0|0:0|0:0,0:0:0:0:
168,100,40849,2,0,L|100:100,2,60,0|2|0,0:0|0:0|0:0,0:0:0:0:
248,100,41580,1,8,0:0:0:0:
388,168,42068,6,0,P|424:172|456:156,2,60,4|0|8,0:0|0:0|0:0,0:0:0:0:
248,100,43043,1,2,0:0:0:0:
184,56,43287,2,0,P|152:52|120:60,2,60,0|8|0,0:0|0:0|0:0,0:0:0:0:
248,100,44019,2,0,P|259:69|258:36,2,60,4|0|8,0:0|0:0|0:0,0:0:0:0:
176,136,44751,1,0,0:0:0:0:
44,216,45239,2,0,P|56:252|84:276,1,60,0|8,0:0|0:0,0:0:0:0:
216,328,45970,6,0,L|264:364,2,60,4|0|8,0:0|0:0|0:0,0:0:0:0:
240,252,46702,2,0,L|192:216,2,60,0|2|0,0:0|0:0|0:0,0:0:0:0:
304,296,47434,1,8,0:0:0:0:
456,260,47922,2,0,L|468:196,2,60,4|0|8,0:0|0:0|0:0,0:0:0:0:
384,224,48653,2,0,L|396:160,2,60,0|2|0,0:0|0:0|0:0,0:0:0:0:
388,304,49385,2,0,P|328:284|306:236,1,120,8|2,0:0|0:0,0:0:0:0:
424,36,50604,5,0,0:0:0:0:
348,20,50848,1,2,0:0:0:0:
284,64,51092,1,0,0:0:0:0:
248,216,51580,2,0,P|188:208|140:108,1,180,4|8,0:0|0:0,0:0:0:0:
200,56,52556,1,0,0:0:0:0:
336,128,53043,2,0,P|392:136|444:88,1,120,2|0,0:0|0:0,0:0:0:0:
296,36,54019,5,0,0:0:0:0:
220,52,54263,2,0,P|184:56|144:48,2,60,8|0|2,0:0|0:0|0:0,0:0:0:0:
296,36,54995,2,0,P|332:32|372:40,2,60,0|8|0,0:0|0:0|0:0,0:0:0:0:
328,108,55726,2,0,P|324:168|280:208,1,120,4|0,0:0|0:0,0:0:0:0:
124,204,56702,1,2,0:0:0:0:
208,72,57190,1,8,0:0:0:0:
284,208,57678,5,4,0:0:0:0:
340,264,57922,1,0,0:0:0:0:
264,284,58165,1,8,0:0:0:0:
124,204,58653,2,0,P|88:200|52:212,2,60,2|0|8,0:0|0:0|0:0,0:0:0:0:
199,223,59385,1,0,0:0:0:0:
348,164,59873,2,0,L|416:140,2,60,0|8|0,0:0|0:0|0:0,0:0:0:0:
364,240,60604,2,0,L|307:259,2,60,2|0|8,0:0|0:0|0:0,0:0:0:0:
240,332,61580,6,0,P|208:284|216:220,1,120,4|8,0:0|0:0,0:0:0:0:
348,144,62556,2,0,L|400:116,2,60,2|0|8,0:0|0:0|0:0,0:0:0:0:
280,184,63287,1,0,0:0:0:0:
156,280,63775,2,0,P|124:284|84:276,2,60,0|8|0,0:0|0:0|0:0,0:0:0:0:
236,272,64507,2,0,P|268:268|308:276,2,60,2|0|8,0:0|0:0|0:0,0:0:0:0:
268,344,65239,6,0,P|300:348|340:340,2,60,0|4|0,0:0|0:0|0:0,0:0:0:0:
192,336,65970,2,0,B|136:320|96:352|96:352|68:272,1,180,8|0,0:0|0:0,0:0:0:0:
76,120,67190,2,0,P|44:116|4:132,2,60,0|4|0,0:0|0:0|0:0,0:0:0:0:
144,160,67922,2,0,P|216:168|268:80,1,180,8|0,0:0|0:0,0:0:0:0:
108,92,69141,2,0,P|84:108|68:144,2,60,0|4|0,0:0|0:0|0:0,0:0:0:0:
144,160,69873,2,0,B|140:252|140:252|176:272|240:236,1,180,8|0,0:0|0:0,0:0:0:0:
284,196,70848,1,8,0:0:0:0:
312,44,71336,6,0,B|372:36|372:36|420:84,1,120,4|8,0:0|0:0,0:0:0:0:
386,230,72312,2,0,B|326:238|326:238|278:190,1,120,2|8,0:0|0:0,0:0:0:0:
236,136,73043,5,0,0:0:0:0:
176,84,73287,2,0,P|112:84|72:120,1,120,4|8,0:0|0:0,0:0:0:0:
72,276,74263,2,0,P|117:313|175:311,1,120,2|8,0:0|0:0,0:0:0:0:
240,264,74995,1,0,0:0:0:0:
256,108,75483,1,0,0:0:0:0:
300,44,75726,2,0,P|332:36|364:36,2,60,8|0|2,0:0|0:0|0:0,0:0:0:0:
232,184,76702,1,8,0:0:0:0:
144,56,77190,5,4,0:0:0:0:
300,44,77678,2,0,P|344:76|352:144,1,120,8|2,0:0|0:0,0:0:0:0:
296,284,78653,1,8,0:0:0:0:
216,284,78897,1,0,0:0:0:0:
256,220,79141,2,0,P|311:210|364:252,1,120,4|8,0:0|0:0,0:0:0:0:
296,284,79873,2,0,P|368:320|434:260,1,180,2|8,0:0|0:0,0:0:0:0:
436,184,80848,1,0,0:0:0:0:
340,60,81336,6,0,L|272:52,2,60,0|8|0,0:0|0:0|0:0,0:0:0:0:
308,132,82068,2,0,L|240:124,2,60,2|0|8,0:0|0:0|0:0,0:0:0:0:
388,128,82800,1,0,0:0:0:0:
436,276,83287,2,0,L|448:336,2,60,0|8|0,0:0|0:0|0:0,0:0:0:0:
356,268,84019,2,0,L|344:208,2,60,2|0|8,0:0|0:0|0:0,0:0:0:0:
244,376,84995,6,0,P|176:380|132:344,1,120,4|8,0:0|0:0,0:0:0:0:
132,196,85976,2,0,P|152:140|136:80,1,120,2|8,0:0|0:0,0:0:0:0:
292,68,86957,2,0,L|352:36,2,60,4|0|8,0:0|0:0|0:0,0:0:0:0:
328,140,87693,2,0,L|275:168,2,60,0|2|0,0:0|0:0|0:0,0:0:0:0:
396,104,88429,1,8,0:0:0:0:
472,240,88919,6,0,L|492:308,2,60,4|0|8,0:0|0:0|0:0,0:0:0:0:
404,280,89655,2,0,L|424:348,2,60,0|2|0,0:0|0:0|0:0,0:0:0:0:
348,224,90391,1,8,0:0:0:0:
272,236,90636,1,0,0:0:0:0:
216,292,90882,6,0,P|160:292|120:268,2,90,4|8|0,0:0|0:0|0:0,0:0:0:0:
272,236,91861,2,0,L|276:152,1,60,2|0,0:0|0:0,0:0:0:0:
92,28,92841,2,0,P|48:20|0:40,2,90,4|4|0,0:0|0:0|0:0,0:0:0:0:
336,332,94800,6,0,P|380:340|428:320,2,90,4|4|0,0:0|0:0|0:0,0:0:0:0:
264,296,95779,2,0,P|232:288|188:300,1,60,2|0,0:0|0:0,0:0:0:0:
32,140,96759,2,0,P|12:100|12:52,2,90,4|8|0,0:0|0:0|0:0,0:0:0:0:
72,208,97753,2,0,L|128:228,1,60,2|0,0:0|0:0,0:0:0:0:
184,176,98250,2,0,L|243:180,1,60,8|0,0:0|0:0,0:0:0:0:
320,184,98747,5,4,0:0:0:0:
256,192,98871,12,0,103221,0:0:0:0:
