osu file format v13

[General]
AudioFilename: audio.mp3
AudioLeadIn: 0
PreviewTime: 38043
Countdown: 0
SampleSet: Soft
StackLeniency: 0.7
Mode: 0
LetterboxInBreaks: 0
WidescreenStoryboard: 0

[Editor]
Bookmarks: 71812
DistanceSpacing: 1.5
BeatDivisor: 4
GridSize: 4
TimelineZoom: 1

[Metadata]
Title:1/2
TitleUnicode:1/2
Artist:Kawamoto Makoto
ArtistUnicode:川本真琴
Creator:Natsu
Version:Insane
Source:るろうに剣心-明治剣客浪漫譚-
Tags:opening El Guerrero samurai x Rurouni Kenshin Meiji Kenkaku Romantan One Half
BeatmapID:519405
BeatmapSetID:222119

[Difficulty]
HPDrainRate:7
CircleSize:4
OverallDifficulty:7
ApproachRate:8
SliderMultiplier:2
SliderTickRate:1

[Events]
//Background and Video events
Video,-1901,"Rurouni Kenshin OP.avi"
0,0,"123.jpg",0,0
//Break Periods
//Storyboard Layer 0 (Background)
//Storyboard Layer 1 (Fail)
//Storyboard Layer 2 (Pass)
//Storyboard Layer 3 (Foreground)
//Storyboard Sound Samples
//Background Colour Transformations
3,100,163,162,255

[TimingPoints]
3044,487.80487804878,4,2,1,55,1,0
6946,-125,4,2,1,60,0,0
28531,-125,4,2,1,20,0,0
30361,-125,4,2,1,55,0,0
38165,-111.111111111111,4,2,1,60,0,1
38287,-111.111111111111,4,2,1,55,0,0
57678,-100,4,2,1,60,0,1
71336,-111.111111111111,4,2,1,55,0,0
84995,490.596892886345,4,2,1,55,1,0
90882,489.795918367347,4,2,1,55,1,0
96759,497.100248550124,4,2,1,55,1,0
98871,-100,4,2,1,10,0,0

[Colours]
Combo1 : 2,89,176
Combo2 : 0,179,179
Combo3 : 234,117,0
Combo4 : 164,189,165

[HitObjects]
80,192,3044,5,4,0:0:0:0:
256,52,3409,1,2,0:0:0:0:
292,276,3775,1,0,0:0:0:0:
200,188,4019,2,0,P|184:144|192:88,1,100,2|0,0:0|0:0,0:0:0:0:
256,52,4385,1,0,0:0:0:0:
329,93,4507,2,0,P|336:142|320:188,1,100,2|0,0:0|0:0,0:0:0:0:
100,276,4995,5,4,0:0:0:0:
100,276,5117,1,0,0:0:0:0:
100,276,5239,1,0,0:0:0:0:
136,132,5483,1,2,0:0:0:0:
244,236,5726,1,0,0:0:0:0:
100,276,5970,1,2,0:0:0:0:
208,172,6214,1,0,0:0:0:0:
60,196,6458,1,2,0:0:0:0:
60,196,6580,1,0,0:0:0:0:
60,196,6702,1,0,0:0:0:0:
256,312,6946,6,0,P|296:292|300:184,1,160,4|0,0:0|0:0,0:0:0:0:
256,76,7678,1,0,0:0:0:0:
200,184,7922,2,0,P|239:204|329:144,1,160,2|0,0:0|0:0,0:0:0:0:
256,52,8653,1,0,0:0:0:0:
140,28,8897,6,0,P|60:68|40:144,1,160,4|0,0:0|0:0,0:0:0:0:
200,184,9629,1,0,0:0:0:0:
387,234,9873,1,2,0:0:0:0:
206,303,10117,1,0,0:0:0:0:
312,140,10361,1,2,0:0:0:0:
322,334,10604,1,0,0:0:0:0:
200,184,10848,2,0,B|116:152|56:216|56:216|12:116|100:68,1,320,4|0,0:0|0:0,0:0:0:0:
256,8,12068,5,0,0:0:0:0:
364,58,12312,1,2,0:0:0:0:
314,167,12556,1,0,0:0:0:0:
205,116,12800,1,4,0:0:0:0:
136,20,13043,2,0,P|36:36|84:132,1,240,2|0,0:0|0:0,0:0:0:0:
492,380,14751,6,0,P|500:340|492:296,1,80,4|0,0:0|0:0,0:0:0:0:
396,196,15239,2,0,P|388:236|396:280,1,80,2|0,0:0|0:0,0:0:0:0:
416,320,15604,1,0,0:0:0:0:
472,128,15970,1,0,0:0:0:0:
328,144,16214,1,2,0:0:0:0:
468,104,16458,1,0,0:0:0:0:
324,116,16702,5,4,0:0:0:0:
216,20,16946,1,0,0:0:0:0:
188,160,17190,1,2,0:0:0:0:
325,92,17434,1,0,0:0:0:0:
195,30,17678,1,2,0:0:0:0:
207,172,17922,1,0,0:0:0:0:
312,76,18165,1,2,0:0:0:0:
172,40,18409,2,0,P|140:60|120:100,1,80,0|4,0:0|0:0,0:0:0:0:
124,376,18897,5,0,0:0:0:0:
260,332,19141,1,2,0:0:0:0:
219,196,19385,1,0,0:0:0:0:
81,238,19629,1,2,0:0:0:0:
260,332,19873,1,0,0:0:0:0:
399,291,20117,1,2,0:0:0:0:
357,156,20361,1,0,0:0:0:0:
219,196,20604,2,0,B|148:160|128:64|200:12|260:20|260:20|248:80,1,320,4|0,0:0|0:0,0:0:0:0:
219,196,22312,5,0,0:0:0:0:
256,56,22556,2,0,P|328:32|408:56,1,160,4|0,0:0|0:0,0:0:0:0:
448,192,23287,1,0,0:0:0:0:
411,332,23531,2,0,P|339:356|259:332,1,160,2|0,0:0|0:0,0:0:0:0:
220,196,24263,1,0,0:0:0:0:
80,232,24507,2,0,P|56:304|80:384,1,160,4|0,0:0|0:0,0:0:0:0:
228,340,25239,5,0,0:0:0:0:
228,340,25361,1,0,0:0:0:0:
228,340,25483,1,2,0:0:0:0:
220,196,25726,1,0,0:0:0:0:
80,232,25970,1,2,0:0:0:0:
220,116,26214,1,0,0:0:0:0:
220,116,26458,2,0,B|280:116|312:156|304:196|280:248|384:276|440:248|440:168,1,320,4|0,0:0|0:0,0:0:0:0:
444,36,27678,5,0,0:0:0:0:
300,28,27922,1,2,0:0:0:0:
444,36,28165,1,0,0:0:0:0:
300,28,28409,1,4,0:0:0:0:
256,192,28531,12,0,29873,0:0:0:0:
144,228,30361,6,0,B|184:240|184:240|224:224,1,80,4|0,0:0|0:0,0:0:0:0:
368,156,30848,2,0,B|328:144|328:144|288:160,1,80,2|0,0:0|0:0,0:0:0:0:
292,158,31214,1,0,0:0:0:0:
468,356,31580,1,0,0:0:0:0:
436,216,31824,1,2,0:0:0:0:
292,232,32068,1,0,0:0:0:0:
468,356,32312,5,4,0:0:0:0:
436,216,32556,1,0,0:0:0:0:
292,232,32800,1,2,0:0:0:0:
252,368,33043,1,0,0:0:0:0:
112,336,33287,1,2,0:0:0:0:
128,192,33531,1,0,0:0:0:0:
236,100,33775,1,2,0:0:0:0:
292,232,34019,2,0,P|329:219|351:185,1,80,0|4,0:0|0:0,0:0:0:0:
236,100,34507,5,0,0:0:0:0:
114,22,34751,1,2,0:0:0:0:
108,167,34995,1,0,0:0:0:0:
280,29,35239,1,2,0:0:0:0:
280,29,35361,1,0,0:0:0:0:
280,29,35483,1,0,0:0:0:0:
152,96,35726,1,2,0:0:0:0:
280,29,35970,1,0,0:0:0:0:
274,174,36214,2,0,P|383:248|393:117,1,320,4|0,0:0|0:0,0:0:0:0:
274,174,38165,5,4,0:0:0:0:
274,174,38287,1,0,0:0:0:0:
274,174,38409,1,2,0:0:0:0:
274,174,38531,2,0,L|322:170,1,44.999998626709,0|8,0:0|0:0,0:0:0:0:
476,164,38897,5,0,0:0:0:0:
486,223,39019,1,0,0:0:0:0:
476,281,39141,1,2,0:0:0:0:
435,324,39263,1,0,0:0:0:0:
386,353,39385,1,0,0:0:0:0:
326,363,39507,1,0,0:0:0:0:
270,348,39629,1,8,0:0:0:0:
180,256,39873,1,0,0:0:0:0:
52,108,40117,5,4,0:0:0:0:
100,71,40238,1,0,0:0:0:0:
162,76,40360,1,0,0:0:0:0:
225,79,40482,1,0,0:0:0:0:
284,56,40604,1,8,0:0:0:0:
335,20,40726,1,0,0:0:0:0:
395,17,40848,1,0,0:0:0:0:
456,27,40970,1,0,0:0:0:0:
489,81,41092,1,2,0:0:0:0:
468,212,41336,1,0,0:0:0:0:
468,212,41458,2,0,L|420:228,1,44.999998626709,0|8,0:0|0:0,0:0:0:0:
280,276,41824,1,0,0:0:0:0:
280,276,42068,5,4,0:0:0:0:
52,178,42312,1,0,0:0:0:0:
294,122,42556,1,8,0:0:0:0:
130,310,42800,1,0,0:0:0:0:
152,63,43043,1,2,0:0:0:0:
280,276,43287,1,0,0:0:0:0:
280,276,43409,2,0,L|336:264,1,44.999998626709,0|8,0:0|0:0,0:0:0:0:
384,248,43653,1,0,0:0:0:0:
428,204,43775,1,0,0:0:0:0:
380,44,44019,5,4,0:0:0:0:
256,136,44263,1,0,0:0:0:0:
132,44,44507,1,8,0:0:0:0:
256,136,44751,2,0,P|300:144|352:120,1,89.9999972534181,0|2,0:0|0:0,0:0:0:0:
217,37,45239,2,0,P|173:29|121:53,2,89.9999972534181,0|8|0,0:0|0:0|0:0,0:0:0:0:
354,242,45970,5,4,0:0:0:0:
232,336,46214,1,0,0:0:0:0:
172,316,46336,1,0,0:0:0:0:
136,264,46458,1,8,0:0:0:0:
176,116,46702,1,0,0:0:0:0:
144,64,46824,1,0,0:0:0:0:
84,48,46946,1,2,0:0:0:0:
120,176,47190,1,0,0:0:0:0:
180,192,47312,2,0,P|200:192|224:180,1,44.999998626709,0|8,0:0|0:0,0:0:0:0:
268,136,47556,2,0,P|289:128|311:128,1,44.999998626709,0|0,0:0|0:0,0:0:0:0:
424,248,47922,5,4,0:0:0:0:
461,299,48043,1,0,0:0:0:0:
423,352,48165,1,0,0:0:0:0:
362,332,48287,1,0,0:0:0:0:
362,267,48409,1,8,0:0:0:0:
492,152,48653,1,0,0:0:0:0:
472,92,48775,1,0,0:0:0:0:
428,48,48897,1,8,0:0:0:0:
364,56,49019,2,0,P|340:60|304:52,1,44.999998626709
260,36,49263,1,0,0:0:0:0:
208,68,49385,2,0,P|148:96|72:28,2,179.999994506836,8|2|8,0:0|0:0|0:0,0:0:0:0:
408,32,50604,5,0,0:0:0:0:
496,156,50848,1,2,0:0:0:0:
344,152,51092,2,0,P|300:152|260:172,1,89.9999972534181,0|8,0:0|0:0,0:0:0:0:
256,324,51580,2,0,P|216:344|171:344,2,89.9999972534181,4|0|0,0:0|0:0|0:0,0:0:0:0:
344,152,52312,5,8,0:0:0:0:
192,136,52556,2,0,P|144:124|112:88,1,89.9999972534181,0|2,0:0|0:0,0:0:0:0:
340,68,53043,2,0,P|388:80|420:116,2,89.9999972534181,0|8|0,0:0|0:0|0:0,0:0:0:0:
192,136,53775,1,4,0:0:0:0:
344,152,54019,5,0,0:0:0:0:
220,64,54263,1,8,0:0:0:0:
204,216,54507,1,0,0:0:0:0:
344,152,54751,1,2,0:0:0:0:
486,206,54995,1,0,0:0:0:0:
430,349,55239,1,8,0:0:0:0:
287,294,55483,1,0,0:0:0:0:
324,76,55726,6,0,P|368:76|408:104,1,89.9999972534181,4|0,0:0|0:0,0:0:0:0:
392,252,56214,1,8,0:0:0:0:
256,184,56458,1,0,0:0:0:0:
116,120,56702,2,0,P|72:104|24:112,1,89.9999972534181,2|0,0:0|0:0,0:0:0:0:
177,174,57190,2,0,P|193:130|185:82,1,89.9999972534181,8|0,0:0|0:0,0:0:0:0:
76,244,57678,5,4,0:0:0:0:
192,368,57922,1,0,0:0:0:0:
256,212,58165,1,8,0:0:0:0:
120,316,58409,1,0,0:0:0:0:
288,288,58653,1,2,0:0:0:0:
356,132,58897,1,0,0:0:0:0:
456,268,59141,1,8,0:0:0:0:
288,288,59385,2,0,P|240:292|196:264,1,100,0|2,0:0|0:0,0:0:0:0:
80,44,59873,5,0,0:0:0:0:
248,24,60117,1,8,0:0:0:0:
104,112,60361,1,0,0:0:0:0:
272,92,60604,1,2,0:0:0:0:
128,180,60848,1,0,0:0:0:0:
296,160,61092,2,0,P|344:168|380:204,1,100,8|0,0:0|0:0,0:0:0:0:
256,376,61580,5,4,0:0:0:0:
92,336,61824,1,0,0:0:0:0:
208,212,62068,1,8,0:0:0:0:
168,380,62312,1,0,0:0:0:0:
208,212,62556,1,2,0:0:0:0:
256,376,62800,1,0,0:0:0:0:
92,336,63043,1,8,0:0:0:0:
256,284,63287,2,0,P|304:276|356:292,1,100,0|2,0:0|0:0,0:0:0:0:
504,372,63775,5,0,0:0:0:0:
460,208,64019,1,8,0:0:0:0:
292,196,64263,1,0,0:0:0:0:
212,48,64507,1,2,0:0:0:0:
380,60,64751,1,0,0:0:0:0:
460,208,64995,1,8,0:0:0:0:
244,256,65239,6,0,P|220:220|224:160,1,100,0|4,0:0|0:0,0:0:0:0:
300,16,65726,1,0,0:0:0:0:
316,184,65970,1,8,0:0:0:0:
212,48,66214,1,0,0:0:0:0:
212,48,66336,1,0,0:0:0:0:
212,48,66458,2,0,P|296:16|392:64,1,200,2|8,0:0|0:0,0:0:0:0:
244,256,67190,6,0,P|196:272|144:264,1,100,0|4,0:0|0:0,0:0:0:0:
28,144,67678,1,0,0:0:0:0:
192,196,67922,1,8,0:0:0:0:
72,80,68165,1,0,0:0:0:0:
72,80,68287,1,0,0:0:0:0:
72,80,68409,2,0,P|152:36|256:56,1,200,2|8,0:0|0:0,0:0:0:0:
396,340,69141,6,0,P|348:336|308:300,1,100,0|4,0:0|0:0,0:0:0:0:
256,140,69629,1,0,0:0:0:0:
424,132,69873,1,8,0:0:0:0:
280,220,70116,1,0,0:0:0:0:
280,220,70239,1,0,0:0:0:0:
280,220,70360,2,0,P|192:196|184:96,1,200,2|8,0:0|0:0,0:0:0:0:
482,62,71336,6,0,L|422:134,1,89.9999972534181,4|0,0:0|0:0,0:0:0:0:
280,220,71824,2,0,P|300:260|340:284,1,89.9999972534181,8|0,0:0|0:0,0:0:0:0:
425,131,72312,2,0,P|405:91|365:67,2,89.9999972534181,2|0|8,0:0|0:0|0:0,0:0:0:0:
280,220,73043,5,0,0:0:0:0:
138,277,73287,1,4,0:0:0:0:
159,125,73531,1,0,0:0:0:0:
301,68,73775,1,8,0:0:0:0:
422,163,74019,1,0,0:0:0:0:
280,220,74263,1,2,0:0:0:0:
224,76,74507,1,0,0:0:0:0:
200,228,74751,1,8,0:0:0:0:
340,172,74995,2,0,P|356:212|344:264,1,89.9999972534181,0|2,0:0|0:0,0:0:0:0:
160,344,75483,5,0,0:0:0:0:
52,236,75726,1,8,0:0:0:0:
40,84,75970,1,0,0:0:0:0:
84,40,76092,1,0,0:0:0:0:
140,64,76214,2,0,P|188:72|228:60,1,89.9999972534181,2|0,0:0|0:0,0:0:0:0:
392,20,76702,2,0,P|432:8|484:12,2,89.9999972534181,8|0|4,0:0|0:0|0:0,0:0:0:0:
256,192,77434,5,0,0:0:0:0:
144,296,77678,1,8,0:0:0:0:
256,192,77922,1,0,0:0:0:0:
144,88,78165,1,2,0:0:0:0:
256,192,78409,1,0,0:0:0:0:
368,88,78653,1,8,0:0:0:0:
256,192,78897,1,0,0:0:0:0:
368,296,79141,5,4,0:0:0:0:
256,192,79385,1,0,0:0:0:0:
220,340,79629,1,8,0:0:0:0:
368,296,79873,2,0,P|408:272|420:216,1,89.9999972534181,2|0,0:0|0:0,0:0:0:0:
368,88,80361,1,0,0:0:0:0:
256,192,80604,1,8,0:0:0:0:
220,340,80848,2,0,P|176:340|136:308,1,89.9999972534181,0|4,0:0|0:0,0:0:0:0:
144,88,81336,5,0,0:0:0:0:
280,20,81580,1,8,0:0:0:0:
332,164,81824,1,0,0:0:0:0:
216,64,82068,1,2,0:0:0:0:
364,96,82312,1,0,0:0:0:0:
404,148,82434,1,0,0:0:0:0:
392,212,82556,1,8,0:0:0:0:
224,192,82800,2,0,P|176:192|140:216,1,89.9999972534181,0|4,0:0|0:0,0:0:0:0:
36,360,83287,5,0,0:0:0:0:
188,376,83531,1,8,0:0:0:0:
244,344,83653,1,0,0:0:0:0:
260,284,83775,1,0,0:0:0:0:
256,112,84019,1,2,0:0:0:0:
128,196,84263,1,0,0:0:0:0:
260,284,84507,1,8,0:0:0:0:
256,112,84751,1,0,0:0:0:0:
128,196,84995,5,4,0:0:0:0:
280,188,85239,1,0,0:0:0:0:
392,84,85485,2,0,P|436:112|444:176,1,100,8|0,0:0|0:0,0:0:0:0:
432,304,85976,2,0,B|396:364|396:364|324:396|280:312,1,200,2|8,0:0|0:0,0:0:0:0:
116,32,86957,5,4,0:0:0:0:
20,168,87202,1,0,0:0:0:0:
20,232,87325,1,0,0:0:0:0:
64,280,87447,1,8,0:0:0:0:
128,296,87570,1,0,0:0:0:0:
188,272,87693,1,0,0:0:0:0:
248,252,87815,1,0,0:0:0:0:
312,256,87938,1,2,0:0:0:0:
376,272,88061,2,0,P|396:248|408:216,1,50,0|0,0:0|0:0,0:0:0:0:
480,84,88429,2,0,P|432:72|376:84,1,100,8|0,0:0|0:0,0:0:0:0:
256,176,88919,5,4,0:0:0:0:
160,304,89165,1,0,0:0:0:0:
96,156,89410,1,8,0:0:0:0:
272,96,89655,1,0,0:0:0:0:
324,247,89901,1,2,0:0:0:0:
166,217,90146,1,0,0:0:0:0:
108,240,90268,1,0,0:0:0:0:
84,300,90391,1,8,0:0:0:0:
108,360,90514,2,0,P|128:376|156:376,1,50
216,368,90759,1,0,0:0:0:0:
272,332,90882,5,4,0:0:0:0:
324,172,91126,1,0,0:0:0:0:
324,172,91249,2,0,P|364:144|424:152,1,100,4|0,0:0|0:0,0:0:0:0:
464,180,91616,1,0,0:0:0:0:
384,312,91861,1,2,0:0:0:0:
324,172,92106,1,0,0:0:0:0:
324,172,92228,1,0,0:0:0:0:
40,32,92841,5,4,0:0:0:0:
92,144,93086,1,0,0:0:0:0:
92,144,93208,2,0,P|132:128|196:156,1,100,4|0,0:0|0:0,0:0:0:0:
220,192,93575,1,0,0:0:0:0:
220,192,94800,5,4,0:0:0:0:
328,88,95045,1,0,0:0:0:0:
328,88,95167,2,0,P|376:80|428:112,1,100,4|0,0:0|0:0,0:0:0:0:
436,160,95535,1,0,0:0:0:0:
336,228,95779,1,2,0:0:0:0:
220,192,96024,1,0,0:0:0:0:
220,192,96147,1,0,0:0:0:0:
220,192,96759,5,4,0:0:0:0:
156,292,97007,1,0,0:0:0:0:
156,292,97131,2,0,P|196:316|256:304,1,100,8|0,0:0|0:0,0:0:0:0:
296,276,97504,1,0,0:0:0:0:
336,164,97753,1,2,0:0:0:0:
220,192,98001,1,0,0:0:0:0:
188,76,98250,1,8,0:0:0:0:
304,48,98498,1,0,0:0:0:0:
296,276,98747,5,4,0:0:0:0:
256,192,98871,12,0,103221,0:0:0:0:
