osu file format v13

[General]
AudioFilename: audio.mp3
AudioLeadIn: 0
PreviewTime: 38043
Countdown: 0
SampleSet: Soft
StackLeniency: 0.7
Mode: 0
LetterboxInBreaks: 0
WidescreenStoryboard: 0

[Editor]
Bookmarks: 71812
DistanceSpacing: 1.3
BeatDivisor: 4
GridSize: 4
TimelineZoom: 1

[Metadata]
Title:1/2
TitleUnicode:1/2
Artist:Kawamoto Makoto
ArtistUnicode:川本真琴
Creator:Natsu
Version:Easy
Source:るろうに剣心-明治剣客浪漫譚-
Tags:opening El Guerrero samurai x Rurouni Kenshin Meiji Kenkaku Romantan One Half
BeatmapID:519970
BeatmapSetID:222119

[Difficulty]
HPDrainRate:2
CircleSize:3
OverallDifficulty:2
ApproachRate:3
SliderMultiplier:0.8
SliderTickRate:1

[Events]
//Background and Video events
Video,-1901,"Rurouni Kenshin OP.avi"
0,0,"123.jpg",0,0
//Break Periods
//Storyboard Layer 0 (Background)
//Storyboard Layer 1 (Fail)
//Storyboard Layer 2 (Pass)
//Storyboard Layer 3 (Foreground)
//Storyboard Sound Samples
//Background Colour Transformations
3,100,163,162,255

[TimingPoints]
3044,487.80487804878,4,2,1,55,1,0
6946,-100,4,2,1,60,0,0
30361,-100,4,2,1,55,0,0
38165,-100,4,2,1,60,0,1
38287,-100,4,2,1,55,0,0
57678,-100,4,2,1,60,0,1
71336,-100,4,2,1,55,0,0
84995,490.596892886345,4,2,1,55,1,0
90882,489.795918367347,4,2,1,55,1,0
96759,497.100248550124,4,2,1,55,1,0
98871,-100,4,2,1,10,0,0

[Colours]
Combo1 : 2,89,176
Combo2 : 0,179,179
Combo3 : 234,117,0
Combo4 : 164,189,165

[HitObjects]
96,296,3044,6,0,B|176:272|176:324|252:288,1,160,4|2,0:0|0:0,0:0:0:0:
368,120,4995,2,0,P|408:104|448:120,2,80,4|2|2,0:0|0:0|0:0,0:0:0:0:
328,216,6458,1,2,0:0:0:0:
256,292,6946,6,0,P|192:296|148:256,1,120,4|0,0:0|0:0,0:0:0:0:
128,216,7922,2,0,L|116:136,1,80,2|0,0:0|0:0,0:0:0:0:
180,56,8897,2,0,P|244:52|288:92,1,120,4|0,0:0|0:0,0:0:0:0:
308,132,9873,2,0,L|320:212,1,80,2|0,0:0|0:0,0:0:0:0:
392,288,10848,6,0,P|318:319|247:286,1,160,4|0,0:0|0:0,0:0:0:0:
208,192,12312,1,2,0:0:0:0:
208,88,12800,2,0,B|168:28|108:28|108:28|80:76|116:144,1,240,4|0,0:0|0:0,0:0:0:0:
208,192,14751,5,4,0:0:0:0:
284,120,15239,2,0,B|320:104|320:104|364:120,1,80,2|0,0:0|0:0,0:0:0:0:
436,188,16214,1,2,0:0:0:0:
448,292,16702,2,0,B|408:297|408:297|371:269,1,80,4|2,0:0|0:0,0:0:0:0:
436,188,17678,2,0,L|456:108,1,80,2|0,0:0|0:0,0:0:0:0:
384,32,18653,5,4,0:0:0:0:
288,76,19141,2,0,P|244:80|204:56,2,80,2|2|2,0:0|0:0|0:0,0:0:0:0:
384,32,20604,2,0,P|440:84|432:164,1,160,4|0,0:0|0:0,0:0:0:0:
260,276,22556,6,0,P|212:244|200:180,1,120,4|0,0:0|0:0,0:0:0:0:
204,136,23531,2,0,P|156:100|96:108,1,120,2|0,0:0|0:0,0:0:0:0:
76,152,24507,2,0,L|52:280,2,120,4|0|2,0:0|0:0|0:0,0:0:0:0:
104,52,26458,6,0,B|184:40|184:40|220:36|252:84,1,160,4|0,0:0|0:0,0:0:0:0:
288,176,27922,1,2,0:0:0:0:
332,272,28409,2,0,B|376:356|376:356|428:360|468:312|444:248,1,240,4|0,0:0|0:0,0:0:0:0:
404,164,30361,5,4,0:0:0:0:
316,112,30848,2,0,L|152:96,1,160,2|2,0:0|0:0,0:0:0:0:
116,192,32312,2,0,L|20:184,2,80,4|2|2,0:0|0:0|0:0,0:0:0:0:
220,204,33775,1,2,0:0:0:0:
324,212,34263,6,0,P|364:220|400:256,2,80,4|2|2,0:0|0:0|0:0,0:0:0:0:
220,204,35726,1,2,0:0:0:0:
116,192,36214,2,0,P|84:116|128:48,1,160,4|0,0:0|0:0,0:0:0:0:
327,36,38165,6,0,L|394:82,1,80,4|8,0:0|0:0,0:0:0:0:
336,168,39141,2,0,L|270:122,1,80,2|8,0:0|0:0,0:0:0:0:
268,228,40117,2,0,P|288:260|332:280,2,80,4|8|2,0:0|0:0|0:0,0:0:0:0:
276,124,41580,1,8,0:0:0:0:
332,36,42068,5,4,0:0:0:0:
412,104,42556,2,0,P|400:144|360:172,1,80,8|2,0:0|0:0,0:0:0:0:
276,124,43532,1,8,0:0:0:0:
188,64,44019,2,0,P|148:60|100:72,2,80,4|8|2,0:0|0:0|0:0,0:0:0:0:
276,124,45483,1,8,0:0:0:0:
344,204,45970,6,0,P|376:168|376:128,1,80,4|8,0:0|0:0,0:0:0:0:
276,124,46946,2,0,P|244:160|244:200,1,80,2|8,0:0|0:0,0:0:0:0:
309,269,47922,2,0,P|341:233|341:193,1,80,4|8,0:0|0:0,0:0:0:0:
356,100,48897,1,2,0:0:0:0:
264,152,49385,2,0,P|228:164|176:148,1,80,8|0,0:0|0:0,0:0:0:0:
64,64,50604,6,0,L|48:156,1,80,2|0,0:0|0:0,0:0:0:0:
28,244,51580,2,0,P|84:296|136:288,2,120,4|8|2,0:0|0:0|0:0,0:0:0:0:
148,144,53775,6,0,L|236:136,1,80,4|8,0:0|0:0,0:0:0:0:
296,216,54751,2,0,L|208:224,1,80,2|8,0:0|0:0,0:0:0:0:
112,232,55726,1,4,0:0:0:0:
146,330,56214,1,8,0:0:0:0:
245,361,56702,2,0,P|296:360|327:344,1,80,2|8,0:0|0:0,0:0:0:0:
380,260,57678,6,0,L|392:176,1,80,4|8,0:0|0:0,0:0:0:0:
320,104,58653,2,0,P|372:76|432:84,2,120,2|2|8,0:0|0:0|0:0,0:0:0:0:
237,167,60604,2,0,P|194:169|159:153,1,80,2|8,0:0|0:0,0:0:0:0:
68,104,61580,6,0,L|44:188,1,80,4|8,0:0|0:0,0:0:0:0:
28,284,62556,2,0,B|84:308|84:308|144:284,1,120,2|0,0:0|0:0,0:0:0:0:
236,244,63775,2,0,B|292:220|292:220|352:244,1,120,2|8,0:0|0:0,0:0:0:0:
448,360,65239,6,0,B|476:328|476:328|440:264|472:172,1,200,2|2,0:0|0:0,0:0:0:0:
416,28,67190,2,0,B|384:56|384:56|320:20|228:52,1,200,2|2,0:0|0:0,0:0:0:0:
100,140,69141,2,0,B|128:172|128:172|92:236|124:328,1,200,2|2,0:0|0:0,0:0:0:0:
220,364,70848,1,8,0:0:0:0:
324,364,71336,6,0,P|368:356|396:328,1,80,4|8,0:0|0:0,0:0:0:0:
392,228,72312,2,0,P|361:202|322:196,1,80,2|8,0:0|0:0,0:0:0:0:
220,200,73287,5,4,0:0:0:0:
128,248,73775,1,8,0:0:0:0:
72,336,74263,2,0,P|108:352|160:344,2,80,2|8|4,0:0|0:0|0:0,0:0:0:0:
128,248,75726,2,0,P|92:232|40:240,2,80,8|2|8,0:0|0:0|0:0,0:0:0:0:
198,324,77190,6,0,P|243:338|284:331,1,80,4|8,0:0|0:0,0:0:0:0:
376,312,78165,1,2,0:0:0:0:
456,248,78653,1,8,0:0:0:0:
480,148,79141,2,0,L|484:64,1,80,4|8,0:0|0:0,0:0:0:0:
484,16,79873,2,0,P|436:44|368:40,1,120,2|8,0:0|0:0,0:0:0:0:
272,24,81092,5,4,0:0:0:0:
184,80,81580,1,8,0:0:0:0:
140,172,82068,2,0,P|128:208|132:260,1,80,2|8,0:0|0:0,0:0:0:0:
184,340,83043,1,4,0:0:0:0:
288,348,83531,2,0,L|368:352,2,80,8|2|8,0:0|0:0|0:0,0:0:0:0:
184,340,84995,6,0,P|144:336|108:304,1,80,4|8,0:0|0:0,0:0:0:0:
100,208,85976,2,0,L|116:112,1,80,2|8,0:0|0:0,0:0:0:0:
132,28,86957,2,0,P|168:36|200:72,1,80,4|8,0:0|0:0,0:0:0:0:
252,152,87938,2,0,P|282:177|321:184,1,80,2|8,0:0|0:0,0:0:0:0:
408,128,88919,6,0,L|464:184,2,80,4|8|2,0:0|0:0|0:0,0:0:0:0:
308,104,90391,1,8,0:0:0:0:
220,48,90882,6,0,P|144:52|104:128,1,160,4|2,0:0|0:0,0:0:0:0:
156,320,92841,2,0,L|136:384,2,60,4|4|0,0:0|0:0|0:0,0:0:0:0:
256,80,94800,6,0,P|320:37|391:67,1,160,4|2,0:0|0:0,0:0:0:0:
388,272,96759,2,0,P|323:314|252:284,1,160,4|2,0:0|0:0,0:0:0:0:
220,184,98250,2,0,L|216:96,1,80,8|4,0:0|0:0,0:0:0:0:
256,192,98871,12,0,103221,0:0:0:0:
