osu file format v9

[General]
AudioFilename: un short ver.mp3
AudioLeadIn: 1000
PreviewTime: 78432
Countdown: 0
SampleSet: Soft
StackLeniency: 0.7
Mode: 0
LetterboxInBreaks: 0

[Editor]
Bookmarks: 100443
DistanceSpacing: 1.3
BeatDivisor: 4
GridSize: 4

[Metadata]
Title:u/n (Short Ver.)
Artist:Kawada Mami
Creator:Yasora
Version:Insane
Source:Shakugan no Shana III (Final)
Tags:Insert Song

[Difficulty]
HPDrainRate:7
CircleSize:4
OverallDifficulty:8
ApproachRate:9
SliderMultiplier:2
SliderTickRate:2

[Events]
//Background and Video events
0,0,"BG.jpg"
//Break Periods
//Storyboard Layer 0 (Background)
//Storyboard Layer 1 (Fail)
//Storyboard Layer 2 (Pass)
//Storyboard Layer 3 (Foreground)
//Storyboard Sound Samples
//Background Colour Transformations
3,100,163,162,255

[TimingPoints]
1642,326.086956521739,4,2,1,30,1,0
1805,-100,4,2,1,50,0,0
22511,-100,4,2,1,20,0,0
23163,-100,4,2,1,40,0,0
23815,-100,4,2,1,80,0,0
44685,-100,4,2,1,50,0,0
47294,-100,4,2,1,80,0,0
56017,-100,4,2,2,60,0,0
56180,-100,4,2,1,80,0,0
59277,-100,4,2,2,60,0,0
59440,-100,4,2,1,80,0,0
78598,-100,4,2,1,90,0,1
88381,-100,4,2,1,90,0,0
89033,-100,4,2,1,90,0,1
93517,-100,4,2,2,70,0,1
93680,-100,4,2,1,90,0,1
99468,-100,4,2,1,50,0,0
100446,-100,4,2,0,20,0,0

[Colours]
Combo1 : 255,255,255
Combo2 : 255,0,0
Combo3 : 254,150,56
Combo4 : 128,64,64

[HitObjects]
256,192,1642,1,4
164,116,1968,2,0,B|92:48,2,100,2|0|0
140,232,2620,1,2
60,264,2783,2,0,B|72:328|144:320,1,100,0|0
296,328,3272,1,2
416,220,3598,2,0,B|428:152|380:84|308:72,1,200,0|2
168,148,4250,5,0
88,132,4413,2,0,B|80:192|132:220,1,100,0|2
80,280,4739,2,0,B|144:320|228:272|204:184,1,200
284,192,5228,1,2
340,132,5392,6,0,B|380:176|352:232|352:232|436:284,1,200
476,212,5881,1,2
412,64,6207,1,0
252,80,6533,1,2
252,80,6859,6,0,B|176:152|56:120,1,200,0|2
92,280,7511,1,0
168,176,7674,1,0
252,280,7837,2,0,B|264:344|356:344|356:344|440:344,1,200,2|0
428,264,8326,2,0,B|328:264,1,100,0|2
284,112,8815,5,0
128,152,9142,1,2
76,304,9468,2,0,B|120:352|208:352|264:304,2,200,0|2|0
128,152,10446,1,2
192,40,10609,2,0,B|248:60|244:132,1,100
316,260,11098,5,2
460,144,11424,1,0
432,216,11587,1,0
400,288,11750,2,0,B|364:352|268:352|232:288,1,200,2|0
120,176,12402,6,0,B|68:268,1,100,2|0
100,336,12728,1,0
180,324,12891,1,0
256,184,13218,2,0,B|260:120|312:100,1,100,2|0
336,176,13544,2,0,B|388:204|392:272|380:328|328:352,1,200,0|0
284,264,14033,1,0
92,328,14359,1,2
112,200,14685,6,0,B|92:88,1,100
148,44,15011,1,2
220,76,15174,2,0,B|268:104|320:76,1,100
396,64,15500,2,0,B|436:112|400:156,1,100,0|2
348,212,15826,1,0
256,344,16152,1,2
160,216,16478,1,2
160,216,16968,1,2
160,216,17294,6,0,B|204:112,1,100
256,36,17620,1,2
352,196,17946,1,0
388,124,18109,1,0
468,124,18272,1,2
504,196,18435,1,0
472,268,18598,1,0
392,272,18761,1,0
428,200,18924,1,2
428,200,19250,1,0
288,280,19576,6,0,B|272:352|156:352|136:280,1,200,2|0
72,136,20228,1,2
228,92,20555,1,0
284,152,20718,2,0,B|296:208|372:208,1,100,0|2
356,128,21044,6,0,B|416:124|472:200|428:264|388:284,1,200
340,320,21533,1,2
256,324,21696,1,0
112,252,22022,2,0,B|36:284|-24:236|-16:120|56:96|124:136,1,300
412,260,23163,5,2
464,140,23326,1,0
288,332,23652,1,0
336,212,23815,1,4
284,20,24142,6,0,B|332:40|332:100,1,100,8|0
200,108,24468,1,0
200,108,24631,1,0
80,72,24794,2,0,B|60:124|88:168,1,100,8|0
200,108,25120,5,0
200,108,25283,1,0
240,232,25446,2,0,B|280:332,1,100,8|0
356,236,25772,2,0,B|308:132,1,100
380,48,26098,1,8
356,236,26261,6,0,B|384:284|360:336,1,100
232,336,26587,2,0,B|192:296|136:304,1,100,0|8
44,244,26913,2,0,B|32:176|60:104|144:84,1,200
244,132,27402,1,8
400,208,27565,6,0,B|448:188|500:208,2,100
332,320,28055,2,0,B|284:344|232:324,1,100,8|0
280,204,28381,1,0
344,92,28544,1,0
216,92,28707,1,8
96,140,28870,1,0
96,140,29033,6,0,B|56:240|120:336,1,200,4|8
196,272,29522,2,0,B|160:232|188:172,1,100
252,72,29848,2,0,B|288:120|260:180,1,100,0|8
300,284,30174,1,0
376,208,30337,6,0,B|372:132|468:92|528:156,1,200,0|8
480,260,30826,1,0
400,348,30989,1,0
316,260,31152,1,0
400,188,31315,1,8
160,152,31641,6,0,B|104:176|56:152|24:96|48:44,1,200,0|8
144,52,32131,1,0
272,28,32294,1,0
296,156,32457,1,0
216,260,32620,2,0,B|200:320|136:316,1,100,8|0
60,192,32946,6,0,B|40:240|64:292,2,100,0|0|8
76,144,33353,1,0
108,104,33435,1,0
156,88,33517,1,0
204,92,33598,1,8
244,120,33680,1,0
268,164,33761,1,0
288,212,33843,1,0
304,260,33924,1,8
340,292,34006,1,0
388,304,34087,1,0
436,284,34169,1,0
468,248,34250,5,4
216,308,34576,2,0,B|224:272|200:236|160:244,1,100,8|0
268,164,34902,1,0
156,100,35065,2,0,B|116:108|108:148|132:180,1,100,0|8
132,345,35392,6,0,B|192:360|216:308,1,100
128,216,35718,1,0
76,96,35881,2,0,B|48:44|-4:36,1,100,8|0
0,168,36207,2,0,B|-24:272|52:372,1,200,0|8
204,312,36696,6,0,B|256:288|304:312,1,100
408,300,37022,1,0
492,212,37185,1,8
416,120,37348,1,0
296,88,37511,2,0,B|248:48|184:72|160:128|192:188,1,200,0|8
80,192,38000,1,0
40,288,38163,5,0
156,312,38326,2,0,B|200:348|260:340,1,100,0|8
240,220,38652,2,0,B|276:184|276:184|276:124,1,100
168,84,38978,2,0,B|132:120|132:120|132:180,1,100,0|8
52,80,39305,1,8
80,224,39468,5,4
256,320,39794,2,0,B|340:296|340:296|356:232|440:224,1,200,8|0
432,348,40283,1,0
512,258,40446,2,0,B|464:268|416:222,1,100,8|0
364,144,40772,2,0,B|332:92|264:96,1,100
388,24,41098,1,8
281,95,41261,1,0
192,172,41424,2,0,B|164:220|100:208,1,100
44,104,41750,6,0,B|84:188|80:308,1,200,8|4
192,340,42239,1,0
292,276,42402,2,0,B|300:220|360:204,1,100,8|0
448,132,42728,2,0,B|504:116|504:52,1,100
384,40,43055,1,8
256,40,43218,6,0,B|256:152,1,100
156,204,43544,2,0,B|156:100,1,100,0|8
156,104,43788,1,0
156,104,43870,1,0
44,144,44033,2,0,B|-4:176|-4:176|28:244|-4:344,1,200,0|8
120,344,44522,1,0
256,192,44685,12,4,47294
108,176,47620,2,0,B|56:156|8:176,2,100,8|0|0
172,288,48109,2,0,B|160:352|228:356,1,100,0|8
344,308,48435,1,0
452,232,48598,6,0,B|452:160|452:160|452:104|384:84|352:124,1,200,0|8
272,196,49087,1,0
168,132,49250,2,0,B|108:128|76:64,1,100
24,184,49576,2,0,B|80:184|116:252,1,100,8|0
244,336,49902,6,0,B|199:360|147:336,2,100,0|0|8
332,240,50391,2,0,B|380:216|428:240,1,100
472,112,50718,1,0
376,24,50881,1,8
308,136,51044,6,0,B|260:116|260:116|228:76,1,100
140,172,51370,1,0
20,220,51533,2,0,B|32:280|80:300|136:296|136:296|148:340,1,200,8|0
272,304,52022,1,0
380,232,52185,1,8
480,148,52348,1,0
336,100,52511,5,4
336,100,52674,2,0,B|236:100,1,100,0|8
152,184,53000,1,0
184,300,53163,1,0
276,224,53326,1,0
136,168,53489,1,8
174,328,53652,1,0
56,240,53815,6,0,B|24:184|40:92|120:68,1,200,0|8
228,48,54305,1,0
340,88,54468,2,0,B|364:132|340:184,1,100
368,300,54794,1,8
252,264,54957,1,0
164,144,55120,5,4
80,56,55283,2,0,B|40:88|44:152,1,100,0|8
99,252,55609,2,0,B|147:240|200:248,1,100
152,364,55935,2,0,B|204:316|196:248|196:248|296:232,1,200
380,276,56424,6,0,B|424:296|484:268,1,100
360,184,56750,1,8
424,44,56913,1,0
488,184,57076,1,0
348,96,57239,1,0
492,92,57402,1,8
420,128,57565,1,8
420,128,57647,1,0
420,128,57728,5,4
184,88,58055,2,0,B|132:104|116:168,1,100,8|0
244,192,58381,2,0,B|220:240|240:296,1,100
96,348,58707,2,0,B|144:368|208:344,1,100,8|0
144,228,59033,5,0
40,148,59196,2,0,B|56:92|100:92|100:92|216:92,1,200
336,124,59685,2,0,B|376:164|364:228,2,100,0|0|8
464,96,60174,1,0
365,215,60337,6,0,B|388:264|388:264|364:324,1,100,4|0
248,268,60663,2,0,B|208:360,1,100,8|0
140,252,60989,2,0,B|112:220|112:220|112:148,1,100
28,104,61315,2,0,B|60:44|128:44|168:76|168:76|216:60,1,200,8|0
332,88,61805,5,0
384,208,61968,1,8
268,276,62131,2,0,B|212:244|232:176,2,100
140,268,62620,2,0,B|48:308,1,100,8|0
32,160,62946,6,0,B|28:116|60:96|96:116|96:116|136:92|168:120|160:164,1,200,4|8
300,104,63435,1,0
320,252,63598,2,0,B|260:228|248:168,1,100,0|0
400,176,63924,2,0,B|456:192|472:248,1,100,8|0
360,344,64250,2,0,B|312:360|260:348,1,100
144,256,64576,2,0,B|188:232|240:256,1,100,8|0
112,332,64902,1,0
72,208,65065,5,0
136,108,65228,1,8
248,148,65391,1,8
364,116,65555,1,4
112,332,65881,6,0,B|56:312|64:252,1,100,8|0
44,136,66207,1,0
132,52,66370,1,0
208,148,66533,2,0,B|224:200|268:228,1,100,8|0
384,216,66859,5,0
428,240,66940,1,0
444,288,67022,1,8
420,332,67103,1,0
380,352,67185,2,0,B|340:368|276:356,1,100,8|0
240,352,67430,1,0
208,316,67511,1,0
192,268,67593,1,0
208,220,67674,5,0
240,180,67756,1,0
280,152,67837,1,8
316,116,67919,1,0
336,72,68000,1,0
312,28,68082,1,0
264,16,68163,5,4
44,72,68489,2,0,B|36:176,1,100,8|0
48,292,68815,1,8
168,316,68978,1,2
136,200,69141,1,0
176,88,69305,6,0,B|212:52|268:48,1,100,8|0
416,128,69631,2,0,B|360:136|328:80,1,100,0|8
272,192,69957,2,0,B|328:184|356:240,1,100
248,296,70283,1,8
136,252,70446,1,2
116,132,70609,1,0
300,48,70772,5,4
216,136,70935,1,0
332,164,71098,2,8,B|400:240,1,100,8|0
316,324,71424,1,8
399,239,71587,2,0,B|429:193|485:173,1,100
456,56,71913,1,8
340,80,72076,6,0,B|280:112|232:52|232:52|200:72|152:56,1,200,0|8
72,148,72565,1,0
112,264,72728,2,0,B|188:332,1,100,0|8
236,344,72973,1,0
288,344,73055,1,0
336,336,73136,1,0
380,312,73218,1,0
412,272,73299,1,0
424,224,73381,5,4
168,108,73707,2,0,B|120:96|96:32,2,100,8|0|8
276,144,74196,1,2
236,272,74359,1,0
132,212,74522,1,8
280,68,74685,6,0,B|340:72|352:136,1,100
212,188,75011,1,8
160,292,75174,2,0,B|180:348|252:356,1,100
348,324,75500,2,0,B|360:268|420:248,1,100,8|2
480,156,75826,1,0
336,112,75989,5,4
220,88,76152,2,0,B|112:56,1,100,0|8
72,168,76478,1,0
136,268,76641,1,8
252,244,76805,1,0
108,276,76968,1,0
288,232,77131,6,0,B|344:208|396:244,1,100,8|0
472,156,77457,1,0
380,80,77620,1,0
264,104,77783,1,0
144,88,77946,1,8
96,80,78027,1,0
48,96,78109,1,0
16,132,78190,1,0
0,184,78272,1,8
0,232,78353,1,0
20,276,78435,1,0
56,308,78516,1,0
104,324,78598,6,0,B|149:355|199:327,1,100,4|0
182,205,78924,1,8
352,204,79087,1,0
384,320,79250,2,0,B|472:324|508:244|456:176,1,200,0|8
396,84,79739,2,0,B|352:56|308:88|308:88|256:120|208:80,1,200
100,68,80228,5,8
48,176,80391,2,0,B|72:224|48:280,1,100
72,156,80718,2,0,B|120:132|172:156,1,100,0|8
236,252,81044,1,0
356,232,81207,5,0
364,112,81370,2,0,B|412:84|464:92,2,100,0|8|0
248,148,81859,2,0,B|168:88,1,100
84,172,82185,1,8
56,212,82266,1,0
76,256,82348,6,0,B|84:316|156:312,1,100
264,308,82674,2,0,B|308:204,1,100,0|8
404,156,83000,1,0
360,44,83163,1,0
240,32,83326,1,0
156,116,83489,1,8
188,232,83652,6,0,B|180:340,1,100,0|4
80,264,83978,1,0
32,156,84141,1,8
104,60,84305,2,0,B|168:40|168:40|176:128|284:100,1,200
380,160,84794,2,0,B|432:200|420:268|368:312|296:276,1,200,8|0
232,168,85283,6,0,B|128:168,1,100,0|8
116,288,85609,1,0
236,276,85772,1,0
348,320,85935,1,0
444,248,86098,2,0,B|464:200|456:144,1,100,8|0
368,72,86424,6,0,B|328:92|272:68|272:68|228:96|172:76,1,200,0|8
68,136,86913,2,0,B|40:180|68:240,1,100
180,196,87239,1,0
248,292,87402,1,8
296,304,87484,1,0
340,280,87565,1,0
400,180,87728,6,0,B|400:136|444:136|444:76,1,100
324,76,88055,2,0,B|272:100|220:64,1,100,8|0
120,116,88381,1,8
36,216,88544,1,0
36,264,88625,1,0
56,308,88707,1,8
96,340,88788,1,0
144,348,88870,1,0
192,344,88951,1,0
236,320,89033,5,4
360,320,89196,1,0
424,212,89359,1,8
344,76,89522,2,0,B|292:92|248:52,1,100,0|8
180,152,89848,2,0,B|232:180|220:252,1,100,0|8
340,248,90174,2,0,B|348:192|416:176,1,100,0|8
40,344,90663,5,8
80,56,90989,2,0,B|48:100|80:160,1,100,8|0
188,112,91315,2,0,B|220:164|184:216,1,100,8|0
208,328,91641,2,0,B|256:344|308:328,1,100,8|0
364,224,91968,1,8
360,104,92131,1,0
256,48,92294,2,0,B|208:36|156:52,1,100,8|0
70,235,92620,2,0,B|48:184|76:140,1,100,8|0
188,180,92946,6,0,B|240:208|244:264|244:264|352:264,1,200,8|8
312,148,93435,2,0,B|312:76|392:24|476:80,1,200
424,188,93924,1,8
436,308,94087,2,0,B|392:344|336:336,1,100,0|4
256,200,94413,6,0,B|256:300,1,100,0|8
176,200,94739,2,0,B|176:100,1,100,0|8
92,60,95065,1,0
252,120,95228,1,8
352,52,95391,38,0,B|404:48|436:96,1,100,0|8
400,212,95718,1,0
340,316,95881,1,8
376,172,96044,1,0
296,328,96207,1,8
352,128,96370,1,0
256,336,96533,1,8
212,184,96696,6,0,B|116:128,1,100,0|4
128,236,97022,2,0,B|76:264|76:328,1,100,0|8
184,312,97348,2,0,B|180:372|244:384,1,100,0|8
308,284,97674,2,0,B|364:304|412:252,1,100,0|8
364,120,98000,6,0,B|308:96|272:144,1,100,0|4
176,56,98326,1,0
124,52,98408,1,0
76,64,98489,1,8
36,96,98571,1,0
16,140,98652,1,0
12,192,98734,1,0
24,240,98815,1,8
56,280,98897,1,0
100,304,98978,1,0
148,312,99060,1,0
196,304,99141,1,8
240,280,99223,1,0
272,240,99305,1,0
284,192,99386,1,0
280,140,99468,5,0
148,188,99631,1,2
232,88,99794,1,8
232,88,99957,1,8
392,104,100120,1,0
460,192,100283,2,0,B|480:236,2,50,2|0|2
