osu file format v10

[General]
AudioFilename: Kawada_Mami.mp3
AudioLeadIn: 0
PreviewTime: 77286
Countdown: 0
SampleSet: Soft
StackLeniency: 0.7
Mode: 0
LetterboxInBreaks: 1

[Editor]
DistanceSpacing: 1
BeatDivisor: 4
GridSize: 4

[Metadata]
Title:u/n
TitleUnicode:u/n
Artist:Kawada Mami
ArtistUnicode:Kawada Mami
Creator:Lizellota
Version:re-map
Source:Shakugan no Shana III (Final)
Tags:insert song hichman Naryuga
BeatmapID:182145
BeatmapSetID:58489

[Difficulty]
HPDrainRate:6
CircleSize:4
OverallDifficulty:7
ApproachRate:9
SliderMultiplier:2
SliderTickRate:2

[Events]
//Background and Video events
0,0,"BG.jpg"
//Break Periods
2,68342,76673
//Storyboard Layer 0 (Background)
//Storyboard Layer 1 (Fail)
//Storyboard Layer 2 (Pass)
//Storyboard Layer 3 (Foreground)
//Storyboard Sound Samples
//Background Colour Transformations
3,100,255,255,255

[TimingPoints]
1621,326.086956521739,4,2,1,70,1,0
39447,-100,4,1,1,70,0,0
39528,-100,4,2,1,70,0,0
44827,-100,4,2,1,5,0,0
47191,-100,4,1,1,80,0,0
47354,-100,4,2,1,80,0,0
62843,-100,4,1,1,80,0,0
63006,-100,4,2,1,80,0,0
77599,-100,4,1,1,50,0,0
78577,-100,4,2,1,80,0,1
83468,-83.3333333333333,4,2,1,80,0,1
83794,-71.4285714285714,4,2,1,80,0,1
83950,-100,4,2,1,80,0,1
88523,-100,4,1,1,50,0,1
88930,-100,4,1,1,50,0,0
89012,-100,4,2,1,80,0,1
99447,-100,4,2,1,70,0,0
116403,-100,4,1,1,70,0,0
116485,-100,4,2,1,70,0,0
118767,-100,4,2,2,70,0,0
118930,-100,4,2,1,70,0,0
120561,-100,4,2,2,70,0,0
120724,-100,4,2,1,70,0,0
131077,-100,4,1,1,50,0,0
132055,-100,4,2,1,80,0,1
142164,-100,4,1,1,50,0,1
142409,-100,4,1,1,50,0,0
142490,-100,4,2,1,80,0,1
152925,-100,4,2,1,70,0,0
153577,-100,4,2,1,60,0,0
154229,-100,4,2,1,50,0,0
154881,-100,4,2,1,40,0,0
155534,-100,4,2,1,30,0,0
158142,-100,4,1,1,60,0,0
198577,-100,4,1,1,5,0,0
198740,-100,4,1,1,60,0,0
199881,-100,4,2,1,90,0,1
209664,-100,4,1,1,60,0,1
210235,-100,4,1,1,60,0,0
210316,-100,4,2,1,80,0,1
218305,-100,4,1,1,70,0,1
218631,-100,4,2,1,70,0,1
220751,-100,4,2,1,60,0,0

[Colours]
Combo1 : 255,157,111
Combo2 : 242,206,83
Combo3 : 241,14,162
Combo4 : 217,70,0

[HitObjects]
256,192,22490,12,4,23794,0:0:0
392,192,24121,6,0,B|329:270,1,100,8|0,0:0|0:0,0:0:0
256,336,24447,1,0,0:0:0
182,270,24610,2,0,B|120:192,1,100,0|8,0:0|0:0,0:0:0
88,96,24936,1,0,0:0:0
188,120,25099,2,0,B|256:192|256:192|328:120,1,200,0|8,0:0|0:0,0:0:0
424,96,25588,1,0,0:0:0
468,188,25751,2,0,B|380:288|380:288|318:313,1,200,0|8,0:0|0:0,0:0:0
256,236,26240,1,0,0:0:0
193,313,26403,2,0,B|132:288|132:288|44:188,1,200,4|8,0:0|0:0,0:0:0
44,188,26892,1,0,0:0:0
116,120,27055,2,0,B|184:196,1,100
192,60,27381,2,0,B|260:136,1,100,8|0,0:0|0:0,0:0:0
336,72,27707,2,0,B|378:138|346:222|281:232,1,200,0|8,0:0|0:0,0:0:0
228,316,28197,1,0,0:0:0
140,364,28360,2,0,B|96:332|44:344|44:344|44:296|4:256,1,200,0|8,0:0|0:0,0:0:0
108,152,28849,1,8,0:0:0
256,108,29012,1,4,0:0:0
256,108,29338,2,0,B|320:108|320:108|396:88|396:88|453:88,1,200
508,172,29827,2,0,B|408:172,1,100
340,236,30153,1,0,0:0:0
348,336,30316,2,0,B|292:340|256:292,1,100
184,360,30642,2,0,B|128:336|123:277,1,100
24,248,30968,2,0,B|60:180|148:180|199:214,1,200
256,296,31457,1,0,0:0:0
488,248,31621,2,0,B|452:180|364:180|312:214,1,200
256,296,32110,1,0,0:0:0
200,215,32273,2,0,B|184:111,1,100
312,215,32599,2,0,B|328:111,1,100
164,308,32925,2,0,B|128:276|128:276|116:220,1,100
348,308,33251,2,0,B|384:276|384:276|396:220,1,100
408,124,33577,1,8,0:0:0
372,108,33659,1,0,0:0:0
336,96,33740,1,0,0:0:0
296,88,33822,1,0,0:0:0
256,84,33903,1,8,0:0:0
216,88,33985,1,0,0:0:0
176,96,34066,1,0,0:0:0
140,108,34148,1,0,0:0:0
104,124,34229,1,4,0:0:0
28,264,34555,2,0,B|80:352|200:344,1,200
256,264,35044,1,0,0:0:0
312,344,35207,2,0,B|432:352|484:264,1,200
488,164,35697,1,0,0:0:0
408,228,35860,2,0,B|376:272|320:260,1,100
336,160,36186,1,0,0:0:0
256,100,36349,1,0,0:0:0
176,160,36512,1,0,0:0:0
192,260,36675,2,0,B|136:272|104:228,1,100
176,160,37001,1,0,0:0:0
256,100,37164,2,0,B|336:160|412:232,1,200
256,244,37653,1,0,0:0:0
448,308,37816,2,0,B|384:324|336:272|336:272|320:316|284:320,1,200
188,296,38305,2,0,B|160:244|192:196,1,100
256,128,38631,1,0,0:0:0
324,88,38794,2,0,B|352:140|320:188,1,100
420,212,39120,1,8,0:0:0
448,308,39284,1,8,0:0:0
340,356,39447,2,0,B|320:305|344:261|344:261|320:208|348:156,1,200,4|0,0:0|0:0,0:0:0
256,128,39936,1,0,0:0:0
167,162,40099,2,0,B|192:208|167:261|167:261|191:305|172:356,1,200,0|0,0:0|0:0,0:0:0
80,312,40588,2,0,B|-28:312,1,100
80,212,40914,2,0,B|188:212,1,100
184,112,41240,2,0,B|256:128|272:200|272:200|333:228,1,200
428,264,41729,1,0,0:0:0
448,164,41892,1,0,0:0:0
320,320,42055,2,0,B|228:280,1,100
136,316,42381,2,0,B|44:276,1,100
44,176,42707,2,0,B|148:220|148:220|188:184|225:184,1,200
256,280,43197,1,0,0:0:0
468,176,43360,2,0,B|364:220|364:220|324:184|286:184,1,200
256,280,43849,1,0,0:0:0
348,72,44175,1,0,0:0:0
392,296,44338,1,0,0:0:0
220,140,44501,1,0,0:0:0
468,176,44664,1,0,0:0:0
256,192,44827,12,4,47273,0:0:0
124,136,47599,6,0,B|172:116|221:135,1,100
388,244,47925,2,0,B|340:264|290:244,1,100
336,156,48251,1,0,0:0:0
176,228,48414,1,0,0:0:0
212,320,48577,2,0,B|160:320|160:320|136:312|116:292,1,100
48,364,48903,2,0,B|11:327|11:327|0:304|0:280,1,100
40,188,49229,2,0,B|76:92,1,100
75,94,49474,1,0,0:0:0
74,94,49555,2,0,B|136:82|204:156|176:228,1,200
256,288,50044,1,0,0:0:0
336,228,50207,2,0,B|308:156|375:82|437:94,1,200
432,196,50697,1,0,0:0:0
312,32,50860,2,0,B|264:52|248:105,1,100
200,192,51186,1,0,0:0:0
104,352,51349,2,0,B|152:332|167:278,1,100
72,252,51675,1,0,0:0:0
72,252,51756,1,0,0:0:0
72,252,51838,2,0,B|79:187|176:152|228:212,1,200
256,312,52327,1,0,0:0:0
440,252,52490,2,0,B|432:187|336:152|283:212,1,200
256,72,52979,1,0,0:0:0
156,84,53142,2,0,B|156:136|207:164,1,100
164,256,53468,2,0,B|200:292|257:276,1,100
296,368,53794,2,0,B|409:368|440:254,1,200
360,196,54284,1,0,0:0:0
440,129,54447,2,0,B|409:15|296:16,1,200
328,112,54936,1,0,0:0:0
280,120,55017,1,0,0:0:0
240,148,55099,2,0,B|200:164|192:200|152:212,1,100
116,120,55425,2,0,B|50:147|46:247|97:290,1,200
168,360,55914,1,0,0:0:0
268,360,56077,2,0,B|320:376|368:360,1,100
420,276,56403,2,0,B|368:260|320:276,1,100
216,260,56729,1,0,0:0:0
136,76,56892,1,0,0:0:0
256,80,57055,1,0,0:0:0
104,192,57218,1,0,0:0:0
304,176,57381,1,0,0:0:0
204,160,57544,1,0,0:0:0
204,160,57626,1,0,0:0:0
204,160,57707,1,0,0:0:0
400,200,58034,2,0,B|352:276|268:260|268:260|256:302,1,200
168,348,58523,2,0,B|162:312|162:312|180:248,1,100
80,244,58849,1,0,0:0:0
92,196,58930,1,0,0:0:0
132,168,59012,2,0,B|153:138|153:138|211:105,1,100
256,196,59338,1,0,0:0:0
380,168,59501,2,0,B|358:138|358:138|300:105,1,100
256,196,59827,1,0,0:0:0
256,196,59990,1,0,0:0:0
256,196,60153,1,0,0:0:0
329,267,60316,2,0,B|300:316|256:332|256:332|212:316|184:264,1,200
184,264,60805,1,0,0:0:0
256,96,60968,2,0,B|256:200,1,100
330,266,61294,1,0,0:0:0
412,212,61457,2,0,B|448:144|448:144|380:116|368:44,2,200
424,312,62273,1,0,0:0:0
424,312,62354,1,0,0:0:0
424,312,62436,2,0,B|344:372,1,100,0|8,0:0|0:0,0:0:0
330,266,62762,2,0,B|224:292,2,100,8|4|0,0:0|0:0|0:0,0:0:0
220,200,63251,2,0,B|172:204|136:244|124:304|159:354,1,200
233,290,63740,1,0,0:0:0
331,266,63903,1,0,0:0:0
320,168,64066,2,0,B|308:112|256:97,1,100
220,200,64392,2,0,B|232:256|283:270,1,100
372,320,64718,1,0,0:0:0
440,244,64881,1,0,0:0:0
396,152,65044,1,0,0:0:0
296,172,65207,1,8,0:0:0
284,272,65370,1,8,0:0:0
292,372,65534,2,0,B|216:372|192:308|192:308|116:308,1,200
24,276,66023,1,0,0:0:0
104,216,66186,2,0,B|208:216|208:216|256:228|282:272,1,200
404,280,66675,1,0,0:0:0
348,196,66838,1,0,0:0:0
324,164,66919,1,0,0:0:0
288,148,67001,1,0,0:0:0
184,92,67164,1,0,0:0:0
144,84,67245,1,0,0:0:0
104,92,67327,1,0,0:0:0
72,116,67409,1,0,0:0:0
48,148,67490,1,0,0:0:0
40,188,67572,1,0,0:0:0
44,228,67653,1,0,0:0:0
60,264,67735,1,0,0:0:0
88,292,67816,2,0,B|128:340,1,50
172,304,67979,2,0,B|208:337,1,50
256,324,68142,1,4,0:0:0
256,272,77273,5,0,0:0:0
256,112,77436,1,0,0:0:0
204,192,77599,1,0,0:0:0
256,200,77680,1,0,0:0:0
304,192,77762,1,0,0:0:0
364,112,77925,1,0,0:0:0
400,132,78006,1,0,0:0:0
424,164,78088,1,0,0:0:0
440,200,78169,1,0,0:0:0
452,240,78251,1,0,0:0:0
456,280,78332,1,0,0:0:0
452,320,78414,1,0,0:0:0
444,360,78495,1,0,0:0:0
392,364,78577,6,0,B|344:332|344:332|296:332|260:308|260:308|204:308,1,200
116,264,79066,1,0,0:0:0
116,264,79148,1,0,0:0:0
156,236,79229,2,0,B|260:236,1,100
356,148,79555,2,0,B|252:148,1,100
216,56,79881,1,0,0:0:0
256,148,80044,1,0,0:0:0
116,72,80207,2,0,B|64:164|114:263,1,200
200,316,80697,1,0,0:0:0
256,236,80860,1,0,0:0:0
312,316,81023,1,0,0:0:0
397,263,81186,2,0,B|448:164|396:72,1,200
309,125,81675,2,0,B|340:168|312:220,1,100
256,304,82001,1,0,0:0:0
200,220,82164,2,0,B|172:168|204:124,1,100
256,40,82490,2,0,B|192:20|136:56|136:56|56:56,1,200
24,148,82979,1,0,0:0:0
24,148,83142,2,0,B|128:148,1,100
24,228,83468,2,0,B|156:228,1,119.999996337891
16,308,83794,2,0,B|164:308,1,139.999995727539,4|0,0:0|0:0,0:0:0
192,308,84039,1,0,0:0:0
224,308,84120,2,0,B|332:308|398:223,1,200
316,164,84610,1,0,0:0:0
288,76,84773,2,0,B|180:76|113:160,1,200
48,232,85262,2,0,B|28:280|48:332,1,100
136,284,85588,1,0,0:0:0
220,332,85751,2,0,B|240:284|220:232,1,100
288,164,86077,1,0,0:0:0
472,112,86240,2,0,B|372:112,1,100,0|4,0:0|0:0,0:0:0
288,164,86566,1,0,0:0:0
192,132,86729,2,0,B|152:200|208:280|281:260,1,200
368,216,87218,1,0,0:0:0
456,264,87381,2,0,B|476:160|476:160|452:64,1,200
356,56,87870,2,0,B|381:152,1,100
156,328,88197,2,0,B|130:231,1,100
224,196,88523,2,0,B|256:156,1,50
288,188,88686,2,0,B|256:228,1,50
184,156,88849,2,0,B|216:116,1,50
340,216,89012,2,0,B|212:376,1,200
140,308,89501,2,0,B|202:229,1,100
372,76,89827,2,0,B|309:154,1,100
328,252,90153,1,0,0:0:0
332,352,90316,2,0,B|276:352|246:307,1,100
160,360,90642,2,0,B|120:320|130:268,1,100
36,244,90968,2,0,B|36:187|80:158,1,100
156,96,91294,2,0,B|368:96,2,200
80,160,92110,1,0,0:0:0
152,232,92273,2,0,B|196:256|196:256|220:308,1,100
360,232,92599,2,0,B|316:256|316:256|292:308,1,100
295,301,92925,1,0,0:0:0
376,360,93088,1,0,0:0:0
136,360,93251,1,0,0:0:0
217,301,93414,1,0,0:0:0
220,200,93577,2,0,B|188:156|133:159,1,100
292,200,93903,2,0,B|324:156|378:159,1,100
348,64,94229,2,0,B|300:64|256:100|256:100|208:64|160:64,2,200
380,160,95044,1,0,0:0:0
220,200,95207,1,0,0:0:0
292,200,95370,1,0,0:0:0
132,160,95534,1,0,0:0:0
168,288,95697,2,0,B|255:337,1,100
342,288,96023,2,0,B|254:337,1,100
80,264,96349,2,0,B|104:216|152:200,1,100
432,264,96675,2,0,B|408:216|360:200,1,100
332,104,97001,2,0,B|332:144|360:160|359:198,1,100
152,198,97327,2,0,B|152:160|180:144|180:104,1,100
256,40,97653,1,0,0:0:0
332,104,97816,1,0,0:0:0
180,104,97979,1,0,0:0:0
256,168,98142,1,0,0:0:0
256,268,98305,1,0,0:0:0
256,216,98387,1,0,0:0:0
256,168,98468,1,0,0:0:0
164,144,98631,1,0,0:0:0
180,104,98713,1,0,0:0:0
204,72,98794,1,0,0:0:0
232,44,98876,1,0,0:0:0
260,16,98957,1,0,0:0:0
280,44,99039,1,0,0:0:0
308,72,99120,1,0,0:0:0
332,104,99202,1,0,0:0:0
348,144,99284,1,0,0:0:0
296,336,99610,1,0,0:0:0
192,312,99773,1,0,0:0:0
128,236,99936,1,0,0:0:0
192,312,100099,2,0,B|184:276,4,25
296,336,100425,1,0,0:0:0
296,336,100751,1,4,0:0:0
440,200,101077,2,0,B|384:244|384:244|348:300|348:300|296:336,1,200
256,244,101566,1,0,0:0:0
296,336,101729,1,0,0:0:0
215,335,101892,2,0,B|164:300|164:300|128:244|128:244|72:200,1,200
108,108,102381,2,0,B|182:174,1,100
256,244,102707,1,0,0:0:0
329,174,102870,2,0,B|404:108,1,100
404,108,103197,1,0,0:0:0
332,36,103360,2,0,B|256:100|256:100|176:36,1,200
108,108,103849,1,0,0:0:0
56,192,104012,1,0,0:0:0
52,292,104175,2,0,B|108:292|138:249,1,100
236,272,104501,2,0,B|275:232|267:181,1,100
256,80,104827,1,0,0:0:0
340,132,104990,2,0,B|372:240|310:322,1,200
256,240,105479,1,0,0:0:0
201,322,105642,2,0,B|140:240|172:132,1,200
76,104,106131,2,0,B|52:148|55:200,1,100
156,212,106457,1,0,0:0:0
256,240,106620,1,0,0:0:0
356,212,106784,1,0,0:0:0
456,200,106947,2,0,B|460:148|436:104,1,100
356,164,107273,2,0,B|308:164|256:172|256:172|212:160|157:160,1,200
72,212,107762,1,0,0:0:0
156,264,107925,2,0,B|208:264|254:279,1,100
256,380,108251,1,0,0:0:0
255,279,108414,2,0,B|301:263|353:263,1,100
440,212,108740,1,0,0:0:0
464,116,108903,2,0,B|404:112|372:144|372:144|320:124|273:143,1,200
196,204,109392,1,0,0:0:0
48,324,109555,2,0,B|108:328|140:296|140:296|192:316|238:296,1,200
