osu file format v10

[General]
AudioFilename: Kawada_Mami.mp3
AudioLeadIn: 0
PreviewTime: 78570
Countdown: 0
SampleSet: Soft
StackLeniency: 0.7
Mode: 0
LetterboxInBreaks: 1

[Editor]
DistanceSpacing: 1
BeatDivisor: 4
GridSize: 4

[Metadata]
Title:u/n
TitleUnicode:u/n
Artist:Kawada Mami
ArtistUnicode:Kawada Mami
Creator:Lizellota
Version:Normal
Source:Shakugan no Shana III (Final)
Tags:insert song hichman Naryuga
BeatmapID:175791
BeatmapSetID:58489

[Difficulty]
HPDrainRate:3
CircleSize:3
OverallDifficulty:3
ApproachRate:4
SliderMultiplier:1
SliderTickRate:2

[Events]
//Background and Video events
0,0,"BG.jpg"
//Break Periods
2,68342,74648
2,100951,109866
2,121820,128127
2,158124,162040
2,179212,190735
//Storyboard Layer 0 (Background)
//Storyboard Layer 1 (Fail)
//Storyboard Layer 2 (Pass)
//Storyboard Layer 3 (Foreground)
//Storyboard Sound Samples
//Background Colour Transformations
3,100,255,255,255

[TimingPoints]
1621,326.086956521739,4,2,1,70,1,0
44990,-100,4,2,1,30,0,0
47273,-100,4,2,1,70,0,0
62762,-100,4,2,2,50,0,0
63006,-100,4,2,1,70,0,0
66756,-100,4,2,2,70,0,0
66919,-100,4,2,1,70,0,0
67653,-100,4,2,2,50,0,0
68061,-100,4,2,1,70,0,0
78577,-100,4,2,1,80,0,1
88523,-100,4,1,1,50,0,1
88930,-100,4,1,1,50,0,0
89012,-100,4,2,1,80,0,1
89582,-100,4,2,2,80,0,1
89745,-100,4,2,1,80,0,1
90235,-100,4,2,2,80,0,1
90398,-100,4,2,1,80,0,1
91213,-100,4,2,2,80,0,1
91380,-100,4,2,1,80,0,1
91865,-100,4,2,2,80,0,1
92028,-100,4,2,1,80,0,1
97409,-100,4,2,2,80,0,1
97572,-100,4,2,1,80,0,1
98061,-100,4,2,2,80,0,1
98224,-100,4,2,1,80,0,1
99447,-100,4,2,1,70,0,0
120235,-100,4,2,2,50,0,0
120398,-100,4,2,1,70,0,0
132055,-100,4,2,1,80,0,1
134909,-100,4,2,2,80,0,1
135072,-100,4,2,1,80,0,1
136213,-100,4,2,2,80,0,1
136376,-100,4,2,1,80,0,1
137517,-100,4,2,2,80,0,1
137680,-100,4,2,1,80,0,1
141756,-100,4,2,2,60,0,1
141919,-100,4,2,1,80,0,1
142164,-100,4,1,1,50,0,1
142409,-100,4,1,1,50,0,0
142490,-100,4,2,1,80,0,1
145669,-100,4,2,2,80,0,1
145832,-100,4,2,1,80,0,1
146322,-100,4,2,2,80,0,1
146485,-100,4,2,1,80,0,1
150561,-100,4,2,2,80,0,1
150724,-100,4,2,1,80,0,1
151865,-100,4,2,2,80,0,1
152028,-100,4,2,1,80,0,1
152925,-100,4,2,1,70,0,0
153577,-100,4,2,1,60,0,0
154229,-100,4,2,1,50,0,0
154881,-100,4,2,1,40,0,0
155534,-100,4,2,1,30,0,0
163360,-100,4,1,1,60,0,0
173957,-100,4,2,1,60,0,0
175343,-100,4,2,2,60,0,0
175506,-100,4,2,1,60,0,0
175995,-100,4,2,2,60,0,0
176159,-100,4,2,1,60,0,0
177300,-100,4,2,2,60,0,0
177463,-100,4,2,1,60,0,0
199881,-100,4,2,1,80,0,1
204039,-100,4,2,2,80,0,1
204202,-100,4,2,1,80,0,1
204691,-100,4,2,2,80,0,1
205017,-100,4,2,1,80,0,1
205995,-100,4,2,2,80,0,1
206159,-100,4,2,1,80,0,1
209664,-100,4,2,2,60,0,1
209990,-100,4,1,1,60,0,1
210235,-100,4,1,1,60,0,0
210316,-100,4,2,1,80,0,1
215778,-100,4,2,2,80,0,1
215941,-100,4,2,1,80,0,1
216430,-100,4,2,2,80,0,1
216593,-100,4,2,1,80,0,1
218305,-100,4,1,1,70,0,1
218631,-100,4,2,1,80,0,1
219691,-100,4,2,2,80,0,1
220180,-100,4,2,1,80,0,1
220751,-100,4,2,1,60,0,0

[Colours]
Combo1 : 255,157,111
Combo2 : 242,206,83
Combo3 : 241,14,162
Combo4 : 217,70,0

[HitObjects]
256,192,22490,12,4,23794,0:0:0
256,80,24773,5,8,0:0:0
340,28,25099,2,0,B|368:76|340:128,1,100,0|8,0:0|0:0,0:0:0
256,176,25751,2,0,B|256:280,1,100,0|8,0:0|0:0,0:0:0
156,272,26403,1,4,0:0:0
92,196,26729,6,0,B|52:228|52:296|80:344|80:344|24:344,2,200,8|8|8,0:0|0:0|0:0,0:0:0
160,120,28360,1,0,0:0:0
256,100,28686,1,8,0:0:0
228,192,29012,1,4,0:0:0
228,192,29338,6,8,B|268:224|268:292|240:340|240:340|296:340,1,200
472,276,30642,2,8,B|472:212|420:176|364:176|324:212,1,200
256,280,31621,1,4,0:0:0
168,228,31947,6,8,B|104:228|68:176|68:120|100:80,1,200
176,136,32925,2,0,B|229:135|261:179,1,100,8|8,0:0|0:0,0:0:0
256,280,33577,1,8,0:0:0
168,228,33903,1,8,0:0:0
120,320,34229,1,4,0:0:0
64,236,34555,1,8,0:0:0
232,348,35207,6,8,B|320:348|320:348|380:348|424:304,1,200
336,256,36186,1,0,0:0:0
432,236,36512,2,8,B|432:172|380:136|324:136|284:172,1,200
80,236,37816,2,8,B|80:172|132:136|188:136|228:172,1,200
324,176,38794,1,0,0:0:0
388,244,39120,2,0,B|440:244,2,50,8|8|4,0:0|0:0|0:0,0:0:0
324,324,39773,6,0,B|220:324,1,100,8|0,0:0|0:0,0:0:0
124,328,40425,1,8,0:0:0
176,136,41077,2,0,B|280:136,1,100,8|0,0:0|0:0,0:0:0
372,156,41729,2,0,B|380:128|368:100,2,50,8|8|4,0:0|0:0|0:0,0:0:0
440,232,42381,6,8,B|456:296|380:296|324:336|296:272,1,200
72,232,43686,6,8,B|56:296|132:296|188:336|214:274,1,200
256,244,44501,2,0,B|256:192,1,50,8|4,0:0|0:0,0:0:0
256,192,44990,12,4,47273,0:0:0
256,192,48251,6,8,B|308:152|404:152|404:152|364:116,1,200
256,191,49555,2,8,B|204:152|108:151|108:151|148:115,1,200
228,72,50534,5,0,0:0:0
140,24,50860,2,8,B|68:24|0:64|0:160,1,200
56,224,51838,2,0,B|32:272|56:324,2,100,0|8|4,0:0|0:0|0:0,0:0:0
148,268,52816,6,8,B|204:268|236:232|236:232|268:268|328:268,1,200
328,168,53794,1,0,0:0:0
328,68,54120,2,8,B|272:68|240:104|240:104|208:68|148:68,1,200
144,168,55099,1,4,0:0:0
72,100,55425,6,8,B|36:136|24:188|44:240|105:262,1,200
304,262,56729,2,8,B|361:243|385:187|373:135|337:99,1,200
300,68,57544,2,0,B|276:44|252:36,1,50,8|4,0:0|0:0,0:0:0
224,132,58034,6,8,B|104:300,1,200
305,262,59338,2,8,B|425:94,1,200
452,60,60153,2,0,B|484:52|512:64,1,50,8|4,0:0|0:0,0:0:0
488,160,60642,6,8,B|488:264|404:336,1,200
256,200,61947,1,8,0:0:0
106,334,62599,2,8,B|24:264|24:160,1,200
196,60,63903,6,8,B|248:72|256:132|256:132|264:72|316:60,2,200
164,96,65370,2,0,B|128:104|116:132,1,50,8|4,0:0|0:0,0:0:0
176,190,65860,6,8,B|190:240|254:264|318:240|331:191,2,200
256,128,67490,2,0,B|256:336,1,200,8|4,0:0|0:0,0:0:0
256,192,75968,12,4,78577,0:0:0
256,100,79229,5,0,0:0:0
164,144,79555,1,8,0:0:0
204,236,79881,1,0,0:0:0
296,192,80207,2,8,B|496:192,2,200
256,100,81838,1,0,0:0:0
216,192,82164,6,8,B|216:264|284:288|344:280|372:224,1,200
204,116,83468,2,8,B|204:44|136:20|76:28|48:84,1,200
44,168,84447,1,0,0:0:0
24,268,84773,2,0,B|72:268|120:240,2,100,8|0|8,0:0|0:0|0:0,0:0:0
8,368,85751,1,0,0:0:0
120,356,86077,6,8,B|220:300|208:188,1,200
256,100,87055,1,0,0:0:0
304,192,87381,2,8,B|293:302|393:358,1,200
448,272,88360,2,0,B|400:248|400:188,1,100,8|0,0:0|0:0,0:0:0
303,192,89012,5,4,0:0:0
256,100,89338,2,8,B|160:68|56:96,2,200
204,184,90968,2,8,B|300:216|404:188,2,200,8|4|8,0:0|0:0|0:0,0:0:0
104,192,92599,1,8,0:0:0
4,172,92925,6,8,B|4:228|48:276,1,100,4|8,0:0|0:0,0:0:0
136,284,93577,2,8,B|136:228|92:180,1,100
72,96,94229,1,4,0:0:0
168,128,94555,6,8,B|240:212,2,100
272,112,95534,1,8,0:0:0
272,112,95860,2,8,B|200:28,2,100
168,128,96838,1,4,0:0:0
96,60,97164,2,0,B|20:84|20:84|48:168|4:212,2,200,8|8|8,0:0|0:0|0:0,0:0:0
168,128,98794,1,8,0:0:0
256,192,99120,12,4,100751,0:0:0
256,80,111186,6,0,B|184:152,1,100,4|8,0:0|0:0,0:0:0
256,220,111838,1,0,0:0:0
326,150,112164,2,0,B|256:80,1,100,8|0,0:0|0:0,0:0:0
160,56,112816,2,8,B|44:56|-4:164,1,200
72,224,113794,5,4,0:0:0
167,249,114120,2,8,B|283:249|331:141,1,200
248,88,115099,2,0,B|281:47|336:48,1,100,0|8,0:0|0:0,0:0:0
424,96,115751,1,0,0:0:0
368,179,116077,2,0,B|324:147,2,50,8|8|4,0:0|0:0|0:0,0:0:0
356,280,116729,6,8,B|288:280|288:280|224:292|224:292|156:292,2,200
440,332,118360,2,0,B|468:284|440:232,1,100,0|8,0:0|0:0,0:0:0
424,192,118849,2,0,B|412:160|420:132,1,50,8|4,0:0|0:0,0:0:0
412,44,119338,6,8,B|364:40|312:64|292:128|320:184,2,200
412,140,120968,2,0,B|436:184|414:238,2,100,8|8|4,0:0|0:0|0:0,0:0:0
256,192,129447,12,4,132055,0:0:0
96,196,133034,6,0,B|112:240|112:240|144:228|172:240,1,100,8|0,0:0|0:0,0:0:0
256,276,133686,1,8,0:0:0
348,236,134012,2,0,B|368:226|400:238|400:238|416:194,1,100,0|8,0:0|0:0,0:0:0
340,132,134664,6,0,B|360:80|416:60|484:80|492:160,1,200,4|0,0:0|0:0,0:0:0
492,240,135642,1,8,0:0:0
400,204,135968,2,0,B|350:245|347:290|347:290|301:286|255:324,1,200
256,220,136947,1,8,0:0:0
258,321,137273,6,0,B|214:284|169:288|169:288|165:243|116:202,1,200,4|0,0:0|0:0,0:0:0
204,152,138251,1,8,0:0:0
220,52,138577,1,0,0:0:0
132,100,138903,6,8,B|72:100|36:128|8:176|24:240,2,200,8|8|8,0:0|0:0|0:0,0:0:0
220,52,140534,1,0,0:0:0
204,152,140860,2,8,B|268:152|304:116|328:76|312:12,2,200,8|8|0,0:0|0:0|0:0,0:0:0
152,236,142490,5,4,0:0:0
180,332,142816,2,8,B|236:316|244:256,1,100
336,228,143468,1,8,0:0:0
436,232,143794,2,8,B|436:176|392:148,1,100
336,228,144447,1,8,0:0:0
284,148,144773,6,8,B|236:177|236:237,1,100,8|4,0:0|0:0,0:0:0
176,312,145425,2,8,B|60:312|60:312|80:260|48:216,2,200
144,216,147055,2,8,B|132:160|80:148,2,100,8|8|4,0:0|0:0|0:0,0:0:0
176,312,148034,5,8,0:0:0
256,252,148360,2,8,B|256:152,1,100
356,148,149012,1,8,0:0:0
360,248,149338,2,0,B|416:236|448:192,2,100,8|8|8,0:0|0:0|0:0,0:0:0
400,340,150316,6,8,B|336:376|252:332|256:256,1,200,4|8,0:0|0:0,0:0:0
256,160,151294,1,8,0:0:0
256,260,151620,2,8,B|260:333|176:377|112:341,1,200,4|8,0:0|0:0,0:0:0
160,252,152599,1,8,0:0:0
256,192,152925,12,4,155534,0:0:0
256,92,163360,6,0,B|328:92|372:112|372:112|412:96|456:112,1,200,4|8,0:0|0:0,0:0:0
420,204,164338,1,0,0:0:0
340,264,164664,2,0,B|340:348|256:376|192:328,1,200,0|8,0:0|0:0,0:0:0
156,240,165642,1,0,0:0:0
257,228,165968,6,0,B|257:148|161:116|109:152,1,200,4|8,0:0|0:0,0:0:0
32,84,166947,1,0,0:0:0
110,152,167273,2,0,B|146:108|134:56,2,100,0|0|8,0:0|0:0|0:0,0:0:0
204,196,168251,5,0,0:0:0
252,188,168414,1,0,0:0:0
300,172,168577,2,0,B|384:172|400:112|492:112,1,200,4|8,0:0|0:0,0:0:0
468,212,169555,1,0,0:0:0
412,296,169881,6,0,B|304:296,1,100
212,296,170534,1,8,0:0:0
204,196,170860,1,0,0:0:0
204,196,171186,6,0,B|88:196|36:104,1,200,4|8,0:0|0:0,0:0:0
236,76,172490,2,0,B|352:76|404:168,1,200,0|8,0:0|0:0,0:0:0
256,192,173794,5,4,0:0:0
256,292,174120,2,0,B|196:292|168:244,1,100,8|0,0:0|0:0,0:0:0
172,148,174773,1,8,0:0:0
92,84,175099,2,0,B|40:144|88:224|88:224|48:216|24:240,2,200
224,48,176729,5,8,0:0:0
224,48,176892,2,0,B|428:48,1,200,0|0,0:0|0:0,0:0:0
496,180,178034,2,0,B|288:180,1,200,8|8,0:0|0:0,0:0:0
248,180,178849,1,8,0:0:0
200,180,179012,1,4,0:0:0
256,192,192055,12,4,194664,0:0:0
256,188,195316,5,8,0:0:0
208,272,195642,2,0,B|256:296|308:272,1,100,0|0,0:0|0:0,0:0:0
256,188,196294,2,0,B|256:80,2,100,0|8|0,0:0|0:0|0:0,0:0:0
256,192,197273,12,4,199881,0:0:0
112,156,200860,6,8,B|112:104|156:72|156:72|200:104|200:164,2,200
156,248,202490,1,4,0:0:0
200,160,202816,2,8,B|300:160|392:88,1,200
428,68,203631,1,0,0:0:0
460,108,203794,2,0,B|480:184|428:232|428:232|460:304,2,200,0|0|4,0:0|0:0|0:0,0:0:0
364,140,205425,5,8,0:0:0
364,40,205751,2,0,B|284:40|244:108|272:180,1,200
348,240,206729,1,8,0:0:0
260,280,207055,2,0,B|208:260|152:280,2,100,0|8|4,0:0|0:0|0:0,0:0:0
256,376,208034,6,8,B|308:396|360:376,2,100,8|0|8,0:0|0:0|0:0,0:0:0
156,368,209012,1,4,0:0:0
60,344,209338,2,0,B|60:288|60:288|84:216|84:216|84:147,1,200,8|0,0:0|0:0,0:0:0
28,64,210316,5,4,0:0:0
128,37,210642,2,8,B|210:44|213:136|213:136|255:171,1,200
256,272,211620,1,0,0:0:0
255,171,211947,2,8,B|297:136|297:136|300:44|388:36,1,200
404,136,212925,5,4,0:0:0
492,184,213251,2,8,B|544:276|492:376,2,200
404,136,214881,2,0,B|300:136,1,100,0|8,0:0|0:0,0:0:0
220,188,215534,6,0,B|168:280|220:380,2,200,4|0|0,0:0|0:0|0:0,0:0:0
256,96,217164,1,8,0:0:0
188,24,217490,1,0,0:0:0
160,120,217816,2,0,B|112:100|60:120,1,100,8|4,0:0|0:0,0:0:0
60,168,218305,1,0,0:0:0
60,216,218468,2,0,B|108:236|160:216,1,100,0|0,0:0|0:0,0:0:0
248,168,219120,5,8,0:0:0
324,104,219447,2,0,B|396:68|468:104,2,150,0|0|8,0:0|0:0|0:0,0:0:0
248,168,220751,1,4,0:0:0
