osu file format v10

[General]
AudioFilename: Kawada_Mami.mp3
AudioLeadIn: 0
PreviewTime: 78570
Countdown: 0
SampleSet: Normal
StackLeniency: 0.7
Mode: 0
LetterboxInBreaks: 1

[Editor]
DistanceSpacing: 1
BeatDivisor: 4
GridSize: 4

[Metadata]
Title:u/n
TitleUnicode:u/n
Artist:Kawada Mami
ArtistUnicode:Kawada Mami
Creator:Lizellota
Version:Hard
Source:Shakugan no Shana III (Final)
Tags:insert song hichman Naryuga
BeatmapID:175789
BeatmapSetID:58489

[Difficulty]
HPDrainRate:5
CircleSize:4
OverallDifficulty:6
ApproachRate:7
SliderMultiplier:1.6
SliderTickRate:2

[Events]
//Background and Video events
0,0,"BG.jpg"
//Break Periods
2,68342,76699
2,121820,130177
2,158128,162134
2,173994,177949
2,184429,192378
//Storyboard Layer 0 (Background)
//Storyboard Layer 1 (Fail)
//Storyboard Layer 2 (Pass)
//Storyboard Layer 3 (Foreground)
//Storyboard Sound Samples
//Background Colour Transformations
3,100,255,255,255

[TimingPoints]
1621,326.086956521739,4,2,1,70,1,0
44258,-100,4,2,2,50,0,0
44421,-100,4,2,1,70,0,0
44666,-100,4,2,1,5,0,0
47275,-100,4,2,1,70,0,0
77601,-100,4,1,1,50,0,0
78579,-100,4,2,1,80,0,1
88525,-100,4,1,1,50,0,1
88932,-100,4,1,1,50,0,0
89014,-100,4,2,1,80,0,1
99449,-100,4,2,1,70,0,0
131079,-100,4,1,1,50,0,0
132057,-100,4,2,1,80,0,1
142166,-100,4,1,1,50,0,1
142411,-100,4,1,1,50,0,0
142492,-100,4,2,1,80,0,1
152927,-100,4,2,1,70,0,0
153579,-100,4,2,1,60,0,0
154231,-100,4,2,1,50,0,0
154883,-100,4,2,1,40,0,0
155536,-100,4,2,1,30,0,0
158144,-100,4,1,1,60,0,0
199883,-100,4,2,1,80,0,1
204856,-100,4,2,2,80,0,1
205019,-100,4,2,1,80,0,1
209666,-100,4,1,1,60,0,1
209747,-100,4,2,2,60,0,1
209992,-100,4,1,1,60,0,1
210237,-100,4,1,1,60,0,0
210318,-100,4,2,1,80,0,1
218307,-100,4,1,1,70,0,1
218633,-100,4,2,1,70,0,1
220753,-100,4,2,1,60,0,0

[Colours]
Combo1 : 255,157,111
Combo2 : 242,206,83
Combo3 : 241,14,162
Combo4 : 217,70,0

[HitObjects]
256,192,22490,12,4,23794,0:0:0
456,196,24121,6,0,B|456:244|432:284,1,80,8|0,0:0|0:0,0:0:0
360,284,24447,2,0,B|360:236|384:196,1,80
456,196,24773,1,8,0:0:0
364,68,25099,2,0,B|284:44|200:68,1,160,0|8,0:0|0:0,0:0:0
84,168,25751,2,0,B|160:192|248:168,1,160,0|8,0:0|0:0,0:0:0
364,68,26403,5,4,0:0:0
292,108,26566,2,0,B|252:132|236:184,1,80,0|8,0:0|0:0,0:0:0
176,316,27055,2,0,B|228:316|256:308|256:308|280:316|340:316,1,160,0|8,0:0|0:0,0:0:0
496,336,27707,2,0,B|520:276|488:220|420:220,1,160,0|8,0:0|0:0,0:0:0
440,140,28197,2,0,B|440:56,1,80,0|8,0:0|0:0,0:0:0
364,80,28523,2,0,B|300:16,1,80,0|8,0:0|0:0,0:0:0
332,180,29012,6,0,B|308:240|340:296|399:295,1,160,4|8,0:0|0:0,0:0:0
240,320,29664,2,0,B|188:328|152:292,1,80
116,240,29990,1,8,0:0:0
264,180,30316,2,0,B|200:128|112:112,1,160,0|8,0:0|0:0,0:0:0
24,240,30968,1,0,0:0:0
152,332,31294,1,8,0:0:0
148,172,31621,6,0,B|176:88|148:4,1,160,4|8,0:0|0:0,0:0:0
268,124,32273,2,0,B|240:208|268:292,1,160,0|8,0:0|0:0,0:0:0
312,348,32762,2,0,B|332:336|340:308,2,40,0|0|8,0:0|0:0|0:0,0:0:0
256,192,33088,12,4,34229,0:0:0
184,112,34555,6,4,B|228:112|256:140|256:140|284:112|332:112,1,160,8|0,0:0|0:0,0:0:0
320,192,35044,1,0,0:0:0
400,196,35207,2,0,B|400:248|356:292|284:264,1,160,8|0,0:0|0:0,0:0:0
128,260,35860,2,0,B|128:312|172:356|244:328,1,160,8|0,0:0|0:0,0:0:0
320,192,36512,1,8,0:0:0
436,304,36838,6,0,B|496:252|504:160,1,160,4|8,0:0|0:0,0:0:0
440,112,37327,1,0,0:0:0
388,52,37490,2,0,B|328:104|320:192,1,160,0|8,0:0|0:0,0:0:0
256,192,37979,12,4,39447,0:0:0
256,64,39773,6,0,B|184:64|184:160|256:160,1,160,8|0,0:0|0:0,0:0:0
256,320,40262,1,0,0:0:0
256,320,40425,2,0,B|328:320|328:224|256:224,1,160,8|0,0:0|0:0,0:0:0
196,276,40914,2,0,B|160:240|184:184,1,80,0|8,0:0|0:0,0:0:0
108,160,41240,1,0,0:0:0
316,276,41566,2,0,B|352:240|328:184,1,80,0|8,0:0|0:0,0:0:0
392,152,41892,1,0,0:0:0
392,152,42055,2,0,B|248:64,1,160,4|8,0:0|0:0,0:0:0
119,152,42707,2,0,B|263:64,1,160,0|8,0:0|0:0,0:0:0
228,236,43360,6,0,B|188:264|188:336|148:380,1,160,0|8,0:0|0:0,0:0:0
152,374,43849,1,0,0:0:0
359,374,44175,2,0,B|324:336|324:264|284:236,1,160,0|0,0:0|0:0,0:0:0
256,192,44664,12,4,47273,0:0:0
396,160,47599,6,0,B|452:216,1,80,8|0,0:0|0:0,0:0:0
500,280,47925,1,0,0:0:0
372,372,48251,2,0,B|428:316,1,80,8|0,0:0|0:0,0:0:0
500,280,48577,1,0,0:0:0
396,160,48903,2,0,B|288:128|288:128|240:156,1,160,8|0,0:0|0:0,0:0:0
200,304,49555,2,0,B|308:336|308:336|356:308,1,160,8|4,0:0|0:0,0:0:0
296,252,50044,2,0,B|364:212,2,80,0|8|0,0:0|0:0|0:0,0:0:0
280,172,50534,1,0,0:0:0
84,140,50860,6,0,B|156:112|208:152|208:224,2,160,8|0|8,0:0|0:0|0:0,0:0:0
88,300,51838,1,0,0:0:0
240,348,52164,1,8,0:0:0
88,300,52490,1,4,0:0:0
220,208,52816,6,0,B|284:164|284:164|368:160,1,160,8|0,0:0|0:0,0:0:0
432,204,53305,1,0,0:0:0
488,268,53468,2,0,B|432:308|376:268|376:268|340:296,2,160,8|0|8,0:0|0:0|0:0,0:0:0
432,120,54447,2,0,B|432:48|432:48|372:72|316:40,1,160,0|8,0:0|0:0,0:0:0
220,152,55099,6,0,B|220:224|220:224|280:200|336:232,1,160,4|8,0:0|0:0,0:0:0
306,380,55751,2,0,B|306:204,1,160,0|8,0:0|0:0,0:0:0
376,180,56240,1,0,0:0:0
460,148,56403,2,0,B|428:84|352:84|308:120,1,160,0|8,0:0|0:0,0:0:0
323,110,57055,1,0,0:0:0
376,180,57218,1,0,0:0:0
352,272,57381,1,8,0:0:0
312,344,57544,2,8,B|272:344,2,40,8|8|4,0:0|0:0|0:0,0:0:0
256,192,58034,6,0,B|200:192|156:176|92:176,1,160,8|0,0:0|0:0,0:0:0
52,108,58523,1,0,0:0:0
108,52,58686,2,0,B|164:52|204:68|272:68,2,160,8|0|8,0:0|0:0|0:0,0:0:0
213,171,59664,1,0,0:0:0
256,336,59990,1,8,0:0:0
256,336,60153,1,8,0:0:0
256,336,60316,1,4,0:0:0
312,232,60642,6,0,B|368:268|432:248|452:184,1,160,8|0,0:0|0:0,0:0:0
424,116,61131,1,0,0:0:0
348,136,61294,2,0,B|292:100|228:120|208:184,1,160,8|0,0:0|0:0,0:0:0
144,316,61947,2,0,B|84:316|72:260|72:260|4:260,2,160,8|0|8,0:0|0:0|0:0,0:0:0
228,320,62762,1,8,0:0:0
240,240,62925,2,0,B|300:240|312:296|312:296|380:296,2,160,4|8|0,0:0|0:0|0:0,0:0:0
140,116,63903,5,8,0:0:0
172,272,64229,1,0,0:0:0
336,272,64555,1,8,0:0:0
372,116,64881,1,0,0:0:0
256,192,65207,5,8,0:0:0
256,192,65370,1,8,0:0:0
256,192,65534,1,4,0:0:0
416,192,65860,6,0,B|416:252|456:272|456:356,1,160,8|0,0:0|0:0,0:0:0
376,328,66349,1,0,0:0:0
296,344,66512,2,0,B|295:270|335:250|335:190,1,160,8|8,0:0|0:0,0:0:0
335,190,66919,1,0,0:0:0
335,190,67001,1,0,0:0:0
248,168,67164,2,0,B|288:80|392:112,2,160,8|0|8,0:0|0:0|0:0,0:0:0
256,248,67979,2,0,B|216:292,2,40,8|0|4,0:0|0:0|0:0,0:0:0
256,92,77599,6,0,B|236:140,5,40
200,128,78088,2,0,B|175:159,5,40
160,196,78577,6,0,B|224:232|332:224,1,160,4|8,0:0|0:0,0:0:0
360,292,79066,1,0,0:0:0
400,360,79229,2,0,B|456:320|424:248|424:248|460:212,1,160,0|8,0:0|0:0,0:0:0
376,188,79718,1,0,0:0:0
344,116,79881,2,0,B|408:80|516:88,1,160,0|8,0:0|0:0,0:0:0
376,188,80534,6,0,B|312:152|204:160,1,160,0|8,0:0|0:0,0:0:0
168,312,81186,2,0,B|84:312,1,80,4|0,0:0|0:0,0:0:0
20,268,81512,2,0,B|0:308|20:348,2,80,8|0|0,0:0|0:0|0:0,0:0:0
152,148,82164,5,8,0:0:0
224,116,82327,1,0,0:0:0
304,128,82490,2,0,B|356:200|304:288,1,160,0|8,0:0|0:0,0:0:0
309,279,82979,1,0,0:0:0
149,279,83305,1,0,0:0:0
212,232,83468,1,8,0:0:0
248,76,83794,6,0,B|300:32|368:52|380:128,1,160,4|8,0:0|0:0,0:0:0
336,180,84284,1,0,0:0:0
388,240,84447,2,0,B|436:283|504:260|512:203,1,160,0|8,0:0|0:0,0:0:0
512,204,84936,1,0,0:0:0
488,44,85262,2,0,B|488:140,1,80,0|8,0:0|0:0,0:0:0
336,72,85751,6,0,B|256:40|172:72,2,160,0|8|4,0:0|0:0|0:0,0:0:0
256,204,86729,2,0,B|256:296,1,80,8|0,0:0|0:0,0:0:0
256,284,87055,1,0,0:0:0
432,368,87381,6,0,B|492:316|492:316|512:228,1,160,8|0,0:0|0:0,0:0:0
476,164,87870,1,0,0:0:0
396,156,88034,2,0,B|336:208|336:208|316:296,1,160,8|8,0:0|0:0,0:0:0
160,312,88686,2,0,B|108:312,3,40
80,304,89012,6,0,B|24:232|52:128,2,160,4|8|8,0:0|0:0|0:0,0:0:0
220,224,89990,2,8,B|276:296|248:400,2,160
256,68,90968,1,8,0:0:0
356,192,91294,1,8,0:0:0
256,316,91620,1,4,0:0:0
156,192,91947,1,8,0:0:0
304,128,92273,6,8,B|352:80|352:80|400:80|424:140,1,160
208,128,92925,2,8,B|160:80|160:80|112:80|91:132,1,160,4|8,0:0|0:0,0:0:0
176,268,93577,2,8,B|336:268,2,160,8|8|4,0:0|0:0|0:0,0:0:0
36,192,94555,2,8,B|36:268|80:268|80:352,2,160
116,192,95370,1,0,0:0:0
196,184,95534,6,8,B|196:108|152:108|152:32,2,160
256,332,96512,1,8,0:0:0
256,332,96838,2,0,B|348:332|412:256,2,160,4|8|8,0:0|0:0|0:0,0:0:0
256,52,97816,2,8,B|164:52|100:128,2,160,8|8|8,0:0|0:0|0:0,0:0:0
256,192,98794,12,4,100751,0:0:0
256,72,101077,6,0,B|300:52|332:80|332:80|388:64|416:120,1,160,8|0,0:0|0:0,0:0:0
256,72,101729,1,8,0:0:0
256,72,101892,1,0,0:0:0
256,72,102055,2,0,B|212:52|180:80|180:80|124:64|96:120,1,160,0|8,0:0|0:0,0:0:0
212,220,102707,2,0,B|212:264|256:280|256:280|300:264|300:220,2,160,0|8|4,0:0|0:0|0:0,0:0:0
368,192,103686,5,8,0:0:0
392,268,103849,1,0,0:0:0
444,216,104012,2,0,B|480:264|464:312|432:344|380:340,1,160,0|8,0:0|0:0,0:0:0
244,316,104664,2,0,B|208:268|224:220|256:188|308:192,2,160,0|8|0,0:0|0:0|0:0,0:0:0
84,316,105642,5,8,0:0:0
132,252,105805,1,8,0:0:0
160,180,105968,1,4,0:0:0
84,40,106294,1,8,0:0:0
132,104,106457,1,0,0:0:0
160,180,106620,6,0,B|232:180|232:180|292:180|336:136,2,160,0|8|0,0:0|0:0|0:0,0:0:0
256,308,107599,2,0,B|184:308|184:308|124:308|80:352,2,160,8|0|8,0:0|0:0|0:0,0:0:0
320,256,108414,1,8,0:0:0
400,248,108577,1,4,0:0:0
400,88,108903,6,0,B|400:8,2,80,8|0|0,0:0|0:0|0:0,0:0:0
264,168,109555,2,0,B|176:168,2,80,8|0|4,0:0|0:0|0:0,0:0:0
400,248,110207,1,8,0:0:0
256,312,110534,1,0,0:0:0
312,160,110860,1,8,0:0:0
256,96,111023,2,8,B|256:40,2,40,8|8|4,0:0|0:0|0:0,0:0:0
384,192,111512,6,0,B|424:192|424:192|432:240|480:260|480:260|480:304,1,160,8|0,0:0|0:0,0:0:0
432,352,112001,1,0,0:0:0
352,340,112164,2,0,B|312:340|312:340|304:292|256:272|256:272|256:228,1,160,8|0,0:0|0:0,0:0:0
256,244,112816,1,8,0:0:0
96,240,113142,2,0,B|96:160,2,80,0|0|8,0:0|0:0|0:0,0:0:0
216,136,113794,6,0,B|256:68|256:68|300:144,1,160,4|8,0:0|0:0,0:0:0
444,196,114447,1,0,0:0:0
444,196,114610,1,0,0:0:0
444,196,114773,2,0,B|444:276|368:336,1,160,8|0,0:0|0:0,0:0:0
139,332,115425,2,0,B|68:276|68:196,2,160,8|0|8,0:0|0:0|0:0,0:0:0
208,288,116240,1,8,0:0:0
256,224,116403,1,4,0:0:0
196,76,116729,6,0,B|224:164,2,80,8|0|0,0:0|0:0|0:0,0:0:0
291,152,117381,2,0,B|316:76,2,80,8|0|0,0:0|0:0|0:0,0:0:0
316,320,118034,2,0,B|296:356|256:372|256:372|216:356|200:320,1,160,8|0,0:0|0:0,0:0:0
256,164,118686,1,8,0:0:0
256,164,118849,1,8,0:0:0
256,164,119012,1,4,0:0:0
408,116,119338,6,0,B|332:116|332:116|364:156|340:196,1,160,8|0,0:0|0:0,0:0:0
336,276,119827,1,0,0:0:0
408,244,119990,2,0,B|428:280|398:321|398:321|474:321,1,160,8|8,0:0|0:0,0:0:0
476,321,120398,1,0,0:0:0
476,321,120479,1,0,0:0:0
488,240,120642,5,8,0:0:0
488,240,120805,1,0,0:0:0
336,192,121131,1,0,0:0:0
336,192,121294,1,8,0:0:0
256,52,121620,1,4,0:0:0
256,92,131077,6,0,B|276:140,5,40
312,128,131566,2,0,B|337:159,5,40
352,196,132055,6,0,B|304:280|180:224,1,160,4|8,0:0|0:0,0:0:0
212,316,132544,1,0,0:0:0
212,316,132707,2,0,B|212:144,1,160,0|8,0:0|0:0,0:0:0
56,200,133360,2,0,B|56:136|100:96|160:96,1,160,0|8,0:0|0:0,0:0:0
120,252,134012,6,0,B|120:316|76:356|16:356,2,160,0|8|4,0:0|0:0|0:0,0:0:0
256,340,134990,1,8,0:0:0
256,260,135153,1,0,0:0:0
256,180,135316,1,0,0:0:0
488,192,135642,6,0,B|400:192,1,80,8|0,0:0|0:0,0:0:0
333,161,135968,1,0,0:0:0
333,161,136294,1,8,0:0:0
256,304,136620,1,0,0:0:0
178,161,136947,1,8,0:0:0
168,68,137110,1,8,0:0:0
256,24,137273,2,0,B|256:184,1,160,4|8,0:0|0:0,0:0:0
360,304,137925,6,0,B|448:304|500:236,1,160,0|8,0:0|0:0,0:0:0
432,192,138414,1,0,0:0:0
500,148,138577,2,0,B|448:80|360:80,1,160,0|8,0:0|0:0,0:0:0
240,192,139229,2,0,B|184:172|140:224|72:192,2,160,0|8|4,0:0|0:0|0:0,0:0:0
400,196,140207,1,8,0:0:0
240,192,140534,1,0,0:0:0
256,352,140860,6,0,B|256:268,2,80,8|0|0,0:0|0:0|0:0,0:0:0
324,208,141512,2,0,B|324:292,2,80,8|0|8,0:0|0:0|0:0,0:0:0
256,64,142164,2,0,B|284:52|312:76,3,40
332,76,142490,6,0,B|388:96|440:76|440:76|460:124,2,160,4|8|8,0:0|0:0|0:0,0:0:0
240,204,143468,2,0,B|259:250|259:250|311:230|367:250,2,160,8|8|8,0:0|0:0|0:0,0:0:0
360,348,144447,2,8,B|345:255|401:199,2,160,8|8|4,0:0|0:0|0:0,0:0:0
148,348,145425,2,8,B|162:255|106:199,2,160
180,76,146403,6,8,B|112:76|72:116|72:188,2,160,4|8|8,0:0|0:0|0:0,0:0:0
336,76,147381,2,0,B|404:76|444:116|444:188,2,160,8|4|8,0:0|0:0|0:0,0:0:0
256,216,148360,2,8,B|256:380,2,160
256,56,149338,5,8,0:0:0
336,196,149664,1,8,0:0:0
256,336,149990,1,8,0:0:0
176,196,150316,1,4,0:0:0
96,60,150642,1,8,0:0:0
176,196,150968,1,8,0:0:0
256,56,151294,1,8,0:0:0
336,196,151620,6,0,B|416:196,1,80,8|0,0:0|0:0,0:0:0
416,196,151865,1,0,0:0:0
416,196,151947,1,8,0:0:0
416,356,152273,1,8,0:0:0
416,196,152599,1,8,0:0:0
256,192,152925,12,4,155534,0:0:0
184,92,163034,5,0,0:0:0
264,104,163197,1,0,0:0:0
328,164,163360,6,0,B|328:332,1,160,4|0,0:0|0:0,0:0:0
256,288,163849,1,0,0:0:0
188,244,164012,2,0,B|168:288|192:336,2,80,8|0|0,0:0|0:0|0:0,0:0:0
108,248,164501,6,0,B|108:180|172:140|236:172,1,160
220,88,164990,1,0,0:0:0
284,140,165153,2,0,B|300:192|256:228,2,80,0|8|0,0:0|0:0|0:0,0:0:0
284,140,165642,1,0,0:0:0
320,68,165805,1,0,0:0:0
376,124,165968,6,0,B|376:180|336:220|264:216,1,160,4|0,0:0|0:0,0:0:0
256,296,166457,1,0,0:0:0
192,336,166620,2,0,B|168:292|200:248,1,80,8|0,0:0|0:0,0:0:0
256,296,166947,1,0,0:0:0
270,217,167110,1,0,0:0:0
400,348,167436,5,0,0:0:0
440,280,167599,2,0,B|440:200,2,80,0|0|8,0:0|0:0|0:0,0:0:0
400,348,168088,2,0,B|444:372|488:344,2,80
372,260,168577,6,0,B|376:192|456:180|496:212|496:256,1,160,4|0,0:0|0:0,0:0:0
488,228,169066,1,0,0:0:0
488,228,169229,2,0,B|488:308,1,80,8|0,0:0|0:0,0:0:0
400,348,169555,2,0,B|320:348,1,80
256,240,170044,1,0,0:0:0
184,200,170207,6,0,B|164:240|164:240|164:296,1,80
112,336,170534,2,0,B|152:356|152:356|208:356,1,80,8|0,0:0|0:0,0:0:0
256,316,170860,1,0,0:0:0
256,240,171023,1,0,0:0:0
256,192,171186,12,4,173794,0:0:0
376,104,178849,5,0,0:0:0
456,104,179012,2,0,B|456:196,1,80,4|0,0:0|0:0,0:0:0
376,184,179338,1,8,0:0:0
308,144,179501,1,0,0:0:0
280,220,179664,2,0,B|236:228|236:228|180:216,2,80,0|0|8,0:0|0:0|0:0,0:0:0
236,152,180153,6,0,B|236:88|284:64|328:64|356:92,1,160,4|0,0:0|0:0,0:0:0
420,116,180642,1,8,0:0:0
448,192,180805,2,0,B|460:240|440:292,1,80
376,232,181131,2,0,B|280:232,1,80,0|8,0:0|0:0,0:0:0
276,308,181457,6,0,B|168:308|168:308|140:260|96:268,1,160,4|0,0:0|0:0,0:0:0
88,340,181947,2,0,B|40:308|56:248,1,80,8|0,0:0|0:0,0:0:0
56,192,182273,1,0,0:0:0
56,192,182436,2,0,B|56:112,1,80,0|8,0:0|0:0,0:0:0
52,32,182762,6,0,B|96:32|124:64|124:64|152:32|196:32,1,160,4|0,0:0|0:0,0:0:0
192,112,183251,1,8,0:0:0
256,160,183414,1,0,0:0:0
256,160,183495,1,0,0:0:0
256,160,183577,1,0,0:0:0
188,224,183740,2,0,B|188:272,6,40,0|8|0|0|0|0|4,0:0|0:0|0:0|0:0|0:0|0:0|0:0,0:0:0
256,192,193278,12,4,194664,0:0:0
256,228,194990,6,0,B|192:164,1,80
256,228,195316,2,0,B|320:164,1,80,8|0,0:0|0:0,0:0:0
316,92,195642,1,0,0:0:0
316,92,195805,2,0,B|256:36|256:36|200:88,1,160
136,36,196294,1,0,0:0:0
136,36,196457,2,0,B|80:96|80:96|132:152,1,160,8|0,0:0|0:0,0:0:0
120,232,196947,2,0,B|172:232|216:192,2,80,0|0|4,0:0|0:0|0:0,0:0:0
392,232,197599,6,0,B|340:232|296:192,2,80,0|0|8,0:0|0:0|0:0,0:0:0
384,152,198088,1,0,0:0:0
380,72,198251,1,0,0:0:0
304,44,198414,1,0,0:0:0
256,160,198740,5,0,0:0:0
256,276,199066,1,0,0:0:0
316,328,199229,2,0,B|329:290,7,40
360,264,199881,6,0,B|440:228|488:164,1,160,4|8,0:0|0:0,0:0:0
384,44,200534,2,0,B|304:79|258:140,1,160,2|8,0:0|0:0,0:0:0
256,220,201023,1,0,0:0:0
258,140,201186,2,0,B|212:79|132:43,1,160,0|8,0:0|0:0,0:0:0
188,196,201838,2,0,B|212:224|256:240|256:240|300:224|332:188,1,160,2|8,0:0|0:0,0:0:0
468,136,202490,6,0,B|468:228,1,80,4|0,0:0|0:0,0:0:0
420,280,202816,1,8,0:0:0
352,320,202979,2,0,B|272:320,1,80,2|0,0:0|0:0,0:0:0
116,276,203468,1,8,0:0:0
116,276,203631,1,0,0:0:0
116,276,203794,6,0,B|96:224|32:204|32:204|64:160,1,160,2|8,0:0|0:0,0:0:0
140,160,204284,1,0,0:0:0
188,92,204447,2,0,B|168:40|96:24|52:72,2,160,0|8|4,0:0|0:0|0:0,0:0:0
256,236,205425,1,8,0:0:0
324,92,205751,6,0,B|344:40|416:24|460:72,1,160,2|8,0:0|0:0,0:0:0
476,148,206240,1,0,0:0:0
396,136,206403,2,0,B|360:292,1,160,0|8,0:0|0:0,0:0:0
153,291,207055,2,0,B|116:136,1,160,2|8,0:0|0:0,0:0:0
176,84,207544,1,0,0:0:0
116,32,207707,2,0,B|56:40|12:96|20:168,2,160,4|8|0,0:0|0:0|0:0,0:0:0
244,128,208686,5,8,0:0:0
176,84,208849,1,0,0:0:0
244,128,209012,2,0,B|304:120|348:64|340:-8,1,160,2|8,0:0|0:0,0:0:0
268,256,209664,2,8,B|208:264|164:320|172:392,1,160,0|0,0:0|0:0,0:0:0
136,348,210072,2,0,B|96:392,2,40
108,320,210316,6,0,B|28:292|28:292|80:240|48:204,2,160,4|8|2,0:0|0:0|0:0,0:0:0
144,248,211131,1,0,0:0:0
188,180,211294,2,0,B|268:208|268:208|216:260|248:296,1,160,8|0,0:0|0:0,0:0:0
220,112,211947,2,0,B|180:200|52:168,1,160,8|2,0:0|0:0,0:0:0
292,112,212599,6,0,B|332:200|460:168,2,160,8|4|8,0:0|0:0|0:0,0:0:0
132,108,213577,1,2,0:0:0
292,112,213903,2,0,B|292:176|348:224|348:224|340:256,2,160,8|4|8,0:0|0:0|0:0,0:0:0
171,254,214881,2,0,B|164:224|164:224|220:176|220:112,2,160,2|8|4,0:0|0:0|0:0,0:0:0
304,320,215860,6,0,B|268:320|256:376|256:376|244:320|204:320,2,160,8|0|8,0:0|0:0|0:0,0:0:0
256,256,216675,1,0,0:0:0
232,180,216838,2,0,B|320:160|352:244|332:288,1,160,2|8,0:0|0:0,0:0:0
208,320,217490,6,0,B|120:340|88:256|108:212,1,160,0|8,0:0|0:0,0:0:0
220,100,218142,2,0,B|236:204,1,80,4|0,0:0|0:0,0:0:0
308,152,218468,1,0,0:0:0
384,180,218631,2,0,B|396:100,1,80
380,260,219120,6,0,B|424:260|444:300|444:300|424:344|376:344,1,160,8|2,0:0|0:0,0:0:0
256,244,219773,2,0,B|213:244|193:200|193:200|213:160|257:160,1,160,8|8,0:0|0:0,0:0:0
304,96,220262,1,0,0:0:0
384,64,220425,2,0,B|384:108,4,40,2|0|0|0|4,0:0|0:0|0:0|0:0|0:0,0:0:0
