osu file format v12

[General]
AudioFilename: UN - Kawada Mami.mp3
AudioLeadIn: 0
PreviewTime: 78374
Countdown: 0
SampleSet: Soft
StackLeniency: 0.7
Mode: 0
LetterboxInBreaks: 0
WidescreenStoryboard: 0

[Editor]
Bookmarks: 22450,45928,67613,78537,88972,104624,116363,151580
DistanceSpacing: 1
BeatDivisor: 4
GridSize: 8

[Metadata]
Title:u/n
TitleUnicode:u/n
Artist:Kawada Mami
ArtistUnicode:川田まみ
Creator:Fr33z3R
Version:Normal
Source:Shakugan no Shana III Final
Tags:shakugan no shana, iii, final, kawada mami,
BeatmapID:250204
BeatmapSetID:92553

[Difficulty]
HPDrainRate:4
CircleSize:3
OverallDifficulty:4
ApproachRate:5
SliderMultiplier:0.8
SliderTickRate:2

[Events]
//Background and Video events
0,0,"BG2.jpg",0,0
//Break Periods
2,95704,219521
//Storyboard Layer 0 (Background)
//Storyboard Layer 1 (Fail)
//Storyboard Layer 2 (Pass)
//Storyboard Layer 3 (Foreground)
//Storyboard Sound Samples
//Background Colour Transformations
3,100,0,0,0

[TimingPoints]
1591,326.086956521739,4,2,0,80,1,0
17569,-100,4,2,0,20,0,0
19688,-100,4,2,0,80,0,0
23112,-80,4,2,1,80,0,0
78537,-80,4,2,1,80,0,1
78547,-80,4,2,1,100,0,1
88900,-80,4,2,1,80,0,0
88972,-80,4,2,2,80,0,1
100721,-80,4,2,1,80,0,0
132025,-80,4,2,1,80,0,1
142379,-80,4,2,1,80,0,0
142460,-80,4,2,1,80,0,1
152895,-80,4,2,1,15,0,0
158031,-80,4,2,1,80,0,0
199851,-80,4,2,1,80,0,1
210205,-80,4,2,1,80,0,0
210286,-80,4,2,1,80,0,1
220721,-80,4,2,1,80,0,0

[Colours]
Combo1 : 214,214,214
Combo2 : 198,0,0
Combo3 : 198,198,0

[HitObjects]
96,296,1591,6,0,B|168:256|240:344|336:280,1,240,2|0,0:0|0:0,0:0:0:0:
360,264,2732,1,0,0:0:0:0:
376,144,3221,1,0,0:0:0:0:
304,120,3547,2,0,P|280:112|216:120,1,80,2|0,0:0|0:0,0:0:0:0:
160,64,4199,6,0,B|96:136|200:208|152:304,1,240,2|0,0:0|0:0,0:0:0:0:
144,328,5340,1,0,0:0:0:0:
264,328,5830,1,2,0:0:0:0:
312,272,6156,1,0,0:0:0:0:
368,216,6482,1,2,0:0:0:0:
432,168,6808,6,0,B|384:112|344:152|288:104,1,160,2|0,0:0|0:0,0:0:0:0:
216,80,7786,1,0,0:0:0:0:
216,80,7949,2,0,P|144:112|120:152,1,120,2|0,0:0|0:0,0:0:0:0:
176,208,8764,2,0,P|152:248|120:280,1,80,2|0,0:0|0:0,0:0:0:0:
192,328,9417,2,0,P|240:280|280:192,1,160,2|0,0:0|0:0,0:0:0:0:
352,168,10395,5,0,0:0:0:0:
296,112,10721,2,0,P|216:80|176:80,2,120,2|0|2,0:0|0:0|0:0,0:0:0:0:
232,168,12025,2,0,P|176:216|160:224,2,80,0|0|2,0:0|0:0|0:0,0:0:0:0:
288,224,13004,1,0,0:0:0:0:
344,280,13330,2,0,L|432:280,1,80
472,216,13982,1,2,0:0:0:0:
344,96,14634,6,0,L|248:72,1,80
192,104,15286,2,0,P|152:144|96:176,2,120,2|0|2,0:0|0:0|0:0,0:0:0:0:
240,168,16590,2,0,L|296:232,1,80,0|2,0:0|0:0,0:0:0:0:
344,288,17243,1,0,0:0:0:0:
256,192,17569,12,0,19525,0:0:0:0:
96,192,20177,5,0,0:0:0:0:
96,192,20504,2,0,P|144:224|168:256,1,80,2|0,0:0|0:0,0:0:0:0:
200,240,20993,2,0,P|227:211|262:191,1,80,2|0,0:0|0:0,0:0:0:0:
304,192,21482,2,0,P|338:212|424:312,1,160,2|0,0:0|0:0,0:0:0:0:
400,144,23764,5,4,0:0:0:0:
336,224,24090,2,0,P|288:256|240:272,2,100,8|2|8,0:0|0:0|0:0,0:0:0:0:
280,144,25069,1,2,0:0:0:0:
184,184,25395,2,0,P|143:212|96:230,2,100,8|2|8,0:0|0:0|0:0,0:0:0:0:
232,272,26373,6,0,P|288:288|336:256,1,100,2|8,0:0|0:0,0:0:0:0:
280,184,27025,2,0,P|224:168|176:200,1,100,2|8,0:0|0:0,0:0:0:0:
128,264,27677,2,0,P|88:216|96:160,1,100,0|8,0:0|0:0,0:0:0:0:
128,88,28330,1,2,0:0:0:0:
128,88,28656,2,2,P|176:120|216:128,1,100,8|4,0:0|0:0,0:0:0:0:
304,80,29308,6,0,P|328:144|232:224,1,200,8|8,0:0|0:0,0:0:0:0:
144,224,30286,1,2,0:0:0:0:
144,224,30612,2,0,P|184:296|304:296,1,200,8|8,0:0|0:0,0:0:0:0:
328,208,31590,2,0,P|376:240|392:288,1,100,2|8,0:0|0:0,0:0:0:0:
432,184,32243,2,0,P|360:136|240:120,1,200,2|2,0:0|0:0,0:0:0:0:
152,88,33221,1,8,0:0:0:0:
96,168,33547,1,8,0:0:0:0:
160,248,33873,2,0,L|192:272,4,25,8|8|8|12|4,0:0|0:0|0:0|0:0|0:0,0:0:0:0:
216,168,34525,6,0,L|320:168,1,100,8|2,0:0|0:0,0:0:0:0:
368,256,35177,2,0,L|256:256,1,100,8|2,0:0|0:0,0:0:0:0:
216,344,35830,2,0,L|320:344,2,100,8|2|8,0:0|0:0|0:0,0:0:0:0:
168,256,36808,6,0,L|64:256,1,100,2|8,0:0|0:0,0:0:0:0:
120,168,37460,2,0,L|232:168,1,100,2|8,0:0|0:0,0:0:0:0:
168,80,38113,2,0,L|64:80,2,100,2|8|2,0:0|0:0|0:0,0:0:0:0:
256,136,39090,2,0,L|328:136,2,50,8|8|4,0:0|0:0|0:0,0:0:0:0:
256,240,39743,5,8,0:0:0:0:
192,312,40069,2,0,P|160:256|160:216,2,100,2|8|2,0:0|0:0|0:0,0:0:0:0:
256,240,41047,1,8,0:0:0:0:
320,312,41373,2,0,P|352:256|352:216,2,100,2|8|2,0:0|0:0|0:0,0:0:0:0:
256,240,42351,1,8,0:0:0:0:
192,160,42677,2,0,L|160:120,2,50,2|2|8,0:0|0:0|0:0,0:0:0:0:
320,160,43330,2,0,L|352:120,2,50,2|2|8,0:0|0:0|0:0,0:0:0:0:
256,240,43982,6,0,L|224:272|216:280,1,50,2|0,0:0|0:0,0:0:0:0:
184,312,44308,2,0,L|152:344|144:352,2,50,8|2|0,0:0|0:0|0:0,0:0:0:0:
256,192,44797,12,4,47243,0:0:0:0:
176,176,47569,6,0,P|248:136|368:144,1,200,8|8,0:0|0:0,0:0:0:0:
440,208,48547,1,0,0:0:0:0:
440,304,48873,2,0,P|368:344|248:336,1,200,8|8,0:0|0:0,0:0:0:0:
184,272,49851,1,2,0:0:0:0:
136,184,50177,6,0,P|96:224|88:272,2,100,8|2|8,0:0|0:0|0:0,0:0:0:0:
232,176,51156,2,0,P|272:144|304:80,1,100,2|8,0:0|0:0,0:0:0:0:
352,184,51808,2,0,P|416:128|432:104,2,100,2|8|4,0:0|0:0|0:0,0:0:0:0:
400,272,52786,6,0,P|320:304|200:264,1,200,8|8,0:0|0:0,0:0:0:0:
136,216,53764,1,2,0:0:0:0:
136,216,54090,2,0,P|228:183|322:212,1,200,8|8,0:0|0:0,0:0:0:0:
400,152,55069,2,0,P|360:120|296:96,2,100,4|8|2,0:0|0:0|0:0,0:0:0:0:
400,248,56047,2,0,P|361:279|315:299,2,100,8|2|8,0:0|0:0|0:0,0:0:0:0:
320,192,57025,1,2,0:0:0:0:
224,192,57351,1,8,0:0:0:0:
176,192,57514,2,0,L|128:192,2,25,8|8|0,0:0|0:0|0:0,0:0:0:0:
216,104,58004,6,0,P|264:96|336:112,1,100,8|2,0:0|0:0,0:0:0:0:
376,184,58656,1,8,0:0:0:0:
312,264,58982,2,0,P|280:288|256:296,2,50,2|2|8,0:0|0:0|0:0,0:0:0:0:
224,216,59634,2,0,P|168:200|120:224,2,100,2|8|2,0:0|0:0|0:0,0:0:0:0:
288,136,60612,2,0,P|328:104|352:48,1,100,8|2,0:0|0:0,0:0:0:0:
424,128,61264,1,8,0:0:0:0:
448,224,61590,2,0,L|480:272,2,50,2|2|8,0:0|0:0|0:0,0:0:0:0:
352,192,62243,5,2,0:0:0:0:
376,288,62569,2,0,L|336:328,2,50,8|2|4,0:0|0:0|0:0,0:0:0:0:
256,192,63058,12,4,65504,0:0:0:0:
160,192,65830,6,0,L|232:120,1,100,8|0,0:0|0:0,0:0:0:0:
288,208,66482,1,8,0:0:0:0:
352,128,66808,2,0,L|456:128,2,100,2|8|2,0:0|0:0|0:0,0:0:0:0:
376,224,67786,2,0,P|352:272|304:296,1,100,8|2,0:0|0:0,0:0:0:0:
216,288,68438,6,0,L|96:288,1,100,8|8,0:0|0:0,0:0:0:0:
80,256,68927,2,0,B|48:216|48:216|48:144,1,100,0|8,0:0|0:0,0:0:0:0:
80,128,69417,2,0,B|136:96|136:96|192:96,2,100,2|8|2,0:0|0:0|0:0,0:0:0:0:
112,160,70232,2,0,B|168:200|168:200|256:200,1,150,8|4,0:0|0:0,0:0:0:0:
336,256,71047,6,0,P|400:224|416:192,1,100,8|8,0:0|0:0,0:0:0:0:
416,152,71536,2,0,P|385:113|339:97,1,100,0|8,0:0|0:0,0:0:0:0:
288,96,72025,2,0,P|241:111|211:150,1,100,2|8,0:0|0:0,0:0:0:0:
208,200,72514,2,0,P|238:238|284:254,1,100,0|8,0:0|0:0,0:0:0:0:
336,256,73004,2,0,L|448:256,1,100,8|4,0:0|0:0,0:0:0:0:
416,160,73656,5,8,0:0:0:0:
416,160,73982,2,0,P|368:120|312:104,1,100,8|0,0:0|0:0,0:0:0:0:
312,152,74471,2,0,P|264:144|192:160,1,100,8|0,0:0|0:0,0:0:0:0:
224,200,74960,2,0,P|168:232|128:272,1,100,8|0,0:0|0:0,0:0:0:0:
168,304,75449,2,0,P|128:336|32:336,1,150,8|4,0:0|0:0,0:0:0:0:
256,192,76101,12,0,78547,0:0:0:0:
144,152,78873,6,0,P|184:208|312:272,1,200,8|8,0:0|0:0,0:0:0:0:
368,200,79851,1,0,0:0:0:0:
304,128,80177,2,0,P|213:169|150:245,1,200,8|8,0:0|0:0,0:0:0:0:
240,288,81156,6,0,P|288:272|352:296,1,100,2|8,0:0|0:0,0:0:0:0:
416,224,81808,2,0,P|400:176|424:120,1,100,0|8,0:0|0:0,0:0:0:0:
328,80,82460,2,0,P|264:64|176:88,1,150,2|0,0:0|0:0,0:0:0:0:
192,136,83112,2,0,P|176:176|136:216,2,100,0|8|4,0:0|0:0|0:0,0:0:0:0:
256,216,84090,6,0,L|432:336,1,200,8|8,0:0|0:0,0:0:0:0:
456,232,85069,1,2,0:0:0:0:
376,176,85395,2,0,L|200:56,1,200,8|8,0:0|0:0,0:0:0:0:
120,96,86373,1,0,0:0:0:0:
104,192,86699,2,0,P|88:248|64:288,2,100,8|2|8,0:0|0:0|0:0,0:0:0:0:
200,192,87677,2,0,P|216:248|240:288,1,100,0|8,0:0|0:0,0:0:0:0:
336,288,88330,2,0,P|360:244|372:196,2,100,8|8|4,0:0|0:0|0:0,0:0:0:0:
248,240,89308,6,0,P|192:232|144:240,1,100,8|8,0:0|0:0,0:0:0:0:
112,144,89960,2,0,P|161:150|210:142,1,100,8|8,0:0|0:0,0:0:0:0:
312,128,90612,1,8,0:0:0:0:
400,176,90938,1,8,0:0:0:0:
336,248,91264,1,8,0:0:0:0:
256,304,91590,6,0,P|208:296|144:312,2,100,8|8|8,0:0|0:0|0:0,0:0:0:0:
336,248,92569,1,8,0:0:0:0:
400,176,92895,2,0,P|448:168|512:184,2,100,8|8|8,0:0|0:0|0:0,0:0:0:0:
304,160,93873,1,8,0:0:0:0:
208,192,94199,1,4,0:0:0:0:
256,192,94362,12,8,95504,0:0:0:0:
256,192,220721,12,4,225938,0:0:0:0:
