osu file format v12

[General]
AudioFilename: UN - Kawada Mami.mp3
AudioLeadIn: 0
PreviewTime: 78374
Countdown: 0
SampleSet: Soft
StackLeniency: 0.7
Mode: 0
LetterboxInBreaks: 0
WidescreenStoryboard: 1

[Editor]
Bookmarks: 22450,45928,67613,78537,88972,100711,104624,121580,152233,177667,199841,210276
DistanceSpacing: 1.2
BeatDivisor: 4
GridSize: 8

[Metadata]
Title:u/n
TitleUnicode:u/n
Artist:Kawada Mami
ArtistUnicode:川田まみ
Creator:Fr33z3R
Version:Insane
Source:Shakugan no Shana III Final
Tags:shakugan no shana, iii, final, kawada mami,
BeatmapID:250203
BeatmapSetID:92553

[Difficulty]
HPDrainRate:7
CircleSize:4
OverallDifficulty:6
ApproachRate:8
SliderMultiplier:1.4
SliderTickRate:2

[Events]
//Background and Video events
0,0,"BG3.jpg",0,0
//Break Periods
2,100921,104862
2,173964,178232
//Storyboard Layer 0 (Background)
//Storyboard Layer 1 (Fail)
//Storyboard Layer 2 (Pass)
//Storyboard Layer 3 (Foreground)
//Storyboard Sound Samples
//Background Colour Transformations
3,100,0,0,0

[TimingPoints]
1591,326.086956521739,4,2,0,80,1,0
11862,-100,4,2,0,80,0,0
17569,-100,4,2,0,20,0,0
19688,-100,4,2,0,80,0,0
21156,-133.333333333333,4,2,0,80,0,0
22297,-100,4,2,0,80,0,0
23112,-80,4,2,1,80,0,0
78537,-80,4,2,1,80,0,1
82949,-133.333333333333,4,2,1,80,0,1
84090,-80,4,2,1,80,0,1
88900,-80,4,2,1,80,0,0
88982,-80,4,2,2,80,0,1
100711,-80,4,2,1,80,0,0
101047,-100,4,2,0,80,0,0
111482,-80,4,2,1,80,0,0
132025,-80,4,2,1,80,0,1
138302,-80,4,2,2,80,0,1
138465,-80,4,2,1,80,0,1
142379,-80,4,2,1,80,0,0
142460,-80,4,2,2,80,0,1
152895,-80,4,2,1,15,0,0
157215,-100,4,2,1,80,0,0
182569,-100,4,2,2,80,0,0
183058,-100,4,2,1,80,0,0
193330,-100,4,2,1,50,0,0
194308,-142.857142857143,4,2,1,80,0,0
199851,-80,4,2,1,80,0,1
204090,-133.333333333333,4,2,1,80,0,1
205069,-80,4,2,1,80,0,1
210205,-80,4,2,1,80,0,0
210286,-80,4,2,1,90,0,1
220721,-80,4,2,1,80,0,0

[Colours]
Combo1 : 214,214,214
Combo2 : 198,0,0
Combo3 : 198,198,0

[HitObjects]
128,232,1591,2,0,P|152:280|248:304,1,140,2|0,0:0|0:0,0:0:0:0:
368,304,2243,2,0,P|434:286|469:227,1,140,2|0,0:0|0:0,0:0:0:0:
440,168,2732,2,0,P|384:136|352:64,2,140,2|2|0,0:0|0:0|0:0,0:0:0:0:
408,232,3547,2,0,P|368:216|336:192,2,70,2|0|2,0:0|0:0|0:0,0:0:0:0:
288,160,4199,6,0,P|256:208|176:248,1,140,2|0,0:0|0:0,0:0:0:0:
48,264,4851,2,0,P|88:320|151:350,1,140,2|0,0:0|0:0,0:0:0:0:
224,352,5340,2,0,P|286:321|327:265,2,140,2|2|0,0:0|0:0|0:0,0:0:0:0:
192,288,6156,2,0,L|128:232,2,70,2|0|2,0:0|0:0|0:0,0:0:0:0:
152,152,6808,6,0,P|224:128|288:160,1,140,2|0,0:0|0:0,0:0:0:0:
368,256,7460,2,0,P|303:280|239:256,1,140,2|0,0:0|0:0,0:0:0:0:
176,280,7949,2,0,P|144:216|152:144,2,140,2|2|0,0:0|0:0|0:0,0:0:0:0:
224,328,8764,2,0,P|272:352|312:352,2,70,2|0|2,0:0|0:0|0:0,0:0:0:0:
352,272,9417,6,0,P|392:240|408:128,2,140,2|0|2,0:0|0:0|0:0,0:0:0:0:
296,144,10395,1,0,0:0:0:0:
296,144,10558,1,0,0:0:0:0:
296,144,10721,2,0,P|216:136|160:96,1,140,2|0,0:0|0:0,0:0:0:0:
136,184,11210,2,0,P|120:232|32:296,1,140,2|0,0:0|0:0,0:0:0:0:
112,352,11699,1,2,0:0:0:0:
280,296,12025,6,0,P|352:272|400:232,1,140,2|0,0:0|0:0,0:0:0:0:
296,144,12677,2,0,P|229:164|175:208,1,140,2|0,0:0|0:0,0:0:0:0:
216,264,13167,2,0,P|160:304|80:304,2,140,2|2|0,0:0|0:0|0:0,0:0:0:0:
280,240,13982,2,0,L|344:192,1,70,2|0,0:0|0:0,0:0:0:0:
384,248,14308,2,0,L|464:224,1,70,2|0,0:0|0:0,0:0:0:0:
456,160,14634,6,0,P|408:128|360:48,1,140,2|0,0:0|0:0,0:0:0:0:
224,56,15286,2,0,P|188:115|131:156,1,140,2|0,0:0|0:0,0:0:0:0:
128,224,15775,2,0,P|96:288|40:336,2,140,2|2|0,0:0|0:0|0:0,0:0:0:0:
200,216,16590,2,0,P|232:256|240:296,2,70,2|0|2,0:0|0:0|0:0,0:0:0:0:
200,216,17243,5,0,0:0:0:0:
256,192,17569,12,0,19525,0:0:0:0:
120,192,20177,5,2,0:0:0:0:
120,192,20504,2,0,P|144:232|240:256,1,140,2|2,0:0|0:0,0:0:0:0:
296,256,20993,1,0,0:0:0:0:
336,224,21156,2,0,P|376:184|424:168,1,105.000004005432,2|0,0:0|0:0,0:0:0:0:
424,112,21645,2,0,P|375:93|339:56,1,105.000004005432,2|0,0:0|0:0,0:0:0:0:
296,32,22134,1,2,0:0:0:0:
96,192,23764,5,4,0:0:0:0:
248,272,24090,2,0,P|272:216|248:104,1,175,8|2,0:0|0:0,0:0:0:0:
176,64,24580,1,0,0:0:0:0:
96,104,24743,2,0,P|71:186|98:268,1,175,8|2,0:0|0:0,0:0:0:0:
256,352,25395,6,0,P|336:304|360:224,1,175,8|2,0:0|0:0,0:0:0:0:
304,160,25884,1,2,0:0:0:0:
264,240,26047,2,0,P|216:256|96:208,1,175,8|0,0:0|0:0,0:0:0:0:
240,104,26699,6,0,P|312:80|384:152,1,175,8|2,0:0|0:0,0:0:0:0:
304,160,27188,1,2,0:0:0:0:
368,224,27351,2,0,B|304:248|288:344|200:352,1,175,8|2,0:0|0:0,0:0:0:0:
72,304,28004,6,0,P|40:248|64:112,1,175,8|2,0:0|0:0,0:0:0:0:
104,72,28493,1,0,0:0:0:0:
160,136,28656,2,0,P|148:221|185:299,1,175,8|4,0:0|0:0,0:0:0:0:
352,240,29308,6,0,P|416:208|464:112,1,175,8|2,0:0|0:0,0:0:0:0:
384,80,29797,1,2,0:0:0:0:
384,80,29960,1,8,0:0:0:0:
232,160,30286,5,2,0:0:0:0:
168,96,30449,1,2,0:0:0:0:
144,184,30612,1,8,0:0:0:0:
312,232,30938,5,2,0:0:0:0:
400,208,31101,1,2,0:0:0:0:
384,296,31264,1,8,0:0:0:0:
208,320,31590,6,0,L|32:240,1,175,2|8,0:0|0:0,0:0:0:0:
48,72,32243,1,2,0:0:0:0:
128,112,32406,1,2,0:0:0:0:
208,152,32569,1,8,0:0:0:0:
368,88,32895,6,0,L|432:152,1,87.5,2|2,0:0|0:0,0:0:0:0:
432,240,33221,2,0,L|370:301,1,87.5,8|2,0:0|0:0,0:0:0:0:
328,320,33465,1,2,0:0:0:0:
288,336,33547,1,8,0:0:0:0:
248,336,33629,1,0,0:0:0:0:
208,328,33710,1,8,0:0:0:0:
168,312,33792,1,8,0:0:0:0:
136,280,33873,1,8,0:0:0:0:
112,240,33955,1,8,0:0:0:0:
112,200,34036,1,8,0:0:0:0:
120,160,34118,1,8,0:0:0:0:
144,120,34199,1,4,0:0:0:0:
320,120,34525,6,0,P|344:184|440:240,1,175,8|2,0:0|0:0,0:0:0:0:
272,304,35177,2,8,B|192:232|200:128|200:128,1,175,8|2,0:0|0:0,0:0:0:0:
48,56,35830,5,8,0:0:0:0:
104,120,35993,1,2,0:0:0:0:
48,192,36156,1,2,0:0:0:0:
104,256,36319,1,2,0:0:0:0:
48,320,36482,2,0,P|104:344|184:248,1,175,8|2,0:0|0:0,0:0:0:0:
327,278,37134,6,0,P|383:340|464:320,1,175,8|2,0:0|0:0,0:0:0:0:
464,144,37786,2,0,P|408:81|327:102,1,175,8|2,0:0|0:0,0:0:0:0:
184,102,38438,2,0,P|103:81|48:144,1,175,8|2,0:0|0:0,0:0:0:0:
104,208,38927,1,2,0:0:0:0:
48,280,39090,1,8,0:0:0:0:
104,344,39254,1,8,0:0:0:0:
160,280,39417,1,4,0:0:0:0:
328,232,39743,6,0,P|368:192|472:248,2,175,8|0|8,0:0|0:0|0:0,0:0:0:0:
192,344,40721,2,0,P|152:288|160:168,1,175,0|8,0:0|0:0,0:0:0:0:
288,80,41373,5,2,0:0:0:0:
320,160,41536,1,2,0:0:0:0:
376,96,41699,1,8,0:0:0:0:
272,232,42025,1,2,0:0:0:0:
240,152,42188,1,2,0:0:0:0:
184,216,42351,1,8,0:0:0:0:
80,72,42677,6,0,P|40:152|56:264,1,175,2|8,0:0|0:0,0:0:0:0:
112,304,43167,1,0,0:0:0:0:
192,336,43330,2,0,P|256:336|376:184,1,262.5,2|2,0:0|0:0,0:0:0:0:
320,128,43982,2,0,P|296:184|288:232,1,87.5
232,143,44308,2,0,P|213:183|202:225,2,87.5,8|2|0,0:0|0:0|0:0,0:0:0:0:
256,192,44797,12,4,47243,0:0:0:0:
192,216,47569,6,0,P|200:160|304:128,1,175,8|2,0:0|0:0,0:0:0:0:
352,200,48058,1,2,0:0:0:0:
336,288,48221,2,0,P|264:352|176:320,1,175,8|2,0:0|0:0,0:0:0:0:
128,280,48710,1,0,0:0:0:0:
48,248,48873,2,0,P|88:200|200:224,1,175,8|2,0:0|0:0,0:0:0:0:
224,296,49362,1,2,0:0:0:0:
288,352,49525,2,0,P|320:312|232:216,1,175,8|2,0:0|0:0,0:0:0:0:
336,56,50177,6,8,P|392:120|416:208,1,175,8|2,0:0|0:0,0:0:0:0:
384,288,50667,1,2,0:0:0:0:
336,216,50830,2,0,P|296:280|352:368,2,175,8|0|8,0:0|0:0|0:0,0:0:0:0:
200,104,51808,1,2,0:0:0:0:
120,64,51971,1,2,0:0:0:0:
128,152,52134,2,0,B|96:208|96:208|176:312,1,175,8|0,0:0|0:0,0:0:0:0:
280,168,52786,6,8,P|336:112|440:112,1,175,8|2,0:0|0:0,0:0:0:0:
432,192,53275,1,2,0:0:0:0:
432,280,53438,2,8,P|346:277|272:216,1,175,8|2,0:0|0:0,0:0:0:0:
152,104,54090,5,8,0:0:0:0:
96,272,54417,1,2,0:0:0:0:
96,272,54580,1,2,0:0:0:0:
96,272,54743,2,0,P|136:312|248:336,1,175,2|4,0:0|0:0,0:0:0:0:
280,168,55395,6,0,P|328:136|448:192,1,175,8|0,0:0|0:0,0:0:0:0:
360,216,55884,1,2,0:0:0:0:
360,304,56047,1,8,0:0:0:0:
184,288,56373,2,0,L|24:216,1,175,2|8,0:0|0:0,0:0:0:0:
40,40,57025,2,0,L|200:112,1,175,2|8,0:0|0:0,0:0:0:0:
224,200,57514,1,8,0:0:0:0:
256,232,57596,1,8,0:0:0:0:
296,248,57677,2,0,P|352:264|440:176,1,175,8|8,0:0|0:0,0:0:0:0:
296,88,58330,6,0,B|248:112|152:80|112:160,1,175,2|8,0:0|0:0,0:0:0:0:
128,312,58982,1,0,0:0:0:0:
128,312,59145,2,0,P|80:288|48:256,2,87.5,0|8|8,0:0|0:0|0:0,0:0:0:0:
216,328,59634,2,0,P|264:280|368:256,1,175,2|8,0:0|0:0,0:0:0:0:
464,112,60286,6,0,P|378:97|314:39,1,175,2|8,0:0|0:0,0:0:0:0:
144,80,60938,1,2,0:0:0:0:
104,160,61101,1,2,0:0:0:0:
144,240,61264,1,8,0:0:0:0:
296,160,61590,6,0,L|392:120,1,87.5,2|0,0:0|0:0,0:0:0:0:
360,216,61917,2,0,L|456:216,1,87.5,8|0,0:0|0:0,0:0:0:0:
296,272,62243,2,0,L|392:312,2,87.5,0|2|8,0:0|0:0|0:0,0:0:0:0:
224,216,62732,2,0,L|104:216,1,87.5,8|4,0:0|0:0,0:0:0:0:
256,192,63221,12,4,65504,0:0:0:0:
168,288,65830,6,0,P|120:208|200:160,1,175,8|2,0:0|0:0,0:0:0:0:
232,224,66319,1,0,0:0:0:0:
256,304,66482,2,0,P|320:248|296:168,1,175,8|0,0:0|0:0,0:0:0:0:
272,136,66889,1,2,0:0:0:0:
232,112,66971,1,8,0:0:0:0:
152,72,67134,1,0,0:0:0:0:
72,96,67297,5,2,0:0:0:0:
48,136,67379,1,2,0:0:0:0:
32,176,67460,1,10,0:0:0:0:
56,264,67623,1,0,0:0:0:0:
80,344,67786,5,2,0:0:0:0:
120,368,67868,1,2,0:0:0:0:
160,376,67949,1,2,0:0:0:0:
200,368,68031,1,2,0:0:0:0:
240,344,68112,1,4,0:0:0:0:
392,264,68438,6,0,P|352:208|400:112,2,175,8|8|0,0:0|0:0|0:0,0:0:0:0:
352,344,69254,1,2,0:0:0:0:
296,280,69417,2,0,P|240:256|128:288,1,175,0|8,0:0|0:0,0:0:0:0:
104,368,69906,2,0,P|48:304|88:208,1,175,0|8,0:0|0:0,0:0:0:0:
128,152,70395,1,2,0:0:0:0:
160,72,70558,1,8,0:0:0:0:
216,136,70721,1,4,0:0:0:0:
384,80,71047,6,0,P|424:136|448:144,1,87.5,8|0,0:0|0:0,0:0:0:0:
360,216,71373,2,0,P|320:160|296:152,1,87.5,8|0,0:0|0:0,0:0:0:0:
232,112,71699,1,2,0:0:0:0:
200,192,71862,2,0,P|248:232|384:232,1,175,8|2,0:0|0:0,0:0:0:0:
304,176,72351,2,0,P|360:144|472:184,1,175,8|0,0:0|0:0,0:0:0:0:
432,256,72840,1,0,0:0:0:0:
368,320,73004,1,2,0:0:0:0:
328,344,73085,1,2,0:0:0:0:
288,352,73167,1,2,0:0:0:0:
248,344,73248,1,2,0:0:0:0:
208,320,73330,1,4,0:0:0:0:
152,152,73656,6,0,P|80:192|48:312,2,175,8|8|0,0:0|0:0|0:0,0:0:0:0:
184,232,74471,2,0,P|258:189|291:109,2,175,8|8|0,0:0|0:0|0:0,0:0:0:0:
152,152,75286,1,2,0:0:0:0:
96,80,75449,1,8,0:0:0:0:
64,160,75612,1,0,0:0:0:0:
64,248,75775,2,0,L|152:328,1,87.5,8|4,0:0|0:0,0:0:0:0:
256,192,76101,12,4,78547,0:0:0:0:
184,232,78873,6,0,P|192:192|304:104,1,175,8|2,0:0|0:0,0:0:0:0:
376,128,79362,1,2,0:0:0:0:
424,200,79525,2,0,P|392:280|319:325,1,175,8|2,0:0|0:0,0:0:0:0:
232,312,80014,1,2,0:0:0:0:
144,312,80177,6,0,P|96:280|72:232,1,87.5,8|0,0:0|0:0,0:0:0:0:
136,192,80504,2,0,P|173:213|199:248,1,87.5,2|0,0:0|0:0,0:0:0:0:
136,336,80830,2,0,P|88:304|64:256,1,87.5,8|0,0:0|0:0,0:0:0:0:
144,176,81156,2,0,P|192:208|216:256,1,87.5,2|0,0:0|0:0,0:0:0:0:
288,264,81482,2,0,P|352:248|408:160,1,175,8|2,0:0|0:0,0:0:0:0:
352,88,81971,1,2,0:0:0:0:
264,72,82134,5,8,0:0:0:0:
264,72,82297,1,8,0:0:0:0:
264,72,82460,2,0,B|200:56|184:112|88:72,1,175,2|8,0:0|0:0,0:0:0:0:
56,144,82949,2,0,L|96:200,1,52.5000020027161,0|2,0:0|0:0,0:0:0:0:
56,256,83275,2,0,L|120:288,1,52.5000020027161,2|10,0:0|0:0,0:0:0:0:
96,360,83601,2,0,L|168:360,1,52.5000020027161,2|4,0:0|0:0,0:0:0:0:
304,280,84090,6,0,P|336:208|288:104,1,175,8|2,0:0|0:0,0:0:0:0:
256,48,84580,1,2,0:0:0:0:
208,120,84743,2,0,P|178:200|210:279,1,175,8|2,0:0|0:0,0:0:0:0:
376,224,85395,2,0,L|464:192,1,87.5,8|0,0:0|0:0,0:0:0:0:
456,104,85721,2,0,L|373:74,1,87.5,2|0,0:0|0:0,0:0:0:0:
320,144,86047,2,0,L|120:144,2,175,8|2|8,0:0|0:0|0:0,0:0:0:0:
208,280,87025,5,2,0:0:0:0:
136,336,87188,1,2,0:0:0:0:
128,248,87351,1,8,0:0:0:0:
272,352,87677,2,0,P|296:312|304:264,1,87.5,2|0,0:0|0:0,0:0:0:0:
392,280,88004,2,0,P|384:208|368:176,1,87.5,8|0,0:0|0:0,0:0:0:0:
448,144,88330,2,0,P|416:88|368:48,1,87.5,8|0,0:0|0:0,0:0:0:0:
312,56,88656,1,8,0:0:0:0:
272,56,88737,1,2,0:0:0:0:
232,64,88819,1,2,0:0:0:0:
200,88,88900,1,2,0:0:0:0:
184,128,88982,1,4,0:0:0:0:
328,224,89308,6,0,P|272:288|152:272,2,175,8|8|8,0:0|0:0|0:0,0:0:0:0:
256,176,90123,1,2,0:0:0:0:
184,128,90286,2,0,P|264:88|336:144,1,175,8|8,0:0|0:0,0:0:0:0:
328,304,90938,2,0,P|254:344|182:302,1,175,8|8,0:0|0:0,0:0:0:0:
80,160,91590,6,0,P|128:128|248:184,1,175,8|8,0:0|0:0,0:0:0:0:
272,240,92080,1,2,0:0:0:0:
328,304,92243,2,0,P|404:340|481:303,2,175,8|8|8,0:0|0:0|0:0,0:0:0:0:
360,224,93058,1,2,0:0:0:0:
424,160,93221,2,0,P|344:128|256:168,2,175,8|8|8,0:0|0:0|0:0,0:0:0:0:
360,224,94036,2,4,P|320:248|248:248,1,87.5,2|4,0:0|0:0,0:0:0:0:
256,192,94362,12,8,95504,0:0:0:0:
200,248,95830,6,0,P|168:208|208:96,1,175,8|8,0:0|0:0,0:0:0:0:
248,176,96319,1,0,0:0:0:0:
328,136,96482,2,0,L|416:152,1,87.5,8|2,0:0|0:0,0:0:0:0:
392,232,96808,2,0,P|368:272|240:304,2,175,8|8|8,0:0|0:0|0:0,0:0:0:0:
416,152,97623,1,2,0:0:0:0:
360,80,97786,2,0,B|320:128|336:184|336:184|272:224,1,175,8|0,0:0|0:0,0:0:0:0:
168,288,98357,5,8,0:0:0:0:
120,280,98438,2,0,P|88:208|96:104,1,175,8|0,0:0|0:0,0:0:0:0:
128,80,98846,1,2,0:0:0:0:
168,72,98927,1,2,0:0:0:0:
208,144,99090,1,2,0:0:0:0:
232,184,99172,1,2,0:0:0:0:
256,216,99254,1,2,0:0:0:0:
344,232,99417,6,0,P|328:168|296:128,1,87.5,2|2,0:0|0:0,0:0:0:0:
296,80,99743,1,8,0:0:0:0:
296,80,99906,1,8,0:0:0:0:
208,72,100069,5,0,0:0:0:0:
168,72,100150,1,0,0:0:0:0:
128,88,100232,1,0,0:0:0:0:
48,128,100395,2,0,B|80:192|160:176|160:176|208:240,1,175,2|4,0:0|0:0,0:0:0:0:
192,336,105612,6,0,P|136:288|112:200,1,140,0|4,0:0|0:0,0:0:0:0:
232,152,106264,2,0,P|272:88|360:64,1,140,2|0,0:0|0:0,0:0:0:0:
400,88,106754,2,0,P|416:168|456:240,2,140,2|2|0,0:0|0:0|0:0,0:0:0:0:
336,152,107569,2,0,P|320:208|296:240,2,70,2|0|2,0:0|0:0|0:0,0:0:0:0:
360,288,108221,2,0,P|304:312|248:256,1,140,0|4,0:0|0:0,0:0:0:0:
176,144,108873,6,0,P|128:200|120:272,2,140,2|2|0,0:0|0:0|0:0,0:0:0:0:
200,80,109688,2,0,B|256:40|256:40|328:88,1,140,2|0,0:0|0:0,0:0:0:0:
352,136,110177,2,0,P|368:216|416:280,2,140,2|0|2,0:0|0:0|0:0,0:0:0:0:
288,160,110993,1,0,0:0:0:0:
264,184,111074,1,0,0:0:0:0:
240,208,111156,1,4,0:0:0:0:
112,328,111482,6,0,P|64:256|64:152,1,175,8|2,0:0|0:0,0:0:0:0:
112,96,111971,1,0,0:0:0:0:
152,176,112134,2,0,B|216:136|200:64|200:64|272:40,1,175,8|2,0:0|0:0,0:0:0:0:
288,128,112623,1,2,0:0:0:0:
336,200,112786,2,0,P|376:152|328:48,2,175,8|0|8,0:0|0:0|0:0,0:0:0:0:
176,264,113764,1,4,0:0:0:0:
336,328,114090,6,0,P|400:288|432:192,1,175,8|2,0:0|0:0,0:0:0:0:
368,136,114580,1,2,0:0:0:0:
352,224,114743,2,0,P|288:176|296:80,1,175,8|2,0:0|0:0,0:0:0:0:
120,96,115395,6,0,P|112:168|32:248,1,175,8|2,0:0|0:0,0:0:0:0:
104,304,115884,1,2,0:0:0:0:
176,256,116047,2,0,P|192:312|168:352,1,87.5
304,296,116373,1,4,0:0:0:0:
328,120,116699,6,0,P|384:58|465:78,1,175,8|2,0:0|0:0,0:0:0:0:
184,264,117351,2,0,P|128:326|47:306,1,175,8|2,0:0|0:0,0:0:0:0:
184,120,118004,2,0,P|128:58|47:78,1,175,8|2,0:0|0:0,0:0:0:0:
104,144,118493,1,2,0:0:0:0:
56,216,118656,1,8,0:0:0:0:
104,288,118819,1,8,0:0:0:0:
56,360,118982,1,4,0:0:0:0:
232,336,119308,6,0,L|416:336,1,175,8|2,0:0|0:0,0:0:0:0:
328,176,119960,2,0,L|144:176,1,175,8|2,0:0|0:0,0:0:0:0:
112,176,120368,1,2,0:0:0:0:
72,176,120449,1,2,0:0:0:0:
88,88,120612,5,8,0:0:0:0:
264,88,120938,1,2,0:0:0:0:
304,88,121020,1,2,0:0:0:0:
344,96,121101,1,2,0:0:0:0:
408,152,121264,2,0,P|408:208|376:248,1,87.5,8|0,0:0|0:0,0:0:0:0:
360,264,121509,1,0,0:0:0:0:
320,280,121590,1,4,0:0:0:0:
120,264,121917,6,0,P|160:208|112:112,2,175,8|8|0,0:0|0:0|0:0,0:0:0:0:
160,344,122732,1,2,0:0:0:0:
216,280,122895,2,0,P|272:256|384:288,1,175,0|8,0:0|0:0,0:0:0:0:
408,368,123384,2,0,P|464:304|424:208,1,175,0|8,0:0|0:0,0:0:0:0:
384,152,123873,1,2,0:0:0:0:
352,72,124036,1,8,0:0:0:0:
296,136,124199,1,4,0:0:0:0:
128,80,124525,6,0,P|88:136|64:144,1,87.5,8|0,0:0|0:0,0:0:0:0:
152,216,124851,2,0,P|192:160|216:152,1,87.5,8|0,0:0|0:0,0:0:0:0:
240,232,125177,1,2,0:0:0:0:
320,272,125340,2,0,P|272:312|136:312,1,175,8|2,0:0|0:0,0:0:0:0:
192,240,125829,2,0,P|136:208|24:248,1,175,8|0,0:0|0:0,0:0:0:0:
48,320,126318,1,0,0:0:0:0:
144,320,126482,1,2,0:0:0:0:
184,344,126563,1,2,0:0:0:0:
224,352,126645,1,2,0:0:0:0:
264,344,126726,1,2,0:0:0:0:
304,320,126808,1,4,0:0:0:0:
424,192,127134,6,0,B|400:136|336:144|304:64,1,175,8|8,0:0|0:0,0:0:0:0:
216,72,127623,1,0,0:0:0:0:
144,128,127786,2,0,B|128:152|96:152|72:192,1,87.5,2|8,0:0|0:0,0:0:0:0:
152,224,128112,2,0,B|232:256|232:256|328:224,1,175,2|8,0:0|0:0,0:0:0:0:
392,272,128601,1,0,0:0:0:0:
432,192,128764,2,0,P|464:136|456:96,2,87.5,2|8|2,0:0|0:0|0:0,0:0:0:0:
376,120,129254,2,0,P|336:96|288:96,1,87.5,8|4,0:0|0:0,0:0:0:0:
256,192,129580,12,4,132025,0:0:0:0:
208,240,132351,6,0,B|144:184|144:184|144:80,1,175,8|2,0:0|0:0,0:0:0:0:
216,40,132840,1,0,0:0:0:0:
240,120,133004,2,0,B|240:168|240:168|304:216|304:216|304:272,1,175,8|2,0:0|0:0,0:0:0:0:
400,112,133656,6,0,B|368:192|368:192|280:256,1,175,8|2,0:0|0:0,0:0:0:0:
256,320,134145,1,2,0:0:0:0:
215,244,134308,2,0,B|144:192|144:192|112:112,1,175,8|2,0:0|0:0,0:0:0:0:
288,144,134960,6,0,P|365:108|442:142,1,175,8|2,0:0|0:0,0:0:0:0:
368,192,135449,1,0,0:0:0:0:
440,240,135612,2,0,P|376:272|336:272,1,87.5,2|8,0:0|0:0,0:0:0:0:
280,232,135938,2,0,B|216:240|216:288|128:312,1,175,2|8,0:0|0:0,0:0:0:0:
72,144,136590,1,2,0:0:0:0:
128,216,136754,1,2,0:0:0:0:
160,136,136917,1,8,0:0:0:0:
216,208,137080,1,2,0:0:0:0:
248,128,137243,1,4,0:0:0:0:
416,72,137569,6,0,P|432:144|416:248,1,175,8|2,0:0|0:0,0:0:0:0:
352,304,138058,1,2,0:0:0:0:
264,320,138221,2,0,P|200:336|80:312,1,175,8|0,0:0|0:0,0:0:0:0:
48,240,138710,2,0,L|48:144,1,87.5,2|8,0:0|0:0,0:0:0:0:
224,144,139199,5,0,0:0:0:0:
264,224,139362,1,0,0:0:0:0:
320,152,139525,1,8,0:0:0:0:
320,152,139851,2,0,P|352:232|280:312,1,175,2|8,0:0|0:0,0:0:0:0:
224,296,140340,1,2,0:0:0:0:
88,192,140667,6,0,L|136:80,1,87.5,2|8,0:0|0:0,0:0:0:0:
288,48,141156,2,0,L|208:240,1,175,8|8,0:0|0:0,0:0:0:0:
72,304,141808,2,0,B|160:264|160:328|264:296,1,175,8|2,0:0|0:0,0:0:0:0:
288,288,142215,1,2,0:0:0:0:
328,280,142297,1,2,0:0:0:0:
368,288,142379,1,2,0:0:0:0:
408,296,142460,6,0,P|448:232|440:104,2,175,8|8|8,0:0|0:0|0:0,0:0:0:0:
368,216,143275,1,0,0:0:0:0:
344,136,143438,2,0,B|288:160|288:216|288:216|208:216,1,175,8|8,0:0|0:0,0:0:0:0:
176,136,143927,1,2,0:0:0:0:
104,80,144090,6,0,P|80:160|112:256,2,175,8|8|8,0:0|0:0|0:0,0:0:0:0:
176,136,144906,1,0,0:0:0:0:
240,200,145069,2,0,P|264:282|239:365,2,175,8|8|8,0:0|0:0|0:0,0:0:0:0:
296,136,145884,1,2,0:0:0:0:
352,200,146047,6,0,P|384:136|320:56,2,175,8|8|8,0:0|0:0|0:0,0:0:0:0:
272,240,146862,1,2,0:0:0:0:
256,328,147025,2,0,L|176:288,1,87.5,8|2,0:0|0:0,0:0:0:0:
96,248,147351,2,0,L|176:208,1,87.5,8|2,0:0|0:0,0:0:0:0:
256,192,147677,12,8,148982,0:0:0:0:
144,264,149308,6,0,P|104:208|152:112,2,175,8|8|8,0:0|0:0|0:0,0:0:0:0:
232,280,150123,1,0,0:0:0:0:
296,344,150286,2,0,P|320:272|264:192,1,175,8|8,0:0|0:0,0:0:0:0:
224,120,150775,1,2,0:0:0:0:
312,120,150938,2,0,P|376:184|400:296,2,175,8|8|8,0:0|0:0|0:0,0:0:0:0:
216,72,151754,5,0,0:0:0:0:
112,64,151917,2,0,P|96:136|136:240,1,175,8|0,0:0|0:0,0:0:0:0:
168,264,152324,1,0,0:0:0:0:
216,288,152406,1,2,0:0:0:0:
264,296,152487,1,2,0:0:0:0:
312,288,152569,1,8,0:0:0:0:
360,272,152650,1,8,0:0:0:0:
400,240,152732,1,8,0:0:0:0:
416,192,152813,1,8,0:0:0:0:
256,192,152895,12,8,157460,0:0:0:0:
256,192,157623,5,8,0:0:0:0:
80,104,158112,6,0,B|136:64|192:144|240:80,1,140,8|0,0:0|0:0,0:0:0:0:
280,72,158601,1,2,0:0:0:0:
328,128,158764,2,0,P|352:200|400:256,1,140,8|0,0:0|0:0,0:0:0:0:
384,320,159254,1,2,0:0:0:0:
248,272,159580,5,0,0:0:0:0:
208,216,159743,1,2,0:0:0:0:
168,160,159906,1,0,0:0:0:0:
128,104,160069,1,8,0:0:0:0:
88,160,160232,2,0,L|40:232,1,70
32,288,160558,1,0,0:0:0:0:
96,312,160721,6,0,P|160:328|240:312,1,140,2|0,0:0|0:0,0:0:0:0:
296,296,161210,2,0,P|336:296|376:304,1,70,2|8,0:0|0:0,0:0:0:0:
408,168,161699,2,0,L|344:96,1,70,0|2,0:0|0:0,0:0:0:0:
224,96,162188,2,0,L|160:24,2,70,0|2|0,0:0|0:0|0:0,0:0:0:0:
272,144,162677,1,8,0:0:0:0:
64,192,163167,5,0,0:0:0:0:
64,192,163330,2,0,B|104:224|96:264|96:264|136:304,1,140,4|0,0:0|0:0,0:0:0:0:
200,328,163819,2,0,L|280:360,1,70,0|8,0:0|0:0,0:0:0:0:
368,264,164308,5,0,0:0:0:0:
368,264,164471,2,0,B|360:208|344:184|344:184|288:136,1,140,2|0,0:0|0:0,0:0:0:0:
240,112,164960,2,0,B|176:88|176:88|80:120,1,140,2|8,0:0|0:0,0:0:0:0:
64,168,165449,1,8,0:0:0:0:
32,232,165612,1,2,0:0:0:0:
104,232,165775,1,2,0:0:0:0:
104,232,165938,6,0,B|160:216|184:256|256:224,1,140,8|0,0:0|0:0,0:0:0:0:
272,296,166427,2,0,P|320:240|320:216,1,70,2|8,0:0|0:0,0:0:0:0:
304,104,166917,5,2,0:0:0:0:
368,80,167080,2,0,B|408:144|408:144|360:216,1,140,2|8,0:0|0:0,0:0:0:0:
304,224,167569,1,0,0:0:0:0:
232,224,167732,2,0,L|136:224,1,70,0|8,0:0|0:0,0:0:0:0:
176,296,168058,2,0,L|112:328,1,70,8|0,0:0|0:0,0:0:0:0:
56,288,168384,2,0,L|24:208,1,70,8|4,0:0|0:0,0:0:0:0:
88,96,168873,6,0,L|113:160,1,70
160,208,169199,2,0,P|248:232|304:200,1,140,8|2,0:0|0:0,0:0:0:0:
336,160,169688,2,0,B|376:216|336:264|336:264|368:296,1,140
424,288,170177,2,0,P|448:224|424:144,1,140,0|8,0:0|0:0,0:0:0:0:
384,104,170667,2,0,L|328:40,1,70,2|0,0:0|0:0,0:0:0:0:
264,48,170993,2,0,L|217:100,1,70,2|2,0:0|0:0,0:0:0:0:
144,224,171482,5,0,0:0:0:0:
184,280,171645,1,0,0:0:0:0:
224,224,171808,2,8,L|376:224,1,140,8|0,0:0|0:0,0:0:0:0:
400,168,172297,2,0,L|424:88,1,70,2|8,0:0|0:0,0:0:0:0:
352,112,172623,2,0,L|320:40,1,70,2|8,0:0|0:0,0:0:0:0:
264,80,172949,1,0,0:0:0:0:
216,128,173112,5,8,0:0:0:0:
184,144,173194,1,8,0:0:0:0:
160,176,173275,1,8,0:0:0:0:
144,208,173357,1,2,0:0:0:0:
144,240,173438,1,2,0:0:0:0:
152,272,173520,1,2,0:0:0:0:
168,304,173601,1,0,0:0:0:0:
192,328,173683,1,0,0:0:0:0:
216,352,173764,1,0,0:0:0:0:
384,160,178982,5,4,0:0:0:0:
312,160,179145,2,0,L|216:160,1,70,0|8,0:0|0:0,0:0:0:0:
200,216,179471,2,0,P|176:256|80:288,1,140,0|2,0:0|0:0,0:0:0:0:
32,256,179960,2,0,P|32:184|72:112,1,140,8|2,0:0|0:0,0:0:0:0:
128,120,180449,1,0,0:0:0:0:
184,80,180612,6,0,P|240:56|328:96,1,140,8|0,0:0|0:0,0:0:0:0:
368,120,181101,1,2,0:0:0:0:
432,144,181264,2,0,P|461:206|461:276,1,140,8|4,0:0|0:0,0:0:0:0:
400,296,181754,2,0,P|376:288|328:296,1,70,0|8,0:0|0:0,0:0:0:0:
296,352,182080,2,0,P|232:360|152:352,1,140,2|8,0:0|0:0,0:0:0:0:
96,320,182569,2,0,P|56:280|32:200,1,140,2|0,0:0|0:0,0:0:0:0:
80,152,183058,6,0,P|112:144|144:120,1,70,2|8,0:0|0:0,0:0:0:0:
280,88,183547,1,8,0:0:0:0:
304,112,183629,1,0,0:0:0:0:
328,136,183710,1,2,0:0:0:0:
328,208,183873,1,8,0:0:0:0:
304,232,183955,1,0,0:0:0:0:
280,256,184036,1,2,0:0:0:0:
224,216,184199,6,0,B|168:240|168:304|96:312,2,140,2|8|2,0:0|0:0|0:0,0:0:0:0:
224,144,185014,2,0,B|170:120|170:56|121:54,2,140,10|2|2,0:0|0:0|0:0,0:0:0:0:
280,184,185830,1,8,0:0:0:0:
400,104,186156,1,2,0:0:0:0:
400,104,186482,1,8,0:0:0:0:
376,128,186563,1,0,0:0:0:0:
352,152,186645,1,0,0:0:0:0:
328,176,186726,1,0,0:0:0:0:
304,200,186808,1,0,0:0:0:0:
208,304,187134,6,0,P|136:232|120:192,2,140,8|2|8,0:0|0:0|0:0,0:0:0:0:
272,280,187949,1,2,0:0:0:0:
176,176,188275,1,0,0:0:0:0:
128,120,188438,1,8,0:0:0:0:
200,112,188601,1,2,0:0:0:0:
248,64,188764,2,0,B|280:96|256:160|256:160|312:184,1,140,10|8,0:0|0:0,0:0:0:0:
256,192,189417,12,8,192025,0:0:0:0:
184,152,193330,6,0,L|136:144,2,35
328,232,193656,2,0,L|376:240,2,35
184,232,193982,2,0,L|136:240,2,35
288,168,194308,1,8,0:0:0:0:
280,144,194389,1,8,0:0:0:0:
296,120,194471,1,8,0:0:0:0:
328,120,194552,1,0,0:0:0:0:
352,128,194634,6,0,P|384:168|384:216,1,97.9999970092774,2|0,0:0|0:0,0:0:0:0:
360,288,195123,2,0,P|336:320|336:344,1,48.9999985046387,2|10,0:0|0:0,0:0:0:0:
248,288,195612,1,0,0:0:0:0:
248,288,195775,2,0,P|216:280|144:288,1,97.9999970092774,2|0,0:0|0:0,0:0:0:0:
112,256,196264,2,0,L|64:232,1,48.9999985046387
72,112,196590,1,8,0:0:0:0:
168,88,196917,5,0,0:0:0:0:
240,88,197080,1,0,0:0:0:0:
272,152,197243,2,2,B|312:176|312:176|368:176,1,97.9999970092774
384,248,197732,2,0,L|416:304,1,48.9999985046387,2|8,0:0|0:0,0:0:0:0:
264,304,198221,2,0,L|239:346,1,48.9999985046387,2|0,0:0|0:0,0:0:0:0:
256,192,198547,12,0,199851,0:0:0:0:
160,280,200177,6,0,P|216:176|288:152,1,175,8|2,0:0|0:0,0:0:0:0:
344,216,200667,1,0,0:0:0:0:
312,312,200830,2,0,P|238:267|208:186,1,175,8|2,0:0|0:0,0:0:0:0:
280,112,201319,1,2,0:0:0:0:
384,136,201482,6,0,P|424:224|376:296,2,175,8|2|8,0:0|0:0|0:0,0:0:0:0:
240,296,202460,2,0,P|176:280|112:160,1,175,0|8,0:0|0:0,0:0:0:0:
200,136,202949,1,0,0:0:0:0:
288,72,203112,1,2,0:0:0:0:
368,136,203275,1,2,0:0:0:0:
288,200,203438,6,0,P|256:240|216:264,1,87.5,8|8,0:0|0:0,0:0:0:0:
192,360,203764,2,0,P|136:320|136:208,1,175,0|8,0:0|0:0,0:0:0:0:
144,144,204254,2,0,L|200:120,1,52.5000020027161
328,144,204580,2,0,L|280:124,1,52.5000020027161,0|8,0:0|0:0,0:0:0:0:
240,208,204906,1,2,0:0:0:0:
240,208,205069,2,0,B|296:240|288:304|368:336,1,175,4|8,0:0|0:0,0:0:0:0:
440,136,205721,5,2,0:0:0:0:
400,232,205884,1,0,0:0:0:0:
328,160,206047,1,8,0:0:0:0:
240,112,206210,1,2,0:0:0:0:
152,160,206373,2,0,P|112:192|64:208,1,87.5,0|2,0:0|0:0,0:0:0:0:
80,312,206699,2,0,P|120:328|153:357,1,87.5,8|0,0:0|0:0,0:0:0:0:
248,304,207025,2,0,P|320:272|416:320,2,175,2|8|2,0:0|0:0|0:0,0:0:0:0:
360,128,208004,6,0,P|288:160|192:112,1,175,8|2,0:0|0:0,0:0:0:0:
96,304,208656,2,0,L|152:232,2,87.5,8|2|2,0:0|0:0|0:0,0:0:0:0:
304,320,209308,2,0,B|400:272|400:272|416:192,1,175,8|8,0:0|0:0,0:0:0:0:
392,104,209797,1,0,0:0:0:0:
296,72,209960,1,8,0:0:0:0:
248,64,210042,1,8,0:0:0:0:
192,56,210123,1,0,0:0:0:0:
136,56,210205,1,0,0:0:0:0:
88,72,210286,1,4,0:0:0:0:
232,224,210612,6,0,P|192:280|72:304,1,175,8|2,0:0|0:0,0:0:0:0:
40,216,211101,1,0,0:0:0:0:
128,160,211264,2,0,P|144:240|224:320,1,175,8|2,0:0|0:0,0:0:0:0:
312,320,211754,2,0,L|400:320,1,87.5,2|8,0:0|0:0,0:0:0:0:
464,240,212080,2,0,L|376:240,1,87.5
312,160,212406,1,2,0:0:0:0:
248,248,212569,1,8,0:0:0:0:
184,160,212732,1,2,0:0:0:0:
96,104,212895,6,0,P|184:72|272:128,1,175,2|8,0:0|0:0,0:0:0:0:
408,248,213547,2,0,P|320:280|232:224,1,175,2|8,0:0|0:0,0:0:0:0:
184,160,214036,1,2,0:0:0:0:
288,160,214199,2,0,P|256:224|144:256,1,175,2|8,0:0|0:0,0:0:0:0:
360,192,214851,6,0,B|432:136|432:136|480:56,2,175,2|8|4,0:0|0:0|0:0,0:0:0:0:
256,192,215667,12,0,216808,0:0:0:0:
152,160,217134,5,8,0:0:0:0:
256,344,217460,1,2,0:0:0:0:
432,232,217786,1,8,0:0:0:0:
328,48,218112,5,2,0:0:0:0:
240,104,218275,1,8,0:0:0:0:
152,160,218438,1,8,0:0:0:0:
360,144,218764,2,0,P|320:208|288:224,1,87.5,2|0,0:0|0:0,0:0:0:0:
152,240,219090,2,0,P|192:176|224:160,1,87.5,8|0,0:0|0:0,0:0:0:0:
272,248,219417,2,8,L|312:280,2,43.75,8|8|8,0:0|0:0|0:0,0:0:0:0:
304,152,219743,1,0,0:0:0:0:
200,168,219906,2,0,L|160:200,2,43.75,8|8|8,0:0|0:0|0:0,0:0:0:0:
256,80,220232,1,0,0:0:0:0:
320,136,220395,1,0,0:0:0:0:
336,184,220476,1,8,0:0:0:0:
320,232,220558,1,8,0:0:0:0:
272,256,220639,1,8,0:0:0:0:
256,192,220721,12,12,225938,0:0:0:0:
