osu file format v14

[General]
AudioFilename: 1st ED 2nd season.mp3
AudioLeadIn: 1000
PreviewTime: 45454
Countdown: 0
SampleSet: Normal
StackLeniency: 0.7
Mode: 0
LetterboxInBreaks: 0
WidescreenStoryboard: 0

[Editor]
Bookmarks: 75689
DistanceSpacing: 1
BeatDivisor: 4
GridSize: 4
TimelineZoom: 1.2

[Metadata]
Title:triangle -TV size-
TitleUnicode:triangle -TVサイズ-
Artist:Kawada Mami
ArtistUnicode:川田まみ
Creator:Inyuschan
Version:eINess' Hard
Source:灼眼のシャナ II
Tags:Shakugan no Shana 2nd Season 1st Ending ED Gaia eINess
BeatmapID:665034
BeatmapSetID:289964

[Difficulty]
HPDrainRate:5.5
CircleSize:4
OverallDifficulty:6
ApproachRate:7
SliderMultiplier:1.56
SliderTickRate:1

[Events]
//Background and Video events
0,0,"Konachan.com - 84433 sample.jpg",0,0
//Break Periods
//Storyboard Layer 0 (Background)
//Storyboard Layer 1 (Fail)
//Storyboard Layer 2 (Pass)
//Storyboard Layer 3 (Foreground)
//Storyboard Sound Samples

[TimingPoints]
689,468.75,4,1,1,60,1,0
15689,-100,4,2,1,60,0,0
45689,-100,4,1,1,70,0,1
74985,-100,4,3,1,70,0,1
75689,-100,4,1,1,70,0,0
83892,-100,4,1,1,60,0,0
84595,-100,4,1,1,50,0,0
85767,-100,4,1,1,40,0,0
86235,-100,4,1,1,30,0,0
86939,-100,4,1,1,30,0,0
87056,-100,4,2,1,20,0,0
87407,-100,4,2,1,20,0,0
87876,-100,4,2,1,15,0,0
88345,-100,4,2,1,15,0,0
88814,-100,4,2,1,10,0,0
89282,-100,4,2,1,10,0,0
89751,-100,4,2,1,5,0,0

[Colours]
Combo1 : 166,152,220
Combo2 : 122,164,241
Combo3 : 222,158,243
Combo4 : 157,111,108

[HitObjects]
184,64,689,5,4,0:0:0:0:
128,120,923,2,0,B|120:168|120:168|136:280,1,156,0|0,0:0|0:0,0:0:0:0:
196,324,1626,2,0,P|236:296|352:296,1,156,0|8,0:0|0:0,0:0:0:0:
408,328,2329,1,0,0:0:0:0:
468,280,2564,6,0,L|472:220,3,39,0|0|0|0,0:0|0:0|0:0|0:0,0:0:0:0:
472,204,3032,1,8,0:0:0:0:
432,136,3267,1,0,0:0:0:0:
356,152,3501,2,0,L|304:156,3,39,0|0|0|0,0:0|0:0|0:0|0:0,0:0:0:0:
284,136,3970,2,0,L|232:140,3,39,8|0|0|0,0:0|0:0|0:0|0:0,0:0:0:0:
208,124,4439,5,0,0:0:0:0:
64,184,4907,2,0,L|72:296,1,78,8|0,0:0|0:0,0:0:0:0:
116,324,5376,1,0,0:0:0:0:
188,288,5610,2,0,P|236:268|340:288,1,156,0|0,0:0|0:0,0:0:0:0:
412,272,6314,6,0,L|416:216,3,39,0|0|0|0,0:0|0:0|0:0|0:0,0:0:0:0:
416,196,6782,1,8,0:0:0:0:
452,128,7017,1,0,0:0:0:0:
400,72,7251,2,0,L|300:76,1,78,0|0,0:0|0:0,0:0:0:0:
248,100,7720,2,0,L|170:96,1,78,8|0,0:0|0:0,0:0:0:0:
104,56,8189,5,4,0:0:0:0:
48,112,8423,2,0,B|36:148|36:148|44:280,1,156,0|0,0:0|0:0,0:0:0:0:
108,308,9126,2,0,B|136:284|136:284|276:292,1,156,0|8,0:0|0:0,0:0:0:0:
312,344,9829,1,0,0:0:0:0:
372,292,10064,6,0,L|376:240,3,39,0|0|0|0,0:0|0:0|0:0|0:0,0:0:0:0:
376,216,10532,1,8,0:0:0:0:
392,140,10767,2,0,P|336:148|308:176,1,78,0|0,0:0|0:0,0:0:0:0:
248,188,11235,2,0,L|148:184,1,78,0|8,0:0|0:0,0:0:0:0:
108,232,11704,1,0,0:0:0:0:
52,176,11939,5,4,0:0:0:0:
156,60,12407,2,0,L|320:48,1,156,8|4,0:0|0:0,0:0:0:0:
364,108,13110,2,0,P|359:143|368:204,1,78,0|8,0:0|0:0,0:0:0:0:
388,260,13579,1,0,0:0:0:0:
332,316,13814,6,0,L|248:324,2,78,0|0|8,0:0|0:0|0:0,0:0:0:0:
388,260,14517,1,0,0:0:0:0:
464,284,14751,2,0,P|476:336|468:368,2,78,0|0|8,0:0|0:0|0:0,0:0:0:0:
388,260,15454,1,0,0:0:0:0:
340,196,15689,6,0,P|328:136|336:100,1,78,4|0,0:0|0:0,0:0:0:0:
276,64,16157,2,0,L|112:56,1,156,2|0,0:0|0:0,0:0:0:0:
64,112,16860,2,0,P|64:148|36:208,1,78,0|2,0:0|0:0,0:0:0:0:
108,240,17329,6,0,P|132:204|140:152,1,78,0|0,0:0|0:0,0:0:0:0:
212,140,17798,2,0,L|312:144,1,78,0|2,0:0|0:0,0:0:0:0:
364,172,18267,1,0,0:0:0:0:
424,120,18501,2,0,P|436:80|436:28,2,78,0|0|2,0:0|0:0|0:0,0:0:0:0:
364,172,19204,6,0,P|360:228|372:276,1,78,0|0,0:0|0:0,0:0:0:0:
416,308,19673,2,0,P|356:280|260:300,1,156,2|0,0:0|0:0,0:0:0:0:
204,340,20376,1,0,0:0:0:0:
156,280,20610,2,0,L|148:192,1,78,0|2,0:0|0:0,0:0:0:0:
72,184,21079,6,0,L|79:261,2,78,0|0|0,0:0|0:0|0:0,0:0:0:0:
36,116,21782,1,2,0:0:0:0:
100,68,22017,2,0,P|148:48|268:48,1,156,0|0,0:0|0:0,0:0:0:0:
328,52,22720,2,0,L|372:12,2,39,8|0|0,0:0|0:0|0:0,0:0:0:0:
288,120,23189,6,0,P|284:180|288:204,1,78,4|0,0:0|0:0,0:0:0:0:
348,248,23657,2,0,P|256:248|192:304,1,156,2|0,0:0|0:0,0:0:0:0:
148,336,24360,2,0,P|88:340|52:328,1,78,0|2,0:0|0:0,0:0:0:0:
32,268,24829,6,0,L|28:190,1,78,0|0,0:0|0:0,0:0:0:0:
7,116,25298,2,0,P|56:116|84:136,1,78,0|2,0:0|0:0,0:0:0:0:
140,184,25767,1,0,0:0:0:0:
192,124,26001,2,0,L|184:40,2,78,0|0|2,0:0|0:0|0:0,0:0:0:0:
255,167,26704,6,0,P|294:168|333:165,1,78,0|0,0:0|0:0,0:0:0:0:
384,104,27173,2,0,P|412:160|408:184,1,78,0|2,0:0|0:0,0:0:0:0:
372,240,27642,1,0,0:0:0:0:
424,300,27876,2,0,L|520:292,2,78,0|0|2,0:0|0:0|0:0,0:0:0:0:
372,240,28579,6,0,L|264:232,1,78,4|0,0:0|0:0,0:0:0:0:
252,300,29048,2,0,L|144:292,1,78,0|2,0:0|0:0,0:0:0:0:
116,240,29517,1,0,0:0:0:0:
44,288,29751,2,0,L|36:365,1,78,2|0,0:0|0:0,0:0:0:0:
116,240,30220,2,0,L|108:162,1,78,2|0,0:0|0:0,0:0:0:0:
148,92,30689,6,0,P|216:100|308:56,1,156,4|8,0:0|0:0,0:0:0:0:
364,104,31392,2,0,L|368:192,1,78,0|2,0:0|0:0,0:0:0:0:
444,168,31860,2,0,L|448:256,1,78,0|8,0:0|0:0,0:0:0:0:
392,300,32329,1,0,0:0:0:0:
392,300,32446,1,0,0:0:0:0:
392,300,32564,6,0,B|340:280|340:280|241:297,1,156,2|8,0:0|0:0,0:0:0:0:
176,340,33267,2,0,P|163:303|169:265,1,78,0|2,0:0|0:0,0:0:0:0:
200,196,33735,2,0,L|196:100,1,78,0|8,0:0|0:0,0:0:0:0:
196,80,34087,1,0,0:0:0:0:
196,80,34204,1,0,0:0:0:0:
268,48,34439,6,0,B|296:32|296:32|440:48,1,156,2|8,0:0|0:0,0:0:0:0:
472,104,35142,1,0,0:0:0:0:
396,120,35376,2,0,L|296:108,2,78,2|0|8,0:0|0:0|0:0,0:0:0:0:
440,184,36079,1,0,0:0:0:0:
440,184,36314,6,0,P|440:236|424:276,1,78,2|0,0:0|0:0,0:0:0:0:
364,300,36782,1,8,0:0:0:0:
304,248,37017,2,0,L|308:192,2,39,4|0|2,0:3|0:0|0:0,0:0:0:0:
248,304,37485,1,4,0:3:0:0:
192,252,37720,2,0,L|196:196,2,39,8|0|0,0:0|0:0|0:0,0:0:0:0:
136,308,38189,6,0,P|60:300|48:224,1,156,4|2,0:0|0:0,0:0:0:0:
76,160,38892,1,0,0:0:0:0:
124,96,39126,2,0,L|120:12,2,78,0|0|2,0:0|0:0|0:0,0:0:0:0:
184,148,39829,1,0,0:0:0:0:
236,52,40064,5,0,0:0:0:0:
304,92,40298,2,0,P|344:96|404:92,1,78,0|2,0:0|0:0,0:0:0:0:
440,40,40767,1,0,0:0:0:0:
488,100,41001,2,0,L|484:192,1,78,4|0,0:3|0:0,0:0:0:0:
460,208,41353,1,4,0:3:0:0:
460,208,41470,2,0,L|456:300,1,78,2|0,0:0|0:0,0:0:0:0:
432,316,41821,1,0,0:0:0:0:
432,316,41939,6,0,P|352:340|260:328,1,156,4|4,0:3|0:0,0:0:0:0:
196,204,42876,2,0,P|276:180|368:192,1,156,4|2,0:3|0:0,0:0:0:0:
424,164,43579,6,0,L|432:112,2,39,4|4|2,0:3|0:3|0:0,0:0:0:0:
452,236,44048,1,0,0:0:0:0:
408,300,44282,2,0,L|224:312,1,156,2|2,0:0|0:0,0:0:0:0:
212,312,44868,1,0,0:0:0:0:
212,312,44985,1,0,0:0:0:0:
160,252,45220,1,2,0:0:0:0:
98,352,45454,1,0,0:0:0:0:
20,264,45689,6,0,B|4:216|4:216|28:96,1,156,4|8,0:0|0:0,0:0:0:0:
92,72,46392,1,0,0:0:0:0:
148,124,46626,2,0,P|208:140|272:124,2,117,2|0|0,0:0|0:0|0:0,0:0:0:0:
80,84,47564,5,2,0:0:0:0:
30,144,47798,2,0,L|24:252,1,78,0|8,0:0|0:0,0:0:0:0:
44,296,48267,1,0,0:0:0:0:
120,276,48501,1,2,0:0:0:0:
176,332,48735,1,0,0:0:0:0:
228,276,48970,2,0,L|224:212,2,39,8|0|0,0:0|0:0|0:0,0:0:0:0:
292,320,49439,6,0,P|384:312|428:260,1,156,2|8,0:0|0:0,0:0:0:0:
408,192,50142,1,0,0:0:0:0:
424,115,50376,2,0,P|368:64|292:64,1,156,2|8,0:0|0:0,0:0:0:0:
224,104,51079,6,0,P|184:112|140:104,1,78,0|2,0:0|0:0,0:0:0:0:
88,56,51548,1,0,0:0:0:0:
36,124,51782,2,0,B|24:168|24:168|32:280,1,156,8|2,0:0|0:0,0:0:0:0:
96,324,52485,1,0,0:0:0:0:
152,268,52720,2,0,L|148:204,2,39,8|0|0,0:0|0:0|0:0,0:0:0:0:
212,320,53189,6,0,P|260:336|368:324,1,156,4|8,0:0|0:0,0:0:0:0:
408,264,53892,1,0,0:0:0:0:
384,188,54126,2,0,P|400:112|440:80,2,117,2|0|0,0:0|0:0|0:0,0:0:0:0:
408,264,55064,5,2,0:0:0:0:
332,244,55298,2,0,L|232:248,1,78,0|8,0:0|0:0,0:0:0:0:
196,300,55767,1,0,0:0:0:0:
132,256,56001,2,0,P|124:188|124:160,1,78,2|0,0:0|0:0,0:0:0:0:
136,140,56353,1,0,0:0:0:0:
128,100,56470,2,0,L|72:88,2,39,8|0|0,0:0|0:0|0:0,0:0:0:0:
192,56,56939,6,0,L|368:48,1,156,2|8,0:0|0:0,0:0:0:0:
412,92,57642,1,0,0:0:0:0:
376,160,57876,2,0,B|364:224|408:264|408:264|360:296,1,156,2|8,0:0|0:0,0:0:0:0:
320,344,58579,1,0,0:0:0:0:
320,344,58696,1,0,0:0:0:0:
320,344,58814,6,0,L|212:340,1,78,2|0,0:0|0:0,0:0:0:0:
188,284,59282,1,8,0:0:0:0:
140,344,59517,1,0,0:0:0:0:
96,280,59751,1,2,0:0:0:0:
48,340,59985,1,0,0:0:0:0:
4,276,60220,2,0,L|12:184|12:184,1,78,8|0,0:0|0:0,0:0:0:0:
60,136,60689,5,4,0:0:0:0:
116,192,60923,2,0,P|160:196|204:188,1,78,0|8,0:0|0:0,0:0:0:0:
248,136,61392,2,0,P|292:132|336:140,1,78,0|2,0:0|0:0,0:0:0:0:
388,184,61860,2,0,L|392:284,1,78,0|8,0:0|0:0,0:0:0:0:
344,324,62329,6,0,P|292:312|248:316,1,78,0|2,0:0|0:0,0:0:0:0:
204,356,62798,1,0,0:0:0:0:
160,292,63032,1,8,0:0:0:0:
84,312,63267,2,0,L|76:372,2,39,0|0|2,0:0|0:0|0:0,0:0:0:0:
44,244,63735,1,0,0:0:0:0:
100,192,63970,2,0,L|96:108,1,78,8|0,0:0|0:0,0:0:0:0:
156,60,64439,6,0,P|212:84|332:56,1,156,4|8,0:0|0:0,0:0:0:0:
376,100,65142,2,0,P|392:152|380:196,1,78,0|2,0:0|0:0,0:0:0:0:
328,224,65610,2,0,P|312:172|324:128,1,78,0|8,0:0|0:0,0:0:0:0:
392,268,66079,1,0,0:0:0:0:
392,268,66314,6,0,P|344:300|312:300,1,78,2|0,0:0|0:0,0:0:0:0:
248,284,66782,2,0,L|140:288,1,78,8|0,0:0|0:0,0:0:0:0:
132,288,67134,1,0,0:0:0:0:
132,288,67251,1,2,0:0:0:0:
72,340,67485,1,0,0:0:0:0:
32,272,67720,2,0,P|24:236|28:168,1,78,8|0,0:0|0:0,0:0:0:0:
68,132,68189,5,4,0:0:0:0:
68,132,68423,2,0,L|156:136,1,78,0|8,0:0|0:0,0:0:0:0:
200,80,68892,2,0,L|288:84,1,78,0|2,0:0|0:0,0:0:0:0:
328,144,69360,2,0,P|312:192|316:240,1,78,0|8,0:0|0:0,0:0:0:0:
348,288,69829,1,0,0:0:0:0:
288,340,70064,6,0,L|180:332,1,78,2|0,0:0|0:0,0:0:0:0:
136,356,70532,1,8,0:0:0:0:
88,292,70767,1,0,0:0:0:0:
88,292,70884,1,0,0:0:0:0:
88,292,71001,2,0,P|76:248|76:188,1,78,2|0,0:0|0:0,0:0:0:0:
120,152,71470,1,8,0:0:0:0:
192,184,71704,1,0,0:0:0:0:
252,136,71939,5,4,0:0:0:0:
308,188,72173,2,0,L|312:280,1,78,0|8,0:0|0:0,0:0:0:0:
368,320,72642,2,0,P|408:324|464:304,1,78,6|0,0:0|0:0,0:0:0:0:
476,244,73110,1,0,0:0:0:0:
444,172,73345,1,8,0:0:0:0:
476,100,73579,2,0,P|484:60|488:16,2,78,4|0|0,0:0|0:0|0:0,0:0:0:0:
444,172,74282,6,0,L|276:176,1,156,8|2,0:0|0:0,0:0:0:0:
208,180,74985,1,0,0:0:0:0:
216,256,75220,2,0,L|212:316,3,39,2|0|0|0,0:0|0:0|0:0|0:0,0:0:0:0:
184,320,75689,5,4,0:0:0:0:
128,264,75923,2,0,B|120:216|120:216|136:104,1,156,0|0,0:0|0:0,0:0:0:0:
196,60,76626,2,0,P|236:88|352:88,1,156,0|8,0:0|0:0,0:0:0:0:
408,56,77329,1,0,0:0:0:0:
468,104,77564,6,0,L|472:164,3,39,0|0|0|0,0:0|0:0|0:0|0:0,0:0:0:0:
472,180,78032,1,8,0:0:0:0:
432,248,78267,1,0,0:0:0:0:
356,232,78501,2,0,L|304:228,3,39,0|0|0|0,0:0|0:0|0:0|0:0,0:0:0:0:
284,248,78970,2,0,L|232:244,3,39,8|0|0|0,0:0|0:0|0:0|0:0,0:0:0:0:
208,260,79439,5,0,0:0:0:0:
64,200,79907,2,0,L|72:88,1,78,8|0,0:0|0:0,0:0:0:0:
116,60,80376,1,0,0:0:0:0:
188,96,80610,2,0,P|236:116|340:96,1,156,0|0,0:0|0:0,0:0:0:0:
412,112,81314,6,0,L|416:168,3,39,0|0|0|0,0:0|0:0|0:0|0:0,0:0:0:0:
416,188,81782,1,8,0:0:0:0:
452,256,82017,1,0,0:0:0:0:
400,312,82251,2,0,L|300:308,1,78,0|0,0:0|0:0,0:0:0:0:
248,284,82720,2,0,L|170:288,1,78,8|0,0:0|0:0,0:0:0:0:
104,328,83189,5,4,0:0:0:0:
48,272,83423,2,0,B|36:236|36:236|44:104,1,156,0|0,0:0|0:0,0:0:0:0:
108,76,84126,2,0,B|136:100|136:100|276:92,1,156,0|8,0:0|0:0,0:0:0:0:
312,40,84829,1,0,0:0:0:0:
372,92,85064,6,0,L|376:144,3,39,0|0|0|0,0:0|0:0|0:0|0:0,0:0:0:0:
376,168,85532,1,8,0:0:0:0:
392,244,85767,2,0,P|336:236|308:208,1,78
248,196,86235,2,0,L|148:200,1,78,0|8,0:0|0:0,0:0:0:0:
108,152,86704,1,0,0:0:0:0:
52,208,86939,5,4,0:0:0:0:
256,192,87056,12,0,89751,0:0:0:0:
