osu file format v14

[General]
AudioFilename: 1st ED 2nd season.mp3
AudioLeadIn: 1000
PreviewTime: 45454
Countdown: 0
SampleSet: Soft
StackLeniency: 0.7
Mode: 0
LetterboxInBreaks: 0
WidescreenStoryboard: 0

[Editor]
DistanceSpacing: 1
BeatDivisor: 4
GridSize: 4
TimelineZoom: 1

[Metadata]
Title:triangle -TV size-
TitleUnicode:triangle -TVサイズ-
Artist:Kawada Mami
ArtistUnicode:川田まみ
Creator:Inyuschan
Version:Insane
Source:灼眼のシャナ II
Tags:Shakugan no Shana 2nd Season 1st Ending ED Gaia eINess
BeatmapID:653424
BeatmapSetID:289964

[Difficulty]
HPDrainRate:7
CircleSize:4
OverallDifficulty:7
ApproachRate:8
SliderMultiplier:1.9
SliderTickRate:1

[Events]
//Background and Video events
0,0,"Konachan.com - 84433 sample.jpg",0,0
//Break Periods
//Storyboard Layer 0 (Background)
//Storyboard Layer 1 (Fail)
//Storyboard Layer 2 (Pass)
//Storyboard Layer 3 (Foreground)
//Storyboard Sound Samples

[TimingPoints]
689,468.75,4,1,1,60,1,0
15689,-100,4,2,1,60,0,0
45689,-100,4,1,1,70,0,1
74985,-100,4,3,1,70,0,1
75689,-100,4,1,1,70,0,0
83892,-100,4,1,1,60,0,0
84595,-100,4,1,1,50,0,0
85767,-100,4,1,1,40,0,0
86235,-100,4,1,1,30,0,0
87056,-100,4,2,1,20,0,0
87876,-100,4,2,1,15,0,0
88814,-100,4,2,1,10,0,0
89751,-100,4,2,1,5,0,0

[Colours]
Combo1 : 166,152,220
Combo2 : 122,164,241
Combo3 : 222,158,243
Combo4 : 157,111,108

[HitObjects]
256,64,689,5,4,0:0:0:0:
340,112,923,1,0,0:0:0:0:
340,112,1040,1,0,0:0:0:0:
340,112,1157,2,0,L|424:164,1,95,8|0,0:0|0:0,0:0:0:0:
336,332,1626,2,0,L|255:281,1,95
180,224,2095,1,8,0:0:0:0:
104,168,2329,1,0,0:0:0:0:
104,168,2446,1,0,0:0:0:0:
104,168,2564,6,0,B|88:120|88:120|108:72,1,95
196,52,3032,1,8,0:0:0:0:
292,52,3267,1,0,0:0:0:0:
292,52,3384,1,0,0:0:0:0:
292,52,3501,2,0,B|336:52|336:52|376:84,1,95
428,164,3970,1,8,0:0:0:0:
420,192,4087,1,0,0:0:0:0:
412,220,4204,1,0,0:0:0:0:
404,248,4321,1,0,0:0:0:0:
396,276,4439,5,0,0:0:0:0:
320,332,4673,1,0,0:0:0:0:
320,332,4790,1,0,0:0:0:0:
320,332,4907,1,8,0:0:0:0:
244,276,5142,2,0,P|208:264|144:284,1,95
72,228,5610,1,0,0:0:0:0:
72,228,5728,1,0,0:0:0:0:
72,228,5845,2,0,L|120:116,1,95,8|0,0:0|0:0,0:0:0:0:
292,88,6314,5,0,0:0:0:0:
292,88,6431,1,0,0:0:0:0:
292,88,6548,2,0,L|254:175,1,95,0|8,0:0|0:0,0:0:0:0:
228,268,7017,2,0,P|216:324|248:376,1,95
376,236,7485,2,0,P|388:180|356:128,1,95,0|8,0:0|0:0,0:0:0:0:
374,146,7837,1,0,0:0:0:0:
374,146,7954,1,0,0:0:0:0:
304,84,8189,5,4,0:0:0:0:
208,84,8423,1,0,0:0:0:0:
208,84,8540,1,0,0:0:0:0:
208,84,8657,1,8,0:0:0:0:
137,146,8892,1,0,0:0:0:0:
137,146,9009,1,0,0:0:0:0:
137,146,9126,2,0,P|123:191|136:236,1,95
224,272,9595,2,0,L|320:312,1,95,8|0,0:0|0:0,0:0:0:0:
464,192,10064,5,0,0:0:0:0:
464,192,10181,1,0,0:0:0:0:
464,192,10298,2,0,L|376:155,1,95,0|8,0:0|0:0,0:0:0:0:
284,132,10767,2,0,P|272:88|288:36,1,95
320,228,11235,1,0,0:0:0:0:
320,228,11353,1,0,0:0:0:0:
320,228,11470,2,0,P|332:272|316:324,1,95,8|0,0:0|0:0,0:0:0:0:
236,272,11939,6,0,L|184:272,2,47.5,4|0|0,0:0|0:0|0:0,0:0:0:0:
420,272,12407,2,0,L|472:272,2,47.5,8|0|0,0:0|0:0|0:0,0:0:0:0:
396,180,12876,1,4,0:0:0:0:
380,88,13110,2,0,P|344:56|288:56,1,95,0|8,0:0|0:0,0:0:0:0:
176,200,13579,1,0,0:0:0:0:
176,200,13696,1,0,0:0:0:0:
176,200,13814,6,0,P|212:232|268:232,1,95
340,192,14282,2,0,P|352:240|328:292,1,95,8|0,0:0|0:0,0:0:0:0:
256,152,14751,1,0,0:0:0:0:
288,116,14868,1,0,0:0:0:0:
332,96,14985,1,0,0:0:0:0:
380,104,15103,1,0,0:0:0:0:
420,128,15220,1,8,0:0:0:0:
488,192,15454,1,0,0:0:0:0:
488,192,15571,1,0,0:0:0:0:
488,192,15689,6,0,L|432:300,1,95,4|0,0:0|0:0,0:0:0:0:
256,296,16157,2,0,L|299:211,1,95,2|0,0:0|0:0,0:0:0:0:
348,128,16626,1,0,0:0:0:0:
348,128,16860,2,0,B|304:100|304:100|248:100,1,95,0|2,0:0|0:0,0:0:0:0:
172,128,17329,1,0,0:0:0:0:
172,128,17446,1,0,0:0:0:0:
172,128,17564,6,0,B|156:172|156:172|176:232,1,95
256,264,18032,1,2,0:0:0:0:
344,296,18267,2,0,P|388:296|436:268,1,95
456,84,18735,2,0,P|412:84|364:112,1,95,0|2,0:0|0:0,0:0:0:0:
320,192,19204,1,0,0:0:0:0:
320,192,19321,1,0,0:0:0:0:
320,192,19439,5,0,0:0:0:0:
256,264,19673,2,0,L|256:312,2,47.5,0|0|2,0:0|0:0|0:0,0:0:0:0:
192,192,20142,1,0,0:0:0:0:
192,192,20259,1,0,0:0:0:0:
192,192,20376,2,0,P|148:176|96:200,1,95
148,276,20845,1,2,0:0:0:0:
196,92,21079,1,0,0:0:0:0:
196,92,21196,1,0,0:0:0:0:
196,92,21314,6,0,P|152:84|100:96,1,95
192,192,21782,2,0,P|236:200|288:188,1,95,2|0,0:0|0:0,0:0:0:0:
368,144,22251,2,0,L|416:248,1,95
436,320,22720,1,8,0:0:0:0:
436,320,22837,1,0,0:0:0:0:
436,320,22954,1,0,0:0:0:0:
476,160,23189,6,0,L|436:73,1,95,4|0,0:0|0:0,0:0:0:0:
340,64,23657,1,2,0:0:0:0:
256,104,23892,1,0,0:0:0:0:
172,64,24126,1,0,0:0:0:0:
172,64,24243,1,0,0:0:0:0:
172,64,24360,2,0,P|160:108|184:164,1,95,0|2,0:0|0:0,0:0:0:0:
348,236,24829,1,0,0:0:0:0:
348,236,24946,1,0,0:0:0:0:
348,236,25064,6,0,P|360:192|336:136,2,95,0|0|2,0:0|0:0|0:0,0:0:0:0:
256,264,25767,1,0,0:0:0:0:
256,264,25884,1,0,0:0:0:0:
256,264,26001,2,0,B|216:264|216:264|204:260|204:260|156:260,1,95
24,128,26470,2,0,B|66:128|66:128|78:132|78:132|118:132,1,95,2|0,0:0|0:0,0:0:0:0:
204,180,26939,6,0,P|216:136|196:76,1,95
256,8,27407,2,0,L|352:72,1,95,2|0,0:0|0:0,0:0:0:0:
416,112,27876,1,0,0:0:0:0:
364,192,28110,1,0,0:0:0:0:
364,192,28228,1,0,0:0:0:0:
364,192,28345,1,2,0:0:0:0:
284,140,28579,1,4,0:0:0:0:
284,140,28696,1,0,0:0:0:0:
284,140,28814,6,0,P|240:128|188:144,1,95
148,224,29282,2,0,P|192:236|244:220,1,95,2|0,0:0|0:0,0:0:0:0:
100,148,29751,5,2,0:0:0:0:
84,164,29868,1,0,0:0:0:0:
72,184,29985,1,0,0:0:0:0:
64,208,30103,1,0,0:0:0:0:
68,232,30220,1,2,0:0:0:0:
76,256,30337,1,0,0:0:0:0:
88,276,30454,1,0,0:0:0:0:
104,296,30571,1,0,0:0:0:0:
124,308,30689,6,0,P|164:308|224:352,1,95,4|0,0:0|0:0,0:0:0:0:
304,360,31157,1,8,0:0:0:0:
396,332,31392,2,0,P|408:288|388:232,1,95,0|2,0:0|0:0,0:0:0:0:
256,112,31860,1,0,0:0:0:0:
256,112,31978,1,0,0:0:0:0:
256,112,32095,2,0,P|244:156|264:212,1,95,8|0,0:0|0:0,0:0:0:0:
340,156,32564,6,0,P|396:156|472:216,1,142.5,2|0,0:0|0:0,0:0:0:0:
460,252,33032,2,0,L|384:340,1,95,8|0,0:0|0:0,0:0:0:0:
320,272,33501,1,2,0:0:0:0:
320,272,33618,1,0,0:0:0:0:
320,272,33735,1,0,0:0:0:0:
257,343,33970,1,8,0:0:0:0:
257,343,34087,1,4,0:3:0:0:
192,272,34321,1,0,0:0:0:0:
192,272,34439,6,0,P|176:232|192:176,1,95,2|0,0:0|0:0,0:0:0:0:
256,120,34907,1,8,0:0:0:0:
324,182,35142,1,0,0:0:0:0:
324,182,35259,1,0,0:0:0:0:
324,182,35376,2,0,P|336:228|320:272,2,95,2|0|8,0:0|0:0|0:0,0:0:0:0:
184,56,36079,1,0,0:0:0:0:
184,56,36196,1,0,0:0:0:0:
184,56,36314,6,0,B|128:56|128:56|56:108,1,142.5,2|0,0:0|0:0,0:0:0:0:
36,148,36782,2,0,P|23:193|40:244,1,95,8|4,0:0|0:3,0:0:0:0:
220,284,37251,2,0,P|233:239|216:188,1,95,2|4,0:0|0:3,0:0:0:0:
144,136,37720,1,8,0:0:0:0:
144,136,37837,1,0,0:0:0:0:
144,136,37954,1,0,0:0:0:0:
176,48,38189,6,0,B|208:48|256:96|256:96|304:48|336:48,1,190,4|2,0:0|0:0,0:0:0:0:
432,48,38892,2,0,P|445:93|428:144,1,95
256,208,39360,1,0,0:0:0:0:
256,208,39478,1,0,0:0:0:0:
256,208,39595,2,0,P|243:163|260:112,1,95,2|0,0:0|0:0,0:0:0:0:
336,164,40064,5,0,0:0:0:0:
424,208,40298,1,0,0:0:0:0:
424,208,40415,1,0,0:0:0:0:
424,208,40532,2,0,B|440:252|440:252|420:304,1,95,2|0,0:0|0:0,0:0:0:0:
332,328,41001,2,0,B|264:328|264:328|252:324|252:324|188:324,1,142.5,4|4,0:3|0:3,0:0:0:0:
148,300,41470,2,0,P|132:264|148:208,1,95,2|0,0:0|0:0,0:0:0:0:
240,196,41939,6,0,P|264:128|228:52,1,142.5,4|0,0:3|0:0,0:0:0:0:
196,52,42407,2,0,L|100:52,1,95,4|0,0:0|0:0,0:0:0:0:
24,108,42876,1,4,0:3:0:0:
24,108,42993,1,0,0:0:0:0:
24,108,43110,2,0,B|6:152|6:152|22:196,1,95,0|2,0:0|0:0,0:0:0:0:
100,252,43579,1,4,0:3:0:0:
100,252,43696,1,4,0:3:0:0:
100,252,43814,5,2,0:0:0:0:
256,192,43931,12,2,45220,0:0:0:0:
304,192,45689,6,0,P|352:204|404:184,1,95,4|0,0:0|0:0,0:0:0:0:
256,112,46157,2,0,P|208:100|156:120,1,95,8|0,0:0|0:0,0:0:0:0:
140,136,46509,1,0,0:0:0:0:
120,156,46626,2,0,P|100:208|144:296,1,142.5,2|0,0:0|0:0,0:0:0:0:
180,288,47095,2,0,L|284:288,1,95,8|0,0:0|0:0,0:0:0:0:
440,192,47564,5,2,0:0:0:0:
360,140,47798,1,0,0:0:0:0:
360,140,47915,1,0,0:0:0:0:
360,140,48032,1,8,0:0:0:0:
276,92,48267,2,0,P|256:48|276:-4,1,95,0|2,0:0|0:0,0:0:0:0:
360,140,48735,2,0,P|380:184|360:236,1,95,0|8,0:0|0:0,0:0:0:0:
332,260,49087,1,0,0:0:0:0:
256,316,49321,1,0,0:0:0:0:
256,316,49439,5,2,0:0:0:0:
180,260,49673,1,0,0:0:0:0:
112,192,49907,2,0,P|68:180|16:196,1,95,8|0,0:0|0:0,0:0:0:0:
180,260,50376,2,0,P|248:280|340:236,1,142.5,2|0,0:0|0:0,0:0:0:0:
356,236,50845,2,0,L|436:300,1,95,8|0,0:0|0:0,0:0:0:0:
480,216,51314,5,2,0:0:0:0:
405,156,51548,1,0,0:0:0:0:
405,156,51665,1,0,0:0:0:0:
405,156,51782,1,8,0:0:0:0:
328,104,52017,1,0,0:0:0:0:
328,104,52134,1,0,0:0:0:0:
328,104,52251,2,0,B|280:104|280:104|240:76,1,95,2|0,0:0|0:0,0:0:0:0:
156,32,52720,1,8,0:0:0:0:
156,32,52837,1,0,0:0:0:0:
156,32,52954,1,0,0:0:0:0:
72,76,53189,6,0,P|48:124|88:212,1,142.5,4|0,0:0|0:0,0:0:0:0:
124,212,53657,2,0,B|168:212|168:212|208:248,1,95,8|0,0:0|0:0,0:0:0:0:
256,328,54126,2,0,B|320:328|320:328|384:276,1,142.5,2|0,0:0|0:0,0:0:0:0:
408,240,54595,2,0,P|420:192|400:148,1,95,8|0,0:0|0:0,0:0:0:0:
256,32,55064,6,0,P|244:80|264:124,1,95,2|0,0:0|0:0,0:0:0:0:
320,192,55532,2,0,L|244:276,1,95,8|0,0:0|0:0,0:0:0:0:
80,192,56001,1,2,0:0:0:0:
80,192,56118,1,0,0:0:0:0:
80,192,56235,2,0,L|143:121,1,95,0|8,0:0|0:0,0:0:0:0:
180,92,56587,1,0,0:0:0:0:
180,92,56704,1,0,0:0:0:0:
256,36,56939,5,2,0:0:0:0:
332,92,57173,1,0,0:0:0:0:
332,92,57290,1,0,0:0:0:0:
332,92,57407,2,0,B|332:140|332:140|368:180,1,95,8|0,0:0|0:0,0:0:0:0:
456,196,57876,1,2,0:0:0:0:
444,228,57993,1,0,0:0:0:0:
420,248,58110,1,0,0:0:0:0:
388,260,58228,1,0,0:0:0:0:
356,264,58345,1,8,0:0:0:0:
272,224,58579,6,0,L|244:212,4,23.75,0|0|0|0|2,0:0|0:0|0:0|0:0|0:0,0:0:0:0:
356,264,59048,1,0,0:0:0:0:
256,364,59282,1,8,0:0:0:0:
156,264,59517,5,0,0:0:0:0:
132,260,59634,1,0,0:0:0:0:
112,248,59751,1,2,0:0:0:0:
96,228,59868,1,0,0:0:0:0:
88,204,59985,1,0,0:0:0:0:
88,180,60103,1,0,0:0:0:0:
96,156,60220,1,8,0:0:0:0:
160,88,60454,1,0,0:0:0:0:
160,88,60571,1,0,0:0:0:0:
160,88,60689,6,0,P|204:76|260:96,1,95,4|0,0:0|0:0,0:0:0:0:
408,192,61157,2,0,P|364:204|308:184,1,95,8|0,0:0|0:0,0:0:0:0:
317,190,61509,1,0,0:0:0:0:
317,190,61626,1,2,0:0:0:0:
256,116,61860,1,0,0:0:0:0:
194,190,62095,2,0,P|149:203|104:192,1,95,8|0,0:0|0:0,0:0:0:0:
44,268,62564,6,0,L|136:340,1,95,2|0,0:0|0:0,0:0:0:0:
118,326,62915,1,0,0:0:0:0:
118,326,63032,1,8,0:0:0:0:
204,284,63267,2,0,P|204:264|184:224,2,47.5,0|0|2,0:0|0:0|0:0,0:0:0:0:
256,364,63735,1,0,0:0:0:0:
308,284,63970,1,8,0:0:0:0:
308,284,64087,1,0,0:0:0:0:
308,284,64204,1,0,0:0:0:0:
364,208,64439,6,0,P|392:148|336:72,1,142.5,4|0,0:0|0:0,0:0:0:0:
312,84,64907,2,0,P|272:84|228:52,1,95,8|0,0:0|0:0,0:0:0:0:
100,192,65376,1,2,0:0:0:0:
100,192,65493,1,0,0:0:0:0:
100,192,65610,2,0,P|140:192|184:224,1,95,0|8,0:0|0:0,0:0:0:0:
256,284,66079,1,0,0:0:0:0:
256,284,66196,1,0,0:0:0:0:
256,284,66314,5,2,0:0:0:0:
328,223,66548,2,0,P|365:194|412:192,1,95,0|8,0:0|0:0,0:0:0:0:
496,148,67017,1,0,0:0:0:0:
496,148,67134,1,0,0:0:0:0:
496,148,67251,2,0,L|424:72,1,95,2|0,0:0|0:0,0:0:0:0:
348,32,67720,1,8,0:0:0:0:
348,32,67837,1,0,0:0:0:0:
348,32,67954,1,0,0:0:0:0:
264,76,68189,6,0,B|208:76|208:76|140:128,1,142.5,4|0,0:0|0:0,0:0:0:0:
120,172,68657,2,0,P|108:216|128:264,1,95,8|0,0:0|0:0,0:0:0:0:
312,304,69126,1,2,0:0:0:0:
312,304,69243,1,0,0:0:0:0:
312,304,69360,2,0,P|324:260|304:212,1,95,0|8,0:0|0:0,0:0:0:0:
256,136,69829,6,0,L|212:104,2,47.5,0|0|2,0:0|0:0|0:0,0:0:0:0:
352,136,70298,1,0,0:0:0:0:
352,136,70415,1,0,0:0:0:0:
352,136,70532,2,0,B|400:136|400:136|440:168,1,95,8|0,0:0|0:0,0:0:0:0:
344,272,70884,1,0,0:0:0:0:
344,272,71001,2,0,B|296:272|296:272|256:240,1,95,2|0,0:0|0:0,0:0:0:0:
180,192,71470,1,8,0:0:0:0:
259,141,71704,1,0,0:0:0:0:
204,64,71939,5,4,0:0:0:0:
120,108,72173,1,0,0:0:0:0:
120,108,72290,1,0,0:0:0:0:
120,108,72407,1,8,0:0:0:0:
259,141,72642,2,0,P|343:141|427:229,1,190,6|0,0:0|0:0,0:0:0:0:
272,328,73345,1,8,0:0:0:0:
272,328,73462,1,0,0:0:0:0:
272,328,73579,6,0,P|188:328|104:240,1,190,4|0,0:0|0:0,0:0:0:0:
44,192,74282,1,8,0:0:0:0:
60,164,74399,1,0,0:0:0:0:
76,136,74517,1,0,0:0:0:0:
96,108,74634,1,0,0:0:0:0:
112,80,74751,1,2,0:0:0:0:
200,44,74985,2,0,L|232:44,8,23.75,0|0|0|0|2|0|0|0|0,0:0|0:0|0:0|0:0|0:0|0:0|0:0|0:0|0:0,0:0:0:0:
188,140,75689,5,4,0:0:0:0:
256,204,75923,1,0,0:0:0:0:
256,204,76040,1,0,0:0:0:0:
256,204,76157,2,0,B|304:204|304:204|348:232,1,95,8|0,0:0|0:0,0:0:0:0:
508,132,76626,2,0,B|460:132|460:132|416:104,1,95
336,64,77095,1,8,0:0:0:0:
248,28,77329,1,0,0:0:0:0:
248,28,77446,1,0,0:0:0:0:
248,28,77564,6,0,L|200:124,1,95
248,240,78032,1,8,0:0:0:0:
248,240,78149,1,0,0:0:0:0:
249,240,78267,2,0,L|292:156,1,95
384,128,78735,1,0,0:0:0:0:
476,156,78970,1,8,0:0:0:0:
492,180,79087,1,0,0:0:0:0:
496,208,79204,1,0,0:0:0:0:
492,236,79321,1,0,0:0:0:0:
484,264,79439,5,0,0:0:0:0:
416,328,79673,1,0,0:0:0:0:
416,328,79790,1,0,0:0:0:0:
416,328,79907,2,0,P|372:300|320:300,1,95,8|0,0:0|0:0,0:0:0:0:
256,236,80376,1,0,0:0:0:0:
256,236,80493,1,0,0:0:0:0:
256,236,80610,1,0,0:0:0:0:
181,297,80845,2,0,P|134:301|96:328,1,95,8|0,0:0|0:0,0:0:0:0:
48,248,81314,5,0,0:0:0:0:
24,156,81548,1,0,0:0:0:0:
24,156,81665,1,0,0:0:0:0:
24,156,81782,2,0,B|24:112|24:112|52:68,1,95,8|0,0:0|0:0,0:0:0:0:
116,40,82134,2,0,L|176:40,1,47.5
256,64,82485,1,0,0:0:0:0:
348,40,82720,1,8,0:0:0:0:
348,40,82837,1,0,0:0:0:0:
348,40,82954,1,0,0:0:0:0:
440,64,83189,5,4,0:0:0:0:
440,160,83423,1,0,0:0:0:0:
440,160,83540,1,0,0:0:0:0:
440,160,83657,2,0,B|440:208|440:208|400:248,1,95,8|0,0:0|0:0,0:0:0:0:
224,184,84126,1,0,0:0:0:0:
224,184,84243,1,0,0:0:0:0:
224,184,84360,2,0,B|224:136|224:136|264:96,2,95,0|8|0,0:0|0:0|0:0,0:0:0:0:
256,276,85064,5,0,0:0:0:0:
192,348,85298,1,0,0:0:0:0:
192,348,85415,1,0,0:0:0:0:
192,348,85532,2,0,L|80:276,1,95,8|0,0:0|0:0,0:0:0:0:
60,112,86001,1,0,0:0:0:0:
60,112,86235,2,0,L|139:163,1,95,0|8,0:0|0:0,0:0:0:0:
256,248,86704,1,0,0:0:0:0:
372,163,86939,5,4,0:0:0:0:
256,192,87056,12,0,89751,0:0:0:0:
