osu file format v14

[General]
AudioFilename: 1st ED 2nd season.mp3
AudioLeadIn: 1000
PreviewTime: 45454
Countdown: 0
SampleSet: Normal
StackLeniency: 0.7
Mode: 0
LetterboxInBreaks: 0
WidescreenStoryboard: 0

[Editor]
DistanceSpacing: 1
BeatDivisor: 4
GridSize: 4
TimelineZoom: 1

[Metadata]
Title:triangle -TV size-
TitleUnicode:triangle -TVサイズ-
Artist:Kawada Mami
ArtistUnicode:川田まみ
Creator:Inyuschan
Version:Easy
Source:灼眼のシャナ II
Tags:Shakugan no Shana 2nd Season 1st Ending ED Gaia eINess
BeatmapID:653878
BeatmapSetID:289964

[Difficulty]
HPDrainRate:2.5
CircleSize:2.5
OverallDifficulty:2.5
ApproachRate:3
SliderMultiplier:1
SliderTickRate:1

[Events]
//Background and Video events
0,0,"Konachan.com - 84433 sample.jpg",0,0
//Break Periods
//Storyboard Layer 0 (Background)
//Storyboard Layer 1 (Fail)
//Storyboard Layer 2 (Pass)
//Storyboard Layer 3 (Foreground)
//Storyboard Sound Samples

[TimingPoints]
689,468.75,4,1,1,60,1,0
15689,-100,4,2,1,60,0,0
45689,-100,4,1,1,70,0,1
74985,-100,4,3,1,70,0,1
75689,-100,4,1,1,70,0,0
83892,-100,4,1,1,60,0,0
84595,-100,4,1,1,50,0,0
85767,-100,4,1,1,40,0,0
86235,-100,4,1,1,30,0,0
87056,-100,4,2,1,20,0,0
87876,-100,4,2,1,15,0,0
88814,-100,4,2,1,10,0,0
89751,-100,4,2,1,5,0,0

[Colours]
Combo1 : 166,152,220
Combo2 : 122,164,241
Combo3 : 222,158,243
Combo4 : 157,111,108

[HitObjects]
164,96,689,6,0,B|224:96|256:128|256:128|288:96|356:96,1,200,4|0,0:0|0:0,0:0:0:0:
468,180,2329,2,0,P|484:228|464:276,1,100,0|0,0:0|0:0,0:0:0:0:
380,224,3267,2,0,L|220:224,1,150,0|8,0:0|0:0,0:0:0:0:
136,192,4439,6,0,P|88:108|144:28,1,200,0|0,0:0|0:0,0:0:0:0:
280,80,6079,2,0,P|320:80|384:40,1,100,0|0,0:0|0:0,0:0:0:0:
468,24,7017,2,0,L|504:184,1,150,0|8,0:0|0:0,0:0:0:0:
492,268,8189,6,0,B|424:304|424:304|284:304,1,200,4|0,0:0|0:0,0:0:0:0:
165,239,9829,2,0,P|147:192|171:141,1,100,0|0,0:0|0:0,0:0:0:0:
256,108,10767,2,0,P|328:108|400:152,1,150,0|8,0:0|0:0,0:0:0:0:
484,192,11939,6,0,L|432:288,1,100,4|8,0:0|0:0,0:0:0:0:
352,328,12876,2,0,P|288:332|208:272,2,150,4|0|8,0:0|0:0|0:0,0:0:0:0:
384,232,14751,2,0,B|396:184|396:184|376:128,1,100,0|8,0:0|0:0,0:0:0:0:
296,80,15689,6,0,B|244:80|244:80|200:56,1,100,4|2,0:0|0:0,0:0:0:0:
104,32,16626,2,0,P|80:92|120:180,2,150,0|2|2,0:0|0:0|0:0,0:0:0:0:
180,100,18501,2,0,P|216:100|272:148,1,100,0|2,0:0|0:0,0:0:0:0:
308,228,19439,6,0,P|344:228|432:136,2,150,0|2|2,0:0|0:0|0:0,0:0:0:0:
204,228,21314,2,0,P|168:228|80:136,2,150,0|2|8,0:0|0:0|0:0,0:0:0:0:
256,144,23189,5,4,0:0:0:0:
308,60,23657,2,0,B|368:60|368:60|448:124,2,150,2|2|0,0:0|0:0|0:0,0:0:0:0:
204,60,25532,1,2,0:0:0:0:
116,112,26001,2,0,B|100:160|100:160|124:224,1,100,0|2,0:0|0:0,0:0:0:0:
204,256,26939,6,0,B|268:256|268:256|352:192,2,150,0|2|2,0:0|0:0|0:0,0:0:0:0:
128,192,28814,2,0,P|112:152|132:92,1,100,0|2,0:0|0:0,0:0:0:0:
216,52,29751,2,0,P|232:92|212:152,1,100,2|2,0:0|0:0,0:0:0:0:
128,192,30689,6,0,L|296:224,2,150,4|2|8,0:0|0:0|0:0,0:0:0:0:
148,92,32564,2,0,L|316:124,2,150,2|2|8,0:0|0:0|0:0,0:0:0:0:
48,92,34439,6,0,B|31:138|31:138|47:186,1,100,2|8,0:0|0:0,0:0:0:0:
124,248,35376,1,2,0:0:0:0:
256,316,36079,2,0,L|368:316,1,100,2|0,0:0|0:0,0:0:0:0:
444,268,37017,2,0,P|468:216|440:124,1,150,4|8,0:3|0:0,0:0:0:0:
368,64,38189,6,0,B|304:64|256:152|256:152|208:64|144:64,1,300,4|2,0:0|0:0,0:0:0:0:
64,128,40064,2,0,P|31:192|79:266,2,150,0|2|2,0:0|0:0|0:0,0:0:0:0:
144,192,41939,6,0,B|188:192|188:192|236:232,1,100,4|4,0:3|0:0,0:0:0:0:
316,280,42876,1,4,0:3:0:0:
464,256,43579,2,0,P|497:192|449:118,1,150,4|2,0:3|0:0,0:0:0:0:
364,112,44751,2,0,P|328:112|268:76,1,100,0|2,0:0|0:0,0:0:0:0:
180,44,45689,6,0,L|116:132,1,100,4|8,0:0|0:0,0:0:0:0:
68,212,46626,2,0,P|44:276|88:356,2,150,2|0|8,0:0|0:0|0:0,0:0:0:0:
156,164,48501,2,0,P|172:212|148:272,1,100,2|8,0:0|0:0,0:0:0:0:
256,284,49439,5,2,0:0:0:0:
353,258,49907,1,8,0:0:0:0:
428,192,50376,2,0,B|452:120|452:120|416:40,2,150,2|0|8,0:0|0:0|0:0,0:0:0:0:
352,260,52251,2,0,P|312:260|252:216,1,100,2|8,0:0|0:0,0:0:0:0:
196,152,53189,6,0,P|155:124|105:121,1,100,4|8,0:0|0:0,0:0:0:0:
32,192,54126,2,0,B|32:264|32:264|84:332,2,150,2|0|8,0:0|0:0|0:0,0:0:0:0:
116,136,56001,2,0,P|152:136|220:92,1,100,2|8,0:0|0:0,0:0:0:0:
304,106,56939,6,0,P|346:132|396:136,1,100,2|8,0:0|0:0,0:0:0:0:
472,72,57876,2,0,P|500:140|456:216,2,150,2|0|8,0:0|0:0|0:0,0:0:0:0:
380,32,59751,2,0,P|336:32|281:68,1,100,2|8,0:0|0:0,0:0:0:0:
208,116,60689,6,0,P|132:140|60:112,2,150,4|0|8,0:0|0:0|0:0,0:0:0:0:
304,116,62564,2,0,P|380:140|452:112,2,150,2|0|8,0:0|0:0|0:0,0:0:0:0:
256,28,64439,6,0,B|164:28|164:28|104:72,2,150,4|0|8,0:0|0:0|0:0,0:0:0:0:
316,108,66314,2,0,L|384:208,1,100,2|8,0:0|0:0,0:0:0:0:
324,276,67251,1,2,0:0:0:0:
256,348,67720,1,8,0:0:0:0:
188,276,68189,6,0,P|136:276|80:364,2,150,4|0|8,0:0|0:0|0:0,0:0:0:0:
256,348,70064,2,0,P|308:348|364:260,2,150,2|0|8,0:0|0:0|0:0,0:0:0:0:
268,248,71939,6,0,L|268:96,2,150,4|6|8,0:0|0:0|0:0,0:0:0:0:
256,192,73579,12,4,75689,0:0:0:0:
44,204,77329,6,0,P|28:156|48:108,1,100,0|0,0:0|0:0,0:0:0:0:
132,160,78267,2,0,L|292:160,1,150,0|8,0:0|0:0,0:0:0:0:
376,192,79439,6,0,P|424:276|368:356,1,200,0|0,0:0|0:0,0:0:0:0:
232,304,81079,2,0,P|192:304|128:344,1,100,0|0,0:0|0:0,0:0:0:0:
44,360,82017,2,0,L|8:200,1,150,0|8,0:0|0:0,0:0:0:0:
20,116,83189,6,0,B|88:80|88:80|228:80,1,200,4|0,0:0|0:0,0:0:0:0:
347,145,84829,2,0,P|365:192|341:243,1,100,0|0,0:0|0:0,0:0:0:0:
256,276,85767,2,0,L|100:276,1,150,0|8,0:0|0:0,0:0:0:0:
256,192,86704,12,0,89751,0:0:0:0:
