osu file format v12

[General]
AudioFilename: Kawada Mami - Sense.mp3
AudioLeadIn: 0
PreviewTime: 52874
Countdown: 0
SampleSet: Normal
StackLeniency: 0.4
Mode: 0
LetterboxInBreaks: 0

[Editor]
DistanceSpacing: 1.1
BeatDivisor: 2
GridSize: 4

[Metadata]
Title:sense
TitleUnicode:sense
Artist:Kawada Mami
ArtistUnicode:川田まみ
Creator:Andrea
Version:Normal
Source:Shakugan no Shana II
Tags:Lally xxheroxx -kevincela- Nemis osuplayer111 Ending Savia Collab
BeatmapID:225364
BeatmapSetID:81124

[Difficulty]
HPDrainRate:4
CircleSize:3
OverallDifficulty:3
ApproachRate:4
SliderMultiplier:1.2
SliderTickRate:1

[Events]
//Background and Video events
0,0,"BG.jpg",1,1
//Break Periods
2,88788,97268
2,158788,165839
//Storyboard Layer 0 (Background)
//Storyboard Layer 1 (Fail)
//Storyboard Layer 2 (Pass)
//Storyboard Layer 3 (Foreground)
Sprite,Foreground,Centre,"Lally.png",720,180 M,0,6981,,540,434 F,0,6981,7160,0,1 F,0,18409,18588,1,0 F,0,41267,41445,0,1 F,0,52695,52874,1,0 F,0,75552,75731,0,1 F,0,88409,88588,1,0 F,0,121267,121445,0,1 F,0,132695,132874,1,0 F,0,166981,167159,0,1 F,0,178409,178588,1,0 F,0,204124,204302,0,1 F,0,215552,215731,1,0
Sprite,Foreground,Centre,"Andrea.png",720,180 M,0,18409,,540,430 F,0,18409,18588,0,1 F,0,29838,30017,1,0 F,0,52695,52874,0,1 F,0,64124,64302,1,0 F,0,98409,98588,0,1 F,0,109838,110017,1,0 F,0,132695,132874,0,1 F,0,132695,132874,0,1 F,0,144124,144302,1,0 F,0,144124,144302,1,0 F,0,178409,178588,0,1 F,0,189838,190017,1,0 F,0,215552,215731,0,1 F,0,226981,227159,1,0
Sprite,Foreground,Centre,"kevincela.png",720,180 M,0,29838,,540,430 F,0,29838,30017,0,1 F,0,41267,41445,1,0 F,0,64124,64302,0,1 F,0,75552,75731,1,0 F,0,109838,110017,0,1 F,0,121267,121445,1,0 F,0,144124,144302,0,1 F,0,158409,158588,1,0 F,0,189838,190017,0,1 F,0,204124,204302,1,0 F,0,226981,227159,0,1 F,0,238409,238588,1,0
//Storyboard Sound Samples
//Background Colour Transformations
3,100,255,64,64

[TimingPoints]
7160,357.142857142857,4,1,1,50,1,0
18588,-100,4,1,1,80,0,0
30017,-100,4,2,1,80,0,0
52874,-100,4,1,1,80,0,1
87159,-100,4,1,1,80,0,0
88588,-100,4,1,1,50,0,0
98588,-100,4,1,1,80,0,0
121445,-100,4,1,1,80,0,1
155731,-100,4,1,1,80,0,0
192874,-100,4,2,1,80,0,0
204302,-100,4,1,1,80,0,1
238588,-100,4,2,1,80,0,0

[Colours]
Combo1 : 215,202,40
Combo2 : 136,185,83

[HitObjects]
204,356,7160,2,0,B|200:304|200:304|180:268|196:220,1,120,4|0,0:0|0:0,0:0:0:0:
324,252,7874,2,0,B|335:222|315:186|315:186|311:134,1,120
180,144,8588,2,0,B|168:114|188:78|188:78|192:26,2,120
144,272,9660,2,0,P|164:308|196:328,1,60
236,352,10017,6,0,P|272:372|352:344,1,120,4|0,2:0|0:0,0:0:0:0:
412,240,10731,2,0,P|456:200|448:144,1,120
332,80,11445,2,0,L|332:20,2,60
216,144,12160,2,0,P|208:200|252:240,1,120
376,284,12874,6,0,P|384:228|340:188,1,120,4|0,0:0|0:0,0:0:0:0:
216,144,13588,2,0,P|208:88|252:48,1,120
383,48,14302,2,0,L|463:48,2,60
348,176,15017,2,0,P|295:231|255:235,1,120
256,192,15731,12,4,18588,0:0:0:0:
88,60,19302,6,0,P|148:60|188:100,1,120,0|8,0:0|0:0,0:0:0:0:
324,100,20017,2,0,P|364:60|424:60,2,120,0|8|0,0:0|0:0|0:0,0:0:0:0:
324,232,21088,6,8,P|256:312|188:228,3,240
96,136,23588,1,0,0:0:0:0:
188,40,23945,1,8,0:0:0:0:
324,40,24302,5,4,0:0:0:0:
416,136,24659,2,8,B|416:256|416:256|328:344,2,240
324,40,26445,1,0,0:0:0:0:
188,40,26802,2,8,P|68:40|8:132,2,240
360,240,28945,6,0,P|360:300|320:344,1,120,8|4,0:0|0:0,0:0:0:0:
190,342,29659,2,0,P|152:300|152:240,1,120,8|4,0:0|0:0,0:0:0:0:
256,156,30374,5,8,0:0:0:0:
360,240,30731,2,0,P|396:228|416:196,1,60,0|8,0:0|0:0,0:0:0:0:
332,104,31267,2,0,P|256:60|180:104,1,180,8|8,0:0|0:0,0:0:0:0:
148,228,32159,2,0,B|148:288|148:288|192:336,1,120,0|8,0:0|0:0,0:0:0:0:
323,332,32874,6,0,B|364:288|364:288|364:228,1,120,0|8,0:0|0:0,0:0:0:0:
256,152,33588,1,0,0:0:0:0:
256,152,33767,1,8,0:0:0:0:
172,48,34124,2,0,P|232:20|340:48,1,180,8|8,0:0|0:0,0:0:0:0:
416,156,35017,1,0,0:0:0:0:
352,272,35374,1,8,0:0:0:0:
224,236,35731,6,0,P|160:232|116:268,1,120,2|8,0:0|1:0,0:0:0:0:
212,356,36445,2,0,P|276:360|320:324,1,120,0|8,0:0|0:0,0:0:0:0:
352,272,36981,2,0,L|332:148,1,120
320,88,37517,1,8,1:0:0:0:
200,32,37874,1,0,0:0:0:0:
100,116,38231,1,8,0:0:0:0:
140,240,38588,6,0,P|72:248|-8:176,2,180,2|8|8,0:0|0:0|0:0,0:0:0:0:
252,168,40017,2,0,P|260:144|280:112,2,60,0|0|8,0:0|0:0|1:0,0:0:0:0:
288,296,40731,2,0,P|344:328|412:312,1,120,0|8,0:0|1:0,0:0:0:0:
480,220,41445,5,4,0:0:0:0:
448,92,41802,2,0,P|400:60|336:80,1,120,8|0,0:0|0:0,0:0:0:0:
252,168,42517,2,0,P|184:196|132:164,1,120,8|0,0:0|0:0,0:0:0:0:
64,76,43231,1,8,0:0:0:0:
64,76,43588,6,0,P|12:188|76:280,1,240,0|2,0:0|0:0,0:0:0:0:
200,296,44659,2,0,P|248:292|264:284,1,60,8|0,0:0|0:0,0:0:0:0:
320,268,45017,2,0,P|376:248|404:188,1,120,0|8,0:0|0:0,0:0:0:0:
408,64,45731,1,0,0:0:0:0:
276,56,46088,2,0,P|220:76|192:136,1,120,8|0,0:0|0:0,0:0:0:0:
208,260,46802,1,8,0:0:0:0:
296,164,47159,6,0,B|360:152|360:152|400:216|472:208|512:168,2,240,2|0|0,0:0|0:0|0:0,0:0:0:0:
256,292,48945,1,8,1:0:0:0:
256,292,49302,2,0,L|256:364,2,60,0|0|8,0:0|0:0|0:0,0:0:0:0:
216,164,50017,6,0,B|152:152|152:152|112:216|40:208|0:168,2,240,2|0|2,0:0|0:0|0:0,0:0:0:0:
340,212,51802,2,0,P|424:228|456:204,1,120,0|2,0:0|0:0,0:0:0:0:
500,92,52517,1,8,1:0:0:0:
380,40,52874,5,4,0:0:0:0:
256,92,53231,2,8,B|136:92|136:92|40:20,2,240
380,132,55017,2,0,B|380:192|380:192|424:240,1,120,0|8,0:0|0:0,0:0:0:0:
320,324,55731,5,0,0:0:0:0:
192,324,56088,2,8,B|104:336|64:272|64:272|64:176,3,240
144,72,58588,5,4,0:0:0:0:
256,140,58945,2,8,P|376:140|452:52,2,240
180,248,60731,1,0,0:0:0:0:
256,356,61088,5,8,0:0:0:0:
332,248,61445,1,0,0:0:0:0:
256,140,61802,1,8,0:0:0:0:
80,336,62517,5,8,0:0:0:0:
180,248,62874,1,0,0:0:0:0:
256,356,63231,1,8,0:0:0:0:
400,128,63945,1,8,0:0:0:0:
400,128,64302,6,0,P|376:80|312:44,1,120,4|8,0:0|0:0,0:0:0:0:
191,45,65017,2,0,P|136:80|112:128,1,120,0|8,0:0|0:0,0:0:0:0:
160,252,65731,2,0,P|88:272|8:204,2,180,0|0|8,0:0|0:0|0:0,0:0:0:0:
280,192,67159,6,0,P|300:244|280:308,1,120,0|8,0:0|0:0,0:0:0:0:
160,252,67874,2,0,P|140:200|160:136,1,120,0|8,0:0|0:0,0:0:0:0:
264,64,68588,2,0,P|332:64|400:152,2,180,0|0|8,0:0|0:0|0:0,0:0:0:0:
144,124,70017,6,0,P|76:124|8:42,2,180,0|0|8,0:0|0:0|0:0,0:0:0:0:
256,60,71445,1,0,0:0:0:0:
368,124,71802,1,8,0:0:0:0:
312,236,72159,2,0,P|300:244|200:236,1,120,0|8,0:0|0:0,0:0:0:0:
176,108,72874,6,0,P|208:84|336:108,2,180,0|0|8,0:0|0:0|0:0,0:0:0:0:
176,240,74302,2,0,P|208:264|336:240,2,180,0|0|8,0:0|0:0|0:0,0:0:0:0:
256,192,75731,12,0,77159,0:0:0:0:
204,248,77874,6,0,B|168:304|100:336,2,120,0|8|0,0:0|0:0|0:0,0:0:0:0:
256,128,78945,1,8,0:0:0:0:
308,248,79302,2,0,B|344:304|412:336,2,120,0|8|0,0:0|0:0|0:0,0:0:0:0:
256,128,80374,2,0,P|224:88|208:80,1,60,8|0,0:0|0:0,0:0:0:0:
164,44,80731,2,0,P|116:32|48:80,1,120,0|8,0:0|0:0,0:0:0:0:
24,192,81445,6,0,P|32:264|176:320,1,240,4|0,0:0|0:0,0:0:0:0:
256,220,82517,1,8,0:0:0:0:
339,321,82874,2,0,P|480:264|488:192,1,240
428,76,83945,1,8,0:0:0:0:
320,156,84302,6,0,P|264:216|216:216,1,120,0|8,0:0|0:0,0:0:0:0:
132,128,85017,2,0,P|76:128|24:180,1,120,0|8,0:0|0:0,0:0:0:0:
12,300,85731,1,0,0:0:0:0:
128,364,86088,1,8,0:0:0:0:
256,328,86445,1,0,0:0:0:0:
256,192,86802,1,8,0:0:0:0:
256,192,87159,12,0,88588,0:0:0:0:
256,44,98588,5,4,0:0:0:0:
164,140,98945,2,8,B|256:216|256:216|352:136,2,240
84,244,100731,1,0,0:0:0:0:
192,316,101088,1,8,0:0:0:0:
320,316,101445,5,0,0:0:0:0:
428,244,101802,2,8,B|428:124|428:124|344:36,2,240
320,316,103588,1,0,0:0:0:0:
192,316,103945,1,8,0:0:0:0:
84,244,104302,5,0,0:0:0:0:
84,112,104659,2,8,P|204:112|284:32,2,240,8|2|8,0:0|2:0|0:0,0:0:0:0:
336,192,106802,5,2,2:0:0:0:
256,300,107159,1,0,0:0:0:0:
124,300,107517,2,8,B|52:204|52:204|52:84,1,240,8|2,0:0|2:0,0:0:0:0:
184,80,108588,1,0,0:0:0:0:
316,80,108945,2,8,P|424:80|424:192,1,240
348,296,110017,5,4,0:0:0:0:
228,352,110374,1,8,0:0:0:0:
112,288,110731,2,0,P|84:208|128:128,2,180,0|0|8,0:0|0:0|0:0,0:0:0:0:
220,212,112159,2,0,P|252:160|180:12,1,240
128,128,113231,5,8,0:0:0:0:
128,260,113588,2,0,P|180:304|292:276,2,180,0|0|8,0:0|0:0|0:0,0:0:0:0:
128,128,115017,2,0,P|68:132|24:180,1,120,0|8,0:0|0:0,0:0:0:0:
128,260,115731,6,0,P|212:232|252:144,2,180,0|0|8,0:0|0:0|0:0,0:0:0:0:
16,188,117159,2,0,P|4:128|28:72,1,120,0|8,0:0|0:0,0:0:0:0:
152,40,117874,1,0,0:0:0:0:
256,124,118231,2,0,L|256:184,2,60,8|0|4,0:0|0:0|0:0,0:0:0:0:
328,308,119124,6,0,P|312:332|184:308,1,180,0|8,0:0|0:0,0:0:0:0:
176,180,120017,2,0,B|224:184|256:216|256:216|288:184|336:180,2,180,0|0|8,0:0|0:0|0:0,0:0:0:0:
256,72,121445,5,4,0:0:0:0:
388,60,121802,2,0,P|420:40|496:72,2,120,8|0|8,0:0|0:0|0:0,0:0:0:0:
336,180,122874,2,0,B|288:184|256:216|256:216|224:184|176:180,2,180,0|0|8,0:0|0:0|0:0,0:0:0:0:
468,176,124302,1,0,0:0:0:0:
468,176,124659,6,0,P|464:236|408:276,1,120,8|0,0:0|0:0,0:0:0:0:
292,296,125374,2,0,P|228:304|180:340,1,120,8|0,0:0|0:0,0:0:0:0:
52,324,126088,2,8,P|128:228|240:192,1,240
364,164,127159,1,4,0:0:0:0:
364,164,127517,6,0,P|352:96|296:76,1,120,8|0,0:0|0:0,0:0:0:0:
256,196,128231,1,8,0:0:0:0:
201,75,128588,2,0,P|160:96|148:164,1,120,0|8,0:0|0:0,0:0:0:0:
352,332,129659,6,0,P|408:308|420:244,2,120,8|0|8,0:0|0:0|0:0,0:0:0:0:
256,240,130731,1,0,0:0:0:0:
160,332,131088,2,0,P|104:308|92:244,2,120,8|0|8,0:0|0:0|0:0,0:0:0:0:
256,240,132159,2,0,L|256:120,1,120,0|8,0:0|0:0,0:0:0:0:
368,192,132874,5,4,0:0:0:0:
368,60,133231,2,8,B|256:16|256:16|144:60,2,240
500,60,135017,1,0,0:0:0:0:
500,192,135374,1,8,0:0:0:0:
500,324,135731,1,0,0:0:0:0:
368,324,136088,6,8,B|256:368|256:368|144:324,2,240
368,192,137874,1,0,0:0:0:0:
256,120,138231,1,8,0:0:0:0:
144,192,138588,1,4,0:0:0:0:
144,60,138945,2,8,P|32:64|12:172,2,240
256,120,140731,5,0,0:0:0:0:
368,60,141088,1,8,0:0:0:0:
368,192,141445,2,0,P|368:280|436:336,2,180,0|0|8,0:0|0:0|0:0,0:0:0:0:
256,120,142874,2,0,P|172:120|92:68,2,180,0|0|8,0:0|0:0|0:0,0:0:0:0:
368,60,144302,6,0,P|388:132|332:224,2,180,4|0|8,0:0|0:0|0:0,0:0:0:0:
252,120,145731,2,0,P|128:160|48:80,1,240
164,20,146802,1,8,0:0:0:0:
252,120,147159,6,0,L|240:316,2,180,0|0|8,0:0|0:0|0:0,0:0:0:0:
340,220,148588,2,0,L|350:40,2,180,0|0|8,0:0|0:0|0:0,0:0:0:0:
404,336,150017,6,0,P|328:360|244:308,2,180,4|0|8,0:0|0:0|0:0,0:0:0:0:
340,220,151445,2,0,P|224:184|128:248,1,240
247,311,152517,1,8,0:0:0:0:
376,312,152874,6,0,P|428:256|408:152,1,180
376,140,153588,2,0,P|338:182|278:185,1,120,0|8,0:0|0:0,0:0:0:0:
280,52,154302,6,0,P|317:9|377:6,2,120,0|8|0,0:0|0:0|0:0,0:0:0:0:
168,124,155374,2,0,P|141:122|109:130,1,60,8|0,0:0|0:0,0:0:0:0:
256,192,155731,12,0,158588,0:0:0:0:
48,332,167159,6,0,B|80:296|120:304|144:252,1,120,4|8,0:0|0:0,0:0:0:0:
168,200,167695,2,0,P|180:156|208:140,1,60
256,32,168231,1,8,0:0:0:0:
322,147,168588,2,0,P|332:156|344:200,1,60
371,258,168945,2,0,B|392:304|432:296|464:332,2,120,8|0|8,0:0|0:0|0:0,0:0:0:0:
460,160,170017,6,0,P|476:104|340:72,1,240
256,172,171088,1,8,0:0:0:0:
172,72,171445,2,0,P|36:104|52:160,1,240
108,280,172517,1,8,0:0:0:0:
196,180,172874,6,0,P|204:124|160:64,2,120,4|8|0,0:0|0:0|0:0,0:0:0:0:
256,296,173945,1,8,0:0:0:0:
316,180,174302,2,0,P|308:124|352:64,2,120,0|8|0,0:0|0:0|0:0,0:0:0:0:
408,276,175374,1,8,0:0:0:0:
408,276,175731,6,0,P|392:340|328:340,1,120,0|8,0:0|0:0,0:0:0:0:
280,344,176267,2,0,P|248:328|228:308,1,60
200,184,176802,2,0,L|236:132,2,60,8|0|0,0:0|0:0|0:0,0:0:0:0:
100,272,177517,2,0,P|56:260|44:240,1,60,8|0,0:0|0:0,0:0:0:0:
28,188,177874,2,0,P|24:136|64:84,1,120,0|8,0:0|0:0,0:0:0:0:
188,44,178588,5,4,0:0:0:0:
324,44,178945,2,8,P|448:44|448:144,1,240
332,192,180017,1,0,0:0:0:0:
453,248,180374,6,8,P|448:340|324:340,2,240
332,192,182159,1,0,0:0:0:0:
200,192,182517,2,8,P|76:192|76:92,2,240
256,72,184302,5,4,0:0:0:0:
388,72,184659,2,8,P|465:148|388:224,1,240
256,244,185731,2,0,P|256:304|212:344,1,120,0|8,0:0|0:0,0:0:0:0:
96,288,186445,1,0,0:0:0:0:
96,156,186802,2,0,P|54:117|54:57,1,120,8|0,0:0|0:0,0:0:0:0:
180,100,187517,6,8,P|256:23|332:100,1,240
256,208,188588,2,0,L|256:328,2,120,0|8|0,0:0|0:0|0:0,0:0:0:0:
256,76,189659,1,8,0:0:0:0:
256,192,190017,12,4,192874,0:0:0:0:
312,312,193588,6,0,P|256:332|200:312,1,120,0|2,0:0|0:0,0:0:0:0:
124,208,194302,2,0,P|80:248|80:364,2,180,0|0|0,0:0|0:0|0:0,0:0:0:0:
256,192,195731,5,2,0:0:0:0:
310,71,196088,2,0,P|256:52|200:72,1,120,0|2,0:0|0:0,0:0:0:0:
256,192,196802,1,0,0:0:0:0:
388,176,197159,2,0,P|432:136|433:22,2,180,2|0|0,0:0|0:0|0:0,0:0:0:0:
256,192,198588,5,2,0:0:0:0:
184,304,198945,1,0,0:0:0:0:
68,236,199302,2,0,B|56:176|56:176|88:132|88:132|76:68,2,180,2|2|2,0:0|0:0|0:0,0:0:0:0:
184,304,200731,2,0,P|248:288|276:244,1,120,0|2,0:0|0:0,0:0:0:0:
236,120,201445,6,0,P|304:112|388:180,2,180,4|0|2,0:0|0:0|0:0,0:0:0:0:
152,220,202874,2,0,P|86:200|35:107,2,180,0|0|2,0:0|0:0|0:0,0:0:0:0:
276,268,204302,5,4,0:0:0:0:
252,140,204659,2,0,P|272:64|324:44,2,120,8|0|8,0:0|0:0|0:0,0:0:0:0:
376,184,205731,1,0,0:0:0:0:
480,264,206088,2,0,P|460:340|408:360,2,120,8|0|8,0:0|0:0|0:0,0:0:0:0:
464,132,207159,1,0,0:0:0:0:
376,32,207517,6,0,P|316:48|300:120,1,120,8|0,0:0|0:0,0:0:0:0:
288,228,208231,2,0,P|264:268|192:280,1,120,8|0,0:0|0:0,0:0:0:0:
112,180,208945,1,8,0:0:0:0:
216,97,209302,2,0,P|196:48|136:32,1,120,0|8,0:0|0:0,0:0:0:0:
40,120,210017,6,0,B|116:104|120:272|216:260,1,240,4|0,0:0|0:0,0:0:0:0:
256,136,211088,2,0,L|256:72,2,60,8|0|0,0:0|0:0|0:0,0:0:0:0:
297,260,211802,1,8,0:0:0:0:
297,260,212159,6,0,B|392:272|396:104|472:120,2,240
292,128,213945,2,8,B|386:116|390:284|466:268,1,240
468,136,215017,2,0,P|432:80|380:44,1,120,0|8,0:0|0:0,0:0:0:0:
256,192,215731,12,0,217159,0:0:0:0:
140,68,217874,5,0,0:0:0:0:
188,192,218231,1,8,0:0:0:0:
324,192,218588,1,0,0:0:0:0:
372,68,218945,2,8,P|480:68|480:180,2,240
352,200,220731,2,0,B|352:260|352:260|384:312,1,120,0|8,0:0|0:0,0:0:0:0:
256,348,221445,5,4,0:0:0:0:
128,311,221802,2,0,B|160:260|160:260|160:200,1,120,8|0,0:0|0:0,0:0:0:0:
72,100,222517,2,0,P|132:100|168:56,1,120,8|0,0:0|0:0,0:0:0:0:
256,156,223231,1,8,0:0:0:0:
344,56,223588,6,0,P|380:100|440:100,1,120,0|8,0:0|0:0,0:0:0:0:
352,200,224302,1,0,0:0:0:0:
256,292,224659,1,8,0:0:0:0:
160,200,225017,6,0,P|52:200|52:92,1,240
172,40,226088,1,8,0:0:0:0:
256,144,226445,1,0,0:0:0:0:
340,40,226802,1,8,0:0:0:0:
384,164,227159,6,0,P|452:164|504:68,2,180,4|0|8,0:0|0:0|0:0,0:0:0:0:
256,144,228588,2,0,P|192:148|144:180,1,120,0|8,0:0|0:0,0:0:0:0:
236,276,229302,2,0,L|228:344,2,60,0|0|8,0:0|0:0|0:0,0:0:0:0:
256,144,230017,6,0,P|308:156|356:208,1,120,0|8,0:0|0:0,0:0:0:0:
236,276,230731,2,0,P|184:268|136:216,1,120,0|8,0:0|0:0,0:0:0:0:
136,88,231445,1,0,0:0:0:0:
252,24,231802,1,8,0:0:0:0:
368,88,232159,1,0,0:0:0:0:
356,220,232517,1,8,0:0:0:0:
236,276,232874,6,0,B|196:300|152:268|152:268|108:236|68:260,2,180,4|0|8,0:0|0:0|0:0,0:0:0:0:
356,220,234302,2,0,P|412:212|472:264,1,120,0|8,0:0|0:0,0:0:0:0:
384,352,235017,2,0,P|352:360|320:352,2,60,0|0|8,0:0|0:0|0:0,0:0:0:0:
356,220,235731,2,0,L|320:92,1,120,0|8,0:0|0:0,0:0:0:0:
188,104,236445,2,0,L|156:220,1,120,0|8,0:0|0:0,0:0:0:0:
144,352,237159,5,0,0:0:0:0:
256,280,237517,1,8,0:0:0:0:
368,352,237874,2,0,P|392:344|420:316,2,60,0|0|8,0:0|0:0|0:0,0:0:0:0:
256,280,238588,1,4,0:0:0:0:
