osu file format v12

[General]
AudioFilename: Kawada Mami - Sense.mp3
AudioLeadIn: 0
PreviewTime: 52874
Countdown: 0
SampleSet: Normal
StackLeniency: 0.4
Mode: 0
LetterboxInBreaks: 0

[Editor]
DistanceSpacing: 1.1
BeatDivisor: 4
GridSize: 4

[Metadata]
Title:sense
TitleUnicode:sense
Artist:Kawada Mami
ArtistUnicode:川田まみ
Creator:Andrea
Version:Hard
Source:Shakugan no Shana II
Tags:Lally xxheroxx -kevincela- Nemis osuplayer111 Ending Savia Collab
BeatmapID:225363
BeatmapSetID:81124

[Difficulty]
HPDrainRate:6
CircleSize:4
OverallDifficulty:7
ApproachRate:8
SliderMultiplier:1.6
SliderTickRate:1

[Events]
//Background and Video events
0,0,"BG.jpg",1,1
//Break Periods
2,88788,97838
2,158788,163552
//Storyboard Layer 0 (Background)
//Storyboard Layer 1 (Fail)
//Storyboard Layer 2 (Pass)
//Storyboard Layer 3 (Foreground)
Sprite,Foreground,Centre,"xxheroxx.png",720,180 M,0,6981,,540,430 F,0,6981,7160,0,1 F,0,18409,18588,1,0 F,0,41267,41445,0,1 F,0,52695,52874,1,0 F,0,75552,75731,0,1 F,0,88409,88588,1,0 F,0,121267,121445,0,1 F,0,132695,132874,1,0 F,0,166981,167159,0,1 F,0,178409,178588,1,0 F,0,204124,204302,0,1 F,0,215552,215731,1,0
Sprite,Foreground,Centre,"Andrea.png",720,180 M,0,18409,,540,430 F,0,18409,18588,0,1 F,0,29838,30017,1,0 F,0,52695,52874,0,1 F,0,64124,64302,1,0 F,0,98409,98588,0,1 F,0,109838,110017,1,0 F,0,132695,132874,0,1 F,0,132695,132874,0,1 F,0,144124,144302,1,0 F,0,144124,144302,1,0 F,0,178409,178588,0,1 F,0,189838,190017,1,0 F,0,215552,215731,0,1 F,0,226981,227159,1,0
Sprite,Foreground,Centre,"Nemis.png",720,180 M,0,29838,,540,430 F,0,29838,30017,0,1 F,0,41267,41445,1,0 F,0,64124,64302,0,1 F,0,75552,75731,1,0 F,0,109838,110017,0,1 F,0,121267,121445,1,0 F,0,144124,144302,0,1 F,0,158409,158588,1,0 F,0,189838,190017,0,1 F,0,204124,204302,1,0 F,0,226981,227159,0,1 F,0,238409,238588,1,0
//Storyboard Sound Samples
//Background Colour Transformations
3,100,255,64,64

[TimingPoints]
7160,357.142857142857,4,1,1,50,1,0
18588,-100,4,1,1,80,0,0
30017,-100,4,2,1,80,0,0
52874,-100,4,1,1,80,0,1
87159,-100,4,1,1,80,0,0
88588,-100,4,1,1,50,0,0
98588,-100,4,1,1,80,0,0
110017,-100,4,2,1,80,0,0
121445,-100,4,1,1,80,0,1
155731,-100,4,1,1,80,0,0
192874,-100,4,2,1,80,0,0
204302,-100,4,1,1,80,0,1
238588,-100,4,2,1,50,0,0

[Colours]
Combo1 : 215,202,40
Combo2 : 136,185,83

[HitObjects]
387,44,7160,1,4,0:0:0:0:
464,88,7338,1,0,0:0:0:0:
387,131,7517,1,0,0:0:0:0:
472,284,7874,1,0,0:0:0:0:
395,240,8052,1,0,0:0:0:0:
472,197,8231,1,0,0:0:0:0:
320,284,8588,6,0,L|250:324,2,80
176,184,9302,2,0,L|246:144,2,80
76,332,10017,5,4,2:0:0:0:
153,289,10195,1,0,0:0:0:0:
76,332,10374,1,0,0:0:0:0:
80,156,10731,1,0,0:0:0:0:
3,199,10909,1,0,0:0:0:0:
80,156,11088,1,0,0:0:0:0:
212,40,11445,6,0,P|240:67|250:105,1,80
161,113,11802,1,0,0:0:0:0:
332,152,12160,2,0,P|341:190|370:217,1,80
421,144,12517,1,0,0:0:0:0:
272,236,12874,5,4,0:0:0:0:
426,318,13231,1,0,0:0:0:0:
421,144,13588,1,0,0:0:0:0:
272,236,13945,1,0,0:0:0:0:
118,156,14302,5,0,0:0:0:0:
267,64,14659,1,0,0:0:0:0:
272,236,15017,1,0,0:0:0:0:
118,156,15374,1,0,0:0:0:0:
123,328,15731,6,0,L|163:258,1,80
272,236,16088,2,0,L|232:306,1,80,0|0,0:0|0:0,0:0:0:0:
342,286,16445,2,0,L|382:216,1,80
491,194,16802,2,0,L|451:264,1,80,0|0,0:0|0:0,0:0:0:0:
402,111,17159,6,0,L|422:145,4,40,0|0|0|0|0,0:0|0:0|0:0|0:0|0:0,0:0:0:0:
340,48,17695,1,0,0:0:0:0:
256,20,17874,1,0,0:0:0:0:
272,106,18052,1,0,0:0:0:0:
240,136,18142,1,0,0:0:0:0:
196,136,18231,1,0,0:0:0:0:
166,51,18409,1,0,0:0:0:0:
109,118,18588,5,4,0:0:0:0:
64,192,18767,1,0,0:0:0:0:
88,276,18945,2,0,P|165:276|174:346,1,160,8|0,0:0|0:0,0:0:0:0:
256,376,19481,1,0,0:0:0:0:
337,344,19659,2,0,P|347:276|424:276,1,160,8|0,0:0|0:0,0:0:0:0:
448,192,20195,1,0,0:0:0:0:
403,118,20374,1,8,0:0:0:0:
364,40,20552,2,0,B|320:40|320:40|292:64,1,80
148,40,20909,2,0,B|192:40|192:40|220:64,1,80,0|8,0:0|0:0,0:0:0:0:
256,192,21445,6,0,L|256:276,1,80
188,328,21802,2,0,P|256:364|324:328,1,160,8|0,0:0|0:0,0:0:0:0:
396,276,22338,1,0,0:0:0:0:
464,220,22517,2,0,P|464:140|408:88,1,160,8|0,0:0|0:0,0:0:0:0:
332,44,23052,1,0,0:0:0:0:
256,88,23231,1,8,0:0:0:0:
180,44,23409,6,0,P|140:44|108:72,1,80
176,128,23767,1,0,0:0:0:0:
116,192,23945,1,8,0:0:0:0:
176,256,24124,1,0,0:0:0:0:
110,315,24302,6,0,P|140:340|180:340,1,80,4|0,0:0|0:0,0:0:0:0:
256,296,24659,2,0,P|336:296|396:248,1,160,8|0,0:0|0:0,0:0:0:0:
464,192,25195,1,0,0:0:0:0:
396,136,25374,2,0,P|336:88|256:88,1,160,8|0,0:0|0:0,0:0:0:0:
168,88,25909,2,0,B|128:88|128:88|96:116,1,80,0|8,0:0|0:0,0:0:0:0:
56,192,26267,1,0,0:0:0:0:
97,269,26445,2,0,B|128:296|128:296|168:296,1,80
256,296,26802,6,0,P|336:296|396:248,1,160,8|0,0:0|0:0,0:0:0:0:
328,192,27338,1,0,0:0:0:0:
396,136,27517,2,0,P|336:88|256:88,1,160,8|0,0:0|0:0,0:0:0:0:
192,148,28052,1,0,0:0:0:0:
192,236,28231,1,8,0:0:0:0:
116,192,28409,2,0,L|72:192,2,40
120,104,28767,1,0,0:0:0:0:
192,52,28945,1,8,0:0:0:0:
280,52,29124,5,0,0:0:0:0:
312,80,29213,1,0,0:0:0:0:
344,108,29302,1,4,0:0:0:0:
376,136,29392,1,0,0:0:0:0:
408,164,29481,1,0,0:0:0:0:
460,236,29659,2,0,P|408:296|328:296,1,160,8|4,0:0|0:0,0:0:0:0:
332,297,30374,6,0,L|244:304,1,80,8|0,0:0|0:0,0:0:0:0:
164,340,30731,1,0,0:0:0:0:
64,192,30909,2,0,P|120:184|204:188,1,120,8|0,0:0|0:0,0:0:0:0:
183,185,31267,6,0,L|188:140|192:104,1,80,8|0,0:0|0:0,0:0:0:0:
260,40,31624,1,0,0:0:0:0:
388,72,31802,2,0,L|383:117|379:153,1,80,8|0,0:0|0:0,0:0:0:0:
314,218,32159,1,0,0:0:0:0:
228,232,32338,1,8,0:0:0:0:
211,147,32517,1,0,0:0:0:0:
296,132,32696,1,0,0:0:0:0:
412,240,32874,5,10,0:0:0:0:
412,240,33231,2,0,P|420:288|424:344,1,80,8|10,0:0|0:0,0:0:0:0:
328,348,33588,1,0,0:0:0:0:
328,348,33767,2,0,L|208:340,1,120,8|0,0:0|0:0,0:0:0:0:
208,340,34124,1,8,0:0:0:0:
256,256,34302,6,0,P|268:216|268:176,1,80
100,224,34659,2,0,P|100:268|112:308,1,80,8|0,0:0|0:0,0:0:0:0:
28,116,35017,2,0,P|108:136|196:104,1,160,0|8,0:0|0:0,0:0:0:0:
352,52,35552,1,0,0:0:0:0:
352,52,35731,6,0,L|364:144,1,80,4|0,0:0|0:0,0:0:0:0:
444,240,36088,2,0,L|300:232,1,120,8|0,1:0|0:0,0:0:0:0:
324,233,36445,1,0,0:0:0:0:
260,312,36624,1,8,0:0:0:0:
216,196,36802,2,0,P|172:184|128:184,1,80,0|8,0:0|0:0,0:0:0:0:
68,308,37159,6,0,L|64:220,1,80,0|8,0:0|0:0,0:0:0:0:
120,104,37517,2,0,P|200:108|268:132,1,120,8|0,1:0|0:0,0:0:0:0:
238,118,37874,2,0,P|232:68|232:36,1,80,0|8,0:0|0:0,0:0:0:0:
360,72,38231,1,0,0:0:0:0:
424,152,38409,1,8,0:0:0:0:
328,164,38588,6,0,P|332:104|336:80,1,80,6|0,0:0|0:0,0:0:0:0:
416,272,38945,1,8,1:0:0:0:
416,272,39124,2,0,P|376:268|280:272,1,120,10|0,0:0|0:0,0:0:0:0:
296,269,39481,1,8,0:0:0:0:
212,328,39659,2,0,L|208:244,1,80,8|0,0:0|0:0,0:0:0:0:
216,120,40017,5,4,0:0:0:0:
108,84,40195,1,0,0:0:0:0:
108,84,40284,1,0,0:0:0:0:
108,84,40373,1,8,1:0:0:0:
128,200,40552,1,0,0:0:0:0:
300,188,40731,2,0,P|304:144|308:84,1,80,0|8,0:0|0:0,0:0:0:0:
376,40,41088,1,4,0:0:0:0:
440,200,41267,2,0,L|464:196,4,20,0|0|0|0|4,0:0|0:0|0:0|0:0|0:0,0:0:0:0:
324,332,41802,5,8,0:0:0:0:
240,360,41981,1,0,0:0:0:0:
176,300,42159,1,0,0:0:0:0:
92,328,42338,2,0,P|30:280|20:203,1,160,8|8,0:0|0:0,0:0:0:0:
100,240,42874,2,0,B|156:249|175:154|231:164,1,160,0|8,0:0|0:0,0:0:0:0:
312,200,43409,2,0,P|301:123|240:76,1,160,0|8,0:0|0:0,0:0:0:0:
152,60,43945,1,0,0:0:0:0:
390,71,44302,5,2,0:0:0:0:
472,104,44481,1,0,0:0:0:0:
403,158,44659,2,0,P|414:235|475:282,1,160,8|0,0:0|0:0,0:0:0:0:
476,194,45195,2,0,P|399:205|351:267,1,160,8|8,0:0|0:0,0:0:0:0:
356,355,45731,1,0,0:0:0:0:
310,185,46088,6,0,L|289:107,1,80,8|0,0:0|0:0,0:0:0:0:
226,233,46445,2,0,L|169:176,1,80
177,316,46802,2,0,L|99:295,1,80,8|0,0:0|0:0,0:0:0:0:
226,233,47159,6,0,L|379:274,1,160,2|8,0:0|1:0,0:0:0:0:
476,223,47695,2,0,L|323:182,1,160
264,89,48231,2,0,L|417:129,2,160,8|0|8,0:0|0:0|1:0,0:0:0:0:
94,43,49302,5,0,0:0:0:0:
146,114,49481,1,0,0:0:0:0:
59,125,49659,1,0,0:0:0:0:
111,196,49838,1,0,0:0:0:0:
24,207,50017,5,8,1:0:0:0:
93,305,50195,1,0,0:0:0:0:
93,305,50284,1,0,0:0:0:0:
93,305,50374,1,8,1:0:0:0:
201,355,50552,1,0,0:0:0:0:
321,345,50731,1,0,0:0:0:0:
321,345,50820,1,0,0:0:0:0:
321,345,50910,1,0,0:0:0:0:
419,276,51088,2,0,L|433:288,4,20,0|0|0|0|0,1:0|1:0|1:0|1:0|1:0,1:0:0:0:
469,167,51445,5,0,0:0:0:0:
457,45,51623,1,8,1:0:0:0:
457,45,51713,1,0,0:0:0:0:
457,45,51802,1,0,0:0:0:0:
338,18,51981,1,0,0:0:0:0:
276,121,52160,1,8,1:0:0:0:
276,121,52249,1,0,0:0:0:0:
276,121,52338,1,0,0:0:0:0:
357,213,52517,1,8,1:0:0:0:
357,213,52606,1,0,0:0:0:0:
357,213,52695,1,0,0:0:0:0:
357,213,52784,1,0,0:0:0:0:
357,213,52874,6,0,P|276:212|232:272,1,160,4|8,0:0|0:0,0:0:0:0:
232,360,53409,1,0,0:0:0:0:
156,316,53588,2,0,P|116:316|88:288,1,80
20,236,53945,1,8,0:0:0:0:
20,148,54124,1,0,0:0:0:0:
88,94,54302,2,0,P|116:68|156:68,1,80
232,24,54659,1,8,0:0:0:0:
232,113,54838,2,0,P|276:172|357:171,1,160,0|0,0:0|0:0,0:0:0:0:
320,92,55374,6,0,L|244:240,2,160,8|0|8,0:0|0:0|0:0,0:0:0:0:
356,12,56267,1,0,0:0:0:0:
436,44,56445,1,0,0:0:0:0:
400,124,56624,1,0,0:0:0:0:
484,152,56802,2,0,P|484:192|456:220,1,80,8|0,0:0|0:0,0:0:0:0:
368,220,57159,1,0,0:0:0:0:
300,276,57338,1,0,0:0:0:0:
212,276,57517,1,8,0:0:0:0:
144,220,57695,2,0,P|64:220|20:160,1,160
108,144,58231,6,0,L|28:284,2,160,8|4|8,0:0|0:0|0:0,0:0:0:0:
148,64,59124,2,0,B|192:64|192:64|220:96,1,80
256,12,59481,1,0,0:0:0:0:
364,64,59659,2,0,B|320:64|320:64|292:96,1,80,8|0,0:0|0:0,0:0:0:0:
256,174,60017,1,0,0:0:0:0:
256,264,60195,1,0,0:0:0:0:
324,320,60374,6,0,P|256:356|188:320,2,160,8|0|8,0:0|0:0|0:0,0:0:0:0:
256,264,61267,1,0,0:0:0:0:
188,212,61445,2,0,P|256:176|324:212,1,160,0|8,0:0|0:0,0:0:0:0:
256,264,61981,2,0,L|256:104,1,160
256,104,62517,1,8,0:0:0:0:
84,64,62874,6,0,L|104:28,2,40
40,140,63231,1,8,0:0:0:0:
116,184,63409,1,0,0:0:0:0:
116,184,63499,1,0,0:0:0:0:
116,184,63588,1,0,0:0:0:0:
76,264,63767,2,0,P|76:304|104:332,1,80,0|8,0:0|0:0,0:0:0:0:
160,264,64124,1,0,0:0:0:0:
220,328,64302,6,0,B|280:312|360:328|360:328,1,120,4|0,0:0|2:0,0:0:0:0:
339,324,64659,2,0,L|348:244,1,80,8|0,0:0|0:0,0:0:0:0:
248,136,65017,2,0,L|239:220,1,80
160,264,65374,1,8,0:0:0:0:
72,208,65552,1,0,0:0:0:0:
124,88,65731,5,0,0:0:0:0:
124,88,65909,2,0,P|176:80|212:80,1,80,0|8,0:0|0:0,0:0:0:0:
292,192,66267,1,0,0:0:0:0:
364,112,66445,1,0,0:0:0:0:
292,192,66624,1,0,0:0:0:0:
392,216,66802,2,0,P|432:220|476:208,1,80,8|0,0:0|0:0,0:0:0:0:
324,296,67159,6,0,P|264:288|192:292,1,120,0|0,0:0|2:0,0:0:0:0:
204,290,67517,1,8,0:0:0:0:
104,324,67695,1,0,0:0:0:0:
120,212,67874,2,0,L|40:224,1,80
148,120,68231,2,0,L|228:108,1,80,8|0,0:0|0:0,0:0:0:0:
328,56,68588,5,0,0:0:0:0:
328,56,68767,2,0,P|368:60|440:64,1,80,0|8,0:0|0:0,0:0:0:0:
480,160,69124,2,0,L|474:257,1,80
376,240,69481,1,0,0:0:0:0:
252,148,69659,2,0,P|292:144|336:144,1,80,8|0,0:0|0:0,0:0:0:0:
276,268,70017,6,0,P|212:280|152:268,1,120,4|0,0:0|2:0,0:0:0:0:
158,270,70374,2,0,L|144:188,1,80,8|0,0:0|0:0,0:0:0:0:
84,312,70731,1,0,0:0:0:0:
84,312,70909,2,0,L|4:316,2,80,0|8|0,0:0|0:0|0:0,0:0:0:0:
200,340,71445,5,0,0:0:0:0:
292,352,71624,1,0,0:0:0:0:
304,260,71802,1,8,0:0:0:0:
212,248,71981,1,0,0:0:0:0:
320,368,72159,2,0,B|328:336|332:284|332:284,1,80
180,196,72517,2,0,B|168:248|172:292|172:292,1,80,8|0,0:0|0:0,0:0:0:0:
256,140,72874,5,0,0:0:0:0:
424,244,73231,1,8,0:0:0:0:
424,244,73409,1,0,0:0:0:0:
88,172,73767,1,0,0:0:0:0:
88,172,73945,2,0,L|80:304,1,120,8|0,0:0|2:0,0:0:0:0:
80,291,74302,2,0,P|124:276|184:272,1,80
180,276,74570,1,0,0:0:0:0:
204,284,74659,1,8,0:0:0:0:
300,208,74838,6,0,B|296:180|292:144|292:144,2,40
316,332,75195,1,0,0:0:0:0:
316,332,75284,1,0,0:0:0:0:
316,332,75374,1,8,0:0:0:0:
415,251,75552,1,0,0:0:0:0:
440,125,75731,6,0,P|394:62|318:48,1,160,4|8,0:0|0:0,0:0:0:0:
235,83,76267,2,0,P|189:21|111:8,1,160,0|0,0:0|0:0,0:0:0:0:
147,89,76802,1,8,0:0:0:0:
98,162,76981,1,0,0:0:0:0:
133,243,77159,2,0,P|55:230|9:168,1,160,0|8,0:0|0:0,0:0:0:0:
212,216,77874,6,0,P|290:229|335:290,2,160,0|8|0,0:0|0:0|0:0,0:0:0:0:
371,375,78945,1,8,0:0:0:0:
371,375,79124,2,0,P|293:362|248:300,1,160
335,291,79659,2,0,P|413:304|458:366,1,160,8|0,0:0|0:0,0:0:0:0:
475,190,80374,5,8,0:0:0:0:
475,190,80552,2,0,P|397:177|351:114,1,160
360,27,81088,1,8,0:0:0:0:
272,18,81267,1,0,0:0:0:0:
263,105,81445,2,0,P|207:158|128:157,1,160,4|8,0:0|0:0,0:0:0:0:
177,84,81981,6,0,P|98:83|42:136,1,160
128,157,82517,1,8,0:0:0:0:
66,219,82695,1,0,0:0:0:0:
153,240,82873,2,0,P|97:293|18:292,1,160,0|8,0:0|0:0,0:0:0:0:
184,370,83588,6,0,P|240:317|319:318,1,160,0|8,0:0|0:0,0:0:0:0:
360,334,84302,1,0,0:0:0:0:
401,350,84838,1,0,0:0:0:0:
401,350,85017,1,0,0:0:0:0:
442,366,85731,5,8,0:0:0:0:
442,366,85820,1,0,0:0:0:0:
442,366,85909,1,0,0:0:0:0:
478,251,86088,1,0,0:0:0:0:
451,133,86267,1,0,0:0:0:0:
451,133,86356,1,0,0:0:0:0:
451,133,86445,1,8,0:0:0:0:
368,44,86624,2,0,L|378:26,2,20
368,44,86802,1,8,0:0:0:0:
251,8,86981,1,0,0:0:0:0:
131,35,87159,1,4,0:0:0:0:
256,192,87249,12,0,88588,0:0:0:0:
52,344,98588,6,0,P|132:344|184:288,1,160,4|8,0:0|0:0,0:0:0:0:
112,236,99124,1,0,0:0:0:0:
112,148,99302,1,0,0:0:0:0:
184,96,99481,2,0,P|132:40|52:40,2,160,8|8|0,0:0|0:0|0:0,0:0:0:0:
112,148,100374,1,8,0:0:0:0:
256,248,100731,1,0,0:0:0:0:
328,300,100909,1,0,0:0:0:0:
396,356,101088,2,0,P|456:304|456:228,1,160,8|0,0:0|0:0,0:0:0:0:
364,76,101802,5,8,0:0:0:0:
300,16,101981,1,0,0:0:0:0:
212,16,102159,1,0,0:0:0:0:
148,76,102338,2,0,P|68:76|8:128,2,160,8|8|0,0:0|0:0|0:0,0:0:0:0:
192,152,103231,2,0,P|256:192|320:148,1,160,8|0,0:0|0:0,0:0:0:0:
360,228,103767,2,0,P|336:260|296:260,1,80,0|8,0:0|0:0,0:0:0:0:
152,228,104124,2,0,P|176:260|216:260,1,80
256,44,104659,5,8,0:0:0:0:
192,104,104838,2,0,P|256:144|320:100,1,160
256,44,105374,2,0,L|256:212,1,160,2|0,2:0|0:0,0:0:0:0:
256,292,105909,1,0,0:0:0:0:
324,348,106088,2,0,B|404:348|404:348|464:292,2,160,8|0|2,0:0|0:0|2:0,0:0:0:0:
256,292,106981,1,0,0:0:0:0:
188,348,107159,2,0,B|108:348|108:348|48:292,1,160,0|8,0:0|0:0,0:0:0:0:
48,204,107695,1,0,0:0:0:0:
212,140,108052,1,0,0:0:0:0:
300,140,108231,1,2,2:0:0:0:
448,236,108588,5,0,0:0:0:0:
384,296,108767,1,0,0:0:0:0:
356,296,108856,1,0,0:0:0:0:
328,296,108945,1,8,0:0:0:0:
256,348,109124,1,0,0:0:0:0:
184,296,109302,1,0,0:0:0:0:
164,272,109392,1,0,0:0:0:0:
144,248,109481,1,0,0:0:0:0:
124,224,109570,1,0,0:0:0:0:
104,200,109659,1,8,0:0:0:0:
48,132,109838,1,0,0:0:0:0:
116,76,110017,5,4,0:0:0:0:
116,76,110374,2,0,P|176:68|212:64,1,80,8|0,0:0|0:0,0:0:0:0:
256,152,110731,1,0,0:0:0:0:
256,152,110909,2,0,P|248:212|268:276,1,120,8|0,0:0|0:0,0:0:0:0:
263,268,111267,1,8,0:0:0:0:
344,216,111445,6,0,L|428:208,1,80
288,348,111802,2,0,L|204:356,1,80,8|8,0:0|0:0,0:0:0:0:
76,300,112159,1,0,0:0:0:0:
112,204,112338,1,0,0:0:0:0:
176,280,112517,1,8,0:0:0:0:
12,216,112695,1,8,0:0:0:0:
48,120,112874,6,0,P|112:104|188:104,1,120,0|0,0:0|0:0,0:0:0:0:
165,101,113231,2,0,L|180:16,1,80,8|8,0:0|0:0,0:0:0:0:
240,160,113588,1,0,0:0:0:0:
240,160,113767,2,0,P|328:176|404:148,1,160,8|8,0:0|0:0,0:0:0:0:
292,68,114302,6,0,P|296:112|304:168,1,80,0|0,0:0|0:0,0:0:0:0:
476,176,114659,2,0,P|472:131|464:76,1,80,8|0,0:0|0:0,0:0:0:0:
336,244,115017,1,0,0:0:0:0:
368,332,115195,1,8,0:0:0:0:
428,264,115374,2,0,P|464:260|508:264,1,80,8|0,0:0|0:0,0:0:0:0:
272,316,115731,6,0,P|216:336|128:312,1,120,8|0,0:0|0:0,0:0:0:0:
157,328,116088,1,8,1:0:0:0:
44,344,116267,2,0,L|48:236,1,80,0|0,0:0|0:0,0:0:0:0:
108,176,116624,1,0,0:0:0:0:
208,168,116802,2,0,P|216:204|216:252,1,80,8|0,0:0|0:0,0:0:0:0:
156,84,117159,1,0,0:0:0:0:
156,84,117338,1,0,0:0:0:0:
156,84,117517,1,8,1:0:0:0:
156,84,117874,6,0,L|240:76,1,80
392,0,118231,2,0,L|312:7,1,80,8|0,0:0|0:0,0:0:0:0:
368,112,118588,2,0,B|372:168|372:168|348:216|348:216|352:292,1,160,0|8,0:0|1:0,0:0:0:0:
380,124,119124,2,0,B|384:180|384:180|360:228|360:228|364:304,1,160
392,140,119659,2,0,B|396:196|396:196|372:244,1,80,0|0,0:0|0:0,0:0:0:0:
272,196,120017,5,8,1:0:0:0:
272,196,120106,1,0,0:0:0:0:
272,196,120195,1,0,0:0:0:0:
244,80,120374,1,0,0:0:0:0:
152,160,120552,1,8,1:0:0:0:
150,179,120641,1,0,0:0:0:0:
150,198,120730,1,0,0:0:0:0:
150,217,120819,1,0,0:0:0:0:
152,236,120909,1,0,0:0:0:0:
154,255,120998,1,0,0:0:0:0:
158,274,121088,2,0,P|120:268|56:272,1,80,8|0,1:0|0:0,0:0:0:0:
240,320,121445,6,0,P|315:338|382:300,1,160,4|8,0:0|0:0,0:0:0:0:
412,216,121981,1,0,0:0:0:0:
326,233,122159,1,0,0:0:0:0:
383,299,122338,1,0,0:0:0:0:
469,282,122517,1,8,0:0:0:0:
412,216,122695,2,0,L|438:140,1,80
350,131,123052,2,0,L|334:52,1,80,0|8,0:0|0:0,0:0:0:0:
254,89,123409,2,0,L|200:28,1,80
149,100,123767,1,0,0:0:0:0:
149,100,123945,2,0,B|97:124|54:37|2:60,1,160,8|0,0:0|0:0,0:0:0:0:
118,268,124659,5,8,0:0:0:0:
185,211,124838,1,0,0:0:0:0:
199,299,125017,1,0,0:0:0:0:
134,356,125195,1,0,0:0:0:0:
51,325,125374,1,8,0:0:0:0:
36,239,125553,1,0,0:0:0:0:
102,182,125731,1,0,0:0:0:0:
185,211,125909,2,0,P|260:193|302:128,2,160,0|8|0,0:0|0:0|0:0,0:0:0:0:
213,127,126802,2,0,P|254:60|330:43,1,160,8|4,0:0|0:0,0:0:0:0:
508,204,127517,5,8,0:0:0:0:
484,288,127695,1,0,0:0:0:0:
423,224,127874,1,0,0:0:0:0:
399,308,128052,2,0,B|365:354|285:300|251:346,1,160,8|0,0:0|0:0,0:0:0:0:
344,196,128767,1,0,0:0:0:0:
344,196,128945,2,0,B|310:242|230:188|196:234,1,160,8|0,0:0|0:0,0:0:0:0:
340,40,129659,5,8,0:0:0:0:
256,68,129838,1,0,0:0:0:0:
172,40,130017,2,0,P|94:42|40:96,1,160,0|8,0:0|0:0,0:0:0:0:
30,185,130552,2,0,P|70:250|143:270,1,160,0|0,0:0|0:0,0:0:0:0:
228,236,131088,2,0,P|253:206|265:166,1,80,8|0,0:0|0:0,0:0:0:0:
379,67,131445,6,0,L|392:29,2,40
348,149,131802,1,8,0:0:0:0:
453,207,131981,2,0,L|483:181,2,40
386,263,132338,1,0,0:0:0:0:
447,365,132517,2,0,L|486:358,2,40,8|0|0,0:0|0:0|0:0,0:0:0:0:
361,380,132874,6,0,P|284:360|248:292,1,160,4|8,0:0|0:0,0:0:0:0:
160,296,133409,2,0,P|120:296|92:268,1,80
48,192,133767,1,0,0:0:0:0:
92,114,133945,2,0,P|120:88|160:88,1,80,8|0,0:0|0:0,0:0:0:0:
212,160,134302,1,0,0:0:0:0:
300,160,134481,1,0,0:0:0:0:
352,88,134659,2,0,P|392:88|419:114,1,80,8|0,0:0|0:0,0:0:0:0:
368,284,135195,2,0,B|328:284|328:284|296:308,1,80,0|8,0:0|0:0,0:0:0:0:
144,284,135552,2,0,B|184:284|184:284|216:308,1,80
256,136,136088,5,8,0:0:0:0:
216,56,136267,2,0,L|168:124,1,80
296,56,136624,2,0,L|344:124,1,80,0|8,0:0|0:0,0:0:0:0:
388,196,136981,1,0,0:0:0:0:
308,232,137159,1,0,0:0:0:0:
256,304,137338,1,0,0:0:0:0:
204,232,137517,1,8,0:0:0:0:
124,196,137695,1,0,0:0:0:0:
256,160,138052,6,0,L|256:80,2,80,0|8|0,0:0|0:0|0:0,0:0:0:0:
204,232,138588,2,0,P|255:282|308:232,1,160,4|8,0:0|0:0,0:0:0:0:
256,160,139124,2,0,L|256:320,1,160
184,368,139659,1,8,0:0:0:0:
256,320,139838,1,0,0:0:0:0:
328,368,140017,2,0,P|404:344|440:276,1,160,0|8,0:0|0:0,0:0:0:0:
460,192,140552,1,0,0:0:0:0:
440,108,140731,6,0,P|404:40|328:16,1,160,0|8,0:0|0:0,0:0:0:0:
256,68,141267,1,0,0:0:0:0:
184,16,141445,2,0,P|108:40|72:108,1,160,0|8,0:0|0:0,0:0:0:0:
52,192,141981,1,0,0:0:0:0:
156,332,142338,1,0,0:0:0:0:
212,264,142517,1,8,0:0:0:0:
300,264,142695,1,0,0:0:0:0:
356,332,142874,1,0,0:0:0:0:
256,188,143231,1,8,0:0:0:0:
204,116,143409,6,0,P|255:66|308:116,1,160
256,188,143945,1,8,0:0:0:0:
212,264,144124,1,0,0:0:0:0:
300,264,144302,6,0,P|340:256|384:256,1,80,4|0,0:0|0:0,0:0:0:0:
460,308,144659,1,8,0:0:0:0:
284,356,144838,2,0,P|220:360|120:340,1,160
40,276,145374,2,0,P|32:320|28:364,1,80,8|0,0:0|0:0,0:0:0:0:
140,240,145731,1,0,0:0:0:0:
64,176,145909,1,0,0:0:0:0:
160,140,146088,1,8,0:0:0:0:
160,140,146445,6,0,B|212:136|212:136|264:148|264:148|336:140,1,160,0|8,0:0|0:0,0:0:0:0:
400,80,146981,1,0,0:0:0:0:
416,176,147159,2,0,P|424:232|404:332,1,160,0|8,0:0|0:0,0:0:0:0:
304,364,147695,1,0,0:0:0:0:
328,192,147874,2,0,P|331:223|327:271,1,80
228,296,148231,1,8,0:0:0:0:
228,296,148409,6,0,P|176:288|88:288,1,120,0|0,0:0|2:0,0:0:0:0:
108,286,148767,2,0,P|100:240|96:200,1,80,0|8,0:0|0:0,0:0:0:0:
224,48,149124,2,0,P|232:104|236:172,1,120,0|0,0:0|2:0,0:0:0:0:
235,167,149481,1,0,0:0:0:0:
148,120,149659,2,0,L|64:112,1,80,8|0,0:0|0:0,0:0:0:0:
248,184,150017,6,0,L|407:200,1,160,4|8,0:0|0:0,0:0:0:0:
500,168,150552,1,0,0:0:0:0:
500,168,150909,2,0,P|504:192|508:252,1,80,0|8,0:0|0:0,0:0:0:0:
448,328,151267,1,0,0:0:0:0:
360,248,151445,6,0,P|316:236|256:232,1,80
96,356,151802,2,0,P|152:364|224:348,1,120,8|0,0:0|2:0,0:0:0:0:
214,353,152159,2,0,L|208:268,1,80
156,152,152517,1,8,0:0:0:0:
56,120,152695,1,0,0:0:0:0:
76,220,152874,5,0,0:0:0:0:
76,220,153231,2,0,P|136:216|176:216,1,80,8|0,0:0|0:0,0:0:0:0:
256,140,153588,2,0,P|208:136|148:128,1,80
324,64,153945,1,8,0:0:0:0:
352,160,154124,1,0,0:0:0:0:
236,252,154302,6,0,P|232:312|232:332,1,80
231,331,154659,1,8,0:0:0:0:
376,264,154838,1,0,0:0:0:0:
376,264,155017,1,0,0:0:0:0:
272,216,155195,1,0,0:0:0:0:
272,216,155374,1,8,0:0:0:0:
336,368,155552,1,0,0:0:0:0:
336,368,155731,1,4,0:0:0:0:
256,192,155820,12,0,158588,0:0:0:0:
256,192,164302,12,4,167159,0:0:0:0:
320,332,167517,6,0,P|359:329|391:306,1,80,8|0,0:0|0:0,0:0:0:0:
405,217,167874,2,0,P|365:219|333:242,1,80
320,332,168231,2,0,P|288:355|248:357,1,80,8|0,0:0|0:0,0:0:0:0:
178,308,168588,5,0,0:0:0:0:
258,270,168767,1,0,0:0:0:0:
187,220,168946,2,0,P|147:222|116:246,1,80,8|0,0:0|0:0,0:0:0:0:
32,220,169302,1,0,0:0:0:0:
88,152,169481,2,0,P|128:150|159:126,1,80,0|8,0:0|0:0,0:0:0:0:
97,64,169837,1,0,0:0:0:0:
183,43,170017,6,0,P|215:20|255:17,1,80
335,53,170374,2,0,P|358:85|360:125,1,80,8|0,0:0|0:0,0:0:0:0:
348,275,170731,2,0,P|324:244|322:204,1,80
360,125,171088,2,0,P|391:102|431:100,1,80,8|0,0:0|0:0,0:0:0:0:
512,136,171445,5,0,0:0:0:0:
512,136,171624,1,0,0:0:0:0:
488,284,171802,1,8,0:0:0:0:
488,284,171981,1,0,0:0:0:0:
370,192,172159,1,0,0:0:0:0:
370,192,172338,1,0,0:0:0:0:
346,340,172516,1,8,0:0:0:0:
346,340,172695,1,0,0:0:0:0:
228,248,172874,6,0,P|188:250|157:273,1,80,4|0,0:0|0:0,0:0:0:0:
104,344,173231,2,0,P|72:368|33:370,1,80,8|0,0:0|0:0,0:0:0:0:
1,280,173588,2,0,P|32:255|71:253,1,80,0|0,0:0|0:0,0:0:0:0:
157,273,173945,2,0,P|196:270|228:247,1,80,8|0,0:0|0:0,0:0:0:0:
260,164,174302,6,0,P|257:125|234:93,1,80
356,4,174659,2,0,P|359:43|382:75,1,80,8|0,0:0|0:0,0:0:0:0:
373,227,175017,2,0,P|350:195|347:156,1,80
469,67,175374,2,0,P|492:99|495:138,1,80,8|0,0:0|0:0,0:0:0:0:
373,227,175731,5,0,0:0:0:0:
373,227,175909,1,0,0:0:0:0:
511,287,176088,1,8,0:0:0:0:
511,287,176266,1,0,0:0:0:0:
394,382,176445,1,0,0:0:0:0:
394,382,176623,1,0,0:0:0:0:
256,322,176802,1,8,0:0:0:0:
256,322,176980,1,0,0:0:0:0:
118,382,177159,5,0,0:0:0:0:
118,382,177337,1,0,0:0:0:0:
1,287,177517,1,8,0:0:0:0:
1,287,177695,1,0,0:0:0:0:
139,227,177874,1,0,0:0:0:0:
139,227,178052,1,0,0:0:0:0:
256,322,178230,1,8,0:0:0:0:
256,322,178409,1,0,0:0:0:0:
256,172,178588,5,4,0:0:0:0:
112,72,178945,1,8,0:0:0:0:
184,24,179124,2,0,B|256:60|256:60|328:24,1,160
400,72,179659,1,8,0:0:0:0:
472,232,180017,6,0,P|432:232|400:256,1,80
464,316,180374,2,0,B|436:352|372:356|372:356|312:356,1,160,8|0,0:0|0:0,0:0:0:0:
256,292,180909,1,0,0:0:0:0:
196,356,181088,2,0,B|140:356|140:356|76:352|48:316,1,160,8|0,0:0|0:0,0:0:0:0:
44,228,181624,1,0,0:0:0:0:
116,176,181802,6,0,B|184:156|184:100|184:100|184:48,1,160,8|0,0:0|0:0,0:0:0:0:
256,12,182338,1,0,0:0:0:0:
328,50,182517,2,0,B|328:100|328:100|328:156|396:176,1,160,8|0,0:0|0:0,0:0:0:0:
468,228,183052,1,0,0:0:0:0:
464,316,183231,2,0,B|436:352|372:356|372:356|315:356,1,160,8|0,0:0|0:0,0:0:0:0:
256,292,183767,2,0,P|216:292|184:268,1,80,0|8,0:0|0:0,0:0:0:0:
140,192,184124,1,0,0:0:0:0:
184,114,184302,6,0,P|216:92|256:92,1,80,4|0,0:0|0:0,0:0:0:0:
344,92,184659,1,8,0:0:0:0:
424,128,184838,2,0,B|472:192|472:192|424:256,1,160
364,192,185374,2,0,L|528:192,2,160,8|0|8,0:0|0:0|0:0,0:0:0:0:
256,332,186445,1,0,0:0:0:0:
188,276,186624,1,0,0:0:0:0:
120,220,186802,6,0,B|64:160|64:160|64:80,1,160,8|0,0:0|0:0,0:0:0:0:
136,32,187338,2,0,B|176:32|176:32|216:60,1,80,0|8,0:0|0:0,0:0:0:0:
256,128,187695,1,0,0:0:0:0:
376,32,187874,2,0,B|336:32|336:32|296:60,1,80
256,128,188231,6,0,L|256:292,1,160,8|0,0:0|0:0,0:0:0:0:
256,288,188677,1,0,0:0:0:0:
256,288,188767,1,0,0:0:0:0:
184,340,188945,2,0,B|256:376|256:376|328:340,1,160,8|0,0:0|0:0,0:0:0:0:
364,260,189481,1,0,0:0:0:0:
300,200,189659,1,8,0:0:0:0:
212,200,189838,1,0,0:0:0:0:
148,260,190017,6,0,P|108:260|72:236,2,80,4|0|0,0:0|0:0|0:0,0:0:0:0:
364,260,190731,2,0,P|404:260|440:236,2,80
256,192,191445,12,4,192874,0:0:0:0:
340,172,193231,5,2,0:0:0:0:
316,84,193409,1,0,0:0:0:0:
284,240,193588,2,0,P|244:236|184:232,1,80
340,172,193945,2,0,P|392:164|436:164,1,80,2|0,0:0|0:0,0:0:0:0:
248,152,194302,5,0,0:0:0:0:
248,152,194481,2,0,P|176:136|88:136,1,160,2|0,0:0|0:0,0:0:0:0:
20,208,195017,2,0,L|28:296,1,80
124,312,195374,2,0,L|116:224,1,80,2|0,0:0|0:0,0:0:0:0:
224,336,195731,5,2,0:0:0:0:
224,336,196088,2,0,P|296:332|332:328,1,80
404,284,196445,2,0,P|400:324|396:376,1,80,2|0,0:0|0:0,0:0:0:0:
316,228,196802,2,0,P|240:220|180:216,1,120
196,216,197159,6,0,L|188:132,1,80,2|0,0:0|0:0,0:0:0:0:
120,52,197517,1,0,0:0:0:0:
40,176,197695,1,2,0:0:0:0:
40,176,198052,1,0,0:0:0:0:
176,128,198231,1,0,0:0:0:0:
36,88,198409,1,0,0:0:0:0:
128,200,198588,5,2,0:0:0:0:
128,200,198945,2,0,P|120:268|132:332,1,120
127,318,199302,2,0,L|216:316,1,80,2|0,0:0|0:0,0:0:0:0:
332,224,199659,1,0,0:0:0:0:
332,224,199838,6,0,L|232:220,1,80,2|0,0:0|0:0,0:0:0:0:
316,332,200195,1,0,0:0:0:0:
316,332,200374,2,0,P|384:324|476:320,1,160,2|0,0:0|0:0,0:0:0:0:
475,320,201088,1,0,0:0:0:0:
452,224,201267,1,0,0:0:0:0:
420,120,201445,6,0,P|376:112|296:104,1,120,2|0,0:0|0:0,0:0:0:0:
301,104,201802,1,0,0:0:0:0:
212,148,201981,1,0,0:0:0:0:
124,48,202159,2,0,L|116:128,1,80,2|0,0:0|0:0,0:0:0:0:
24,284,202517,2,0,L|31:204,1,80
172,216,202874,5,0,0:0:0:0:
172,216,202963,1,0,0:0:0:0:
172,216,203052,1,0,0:0:0:0:
210,363,203231,1,8,0:0:0:0:
317,254,203409,1,0,0:0:0:0:
317,254,203499,1,0,0:0:0:0:
317,254,203588,1,0,0:0:0:0:
148,300,203767,1,0,0:0:0:0:
295,339,203945,1,8,0:0:0:0:
256,192,204302,6,0,P|301:130|377:116,1,160,4|8,0:0|0:0,0:0:0:0:
464,144,204838,1,0,0:0:0:0:
398,202,205017,1,0,0:0:0:0:
379,116,205195,1,0,0:0:0:0:
446,58,205374,1,8,0:0:0:0:
361,30,205552,1,0,0:0:0:0:
295,88,205731,1,0,0:0:0:0:
313,174,205909,2,0,B|306:230|210:224|203:280,2,160,0|8|0,0:0|0:0|0:0,0:0:0:0:
398,202,206802,2,0,B|404:145|500:151|507:95,1,160,8|0,0:0|0:0,0:0:0:0:
460,332,207517,6,0,P|429:305|392:292,1,80,8|0,0:0|0:0,0:0:0:0:
308,316,207874,2,0,P|271:303|240:276,1,80
251,189,208231,2,0,P|288:202|319:229,2,80,8|0|0,0:0|0:0|0:0,0:0:0:0:
170,224,208767,2,0,P|90:216|39:159,2,160,0|8|0,0:0|0:0|0:0,0:0:0:0:
22,36,209838,5,0,0:0:0:0:
22,36,210017,2,0,P|101:43|152:100,1,160,4|8,0:0|0:0,0:0:0:0:
232,64,210552,2,0,P|311:71|362:128,2,160,0|8|0,0:0|0:0|0:0,0:0:0:0:
276,140,211445,2,0,P|328:198|405:203,1,160,0|8,0:0|0:0,0:0:0:0:
228,219,212159,2,0,P|188:228|156:251,1,80,0|0,0:0|0:0,0:0:0:0:
281,293,212517,2,0,P|259:328|253:366,1,80,8|0,0:0|0:0,0:0:0:0:
398,365,212874,6,0,P|427:292|398:221,1,160,0|8,0:0|0:0,0:0:0:0:
480,192,213409,2,0,P|450:119|479:47,1,160
401,7,213945,2,0,P|353:68|275:78,1,160,8|0,0:0|0:0,0:0:0:0:
164,32,214481,1,0,0:0:0:0:
164,32,214570,1,0,0:0:0:0:
164,32,214659,1,8,0:0:0:0:
60,92,214838,1,0,0:0:0:0:
164,152,215017,2,0,L|209:217,1,80
106,278,215374,2,0,L|60:212,1,80,8|0,0:0|0:0,0:0:0:0:
209,337,215731,6,0,P|288:336|344:280,1,160,4|8,0:0|0:0,0:0:0:0:
432,280,216267,1,0,0:0:0:0:
384,112,216624,2,0,P|344:112|312:84,1,80,0|8,0:0|0:0,0:0:0:0:
256,24,216981,1,0,0:0:0:0:
196,88,217159,2,0,B|116:88|116:88|48:132,1,160,0|8,0:0|0:0,0:0:0:0:
112,192,217695,1,0,0:0:0:0:
48,252,217874,6,0,B|116:296|116:296|196:296,1,160,0|8,0:0|0:0,0:0:0:0:
256,232,218409,1,0,0:0:0:0:
316,296,218588,2,0,B|396:296|396:296|464:252,1,160,0|8,0:0|0:0,0:0:0:0:
460,164,219124,1,0,0:0:0:0:
324,52,219481,2,0,B|296:84|296:84|296:124,1,80,0|8,0:0|0:0,0:0:0:0:
188,52,219838,2,0,B|216:84|216:84|216:124,1,80
52,192,220374,5,8,0:0:0:0:
104,260,220552,2,0,P|184:260|232:320,1,160
320,316,221088,1,8,0:0:0:0:
392,264,221267,1,0,0:0:0:0:
392,176,221445,2,0,P|368:104|292:68,1,160,4|8,0:0|0:0,0:0:0:0:
215,68,221981,2,0,P|144:104|120:176,1,160
208,176,222517,1,8,0:0:0:0:
256,248,222695,1,0,0:0:0:0:
304,176,222874,1,0,0:0:0:0:
256,344,223231,6,0,P|176:344|120:292,1,160,8|0,0:0|0:0,0:0:0:0:
52,236,223767,1,0,0:0:0:0:
52,148,223945,1,8,0:0:0:0:
188,36,224302,2,0,B|256:78|256:78|324:36,1,160,0|8,0:0|0:0,0:0:0:0:
412,36,224838,1,0,0:0:0:0:
448,116,225017,2,0,B|420:192|420:192|448:268,1,160,0|8,0:0|0:0,0:0:0:0:
412,348,225552,1,0,0:0:0:0:
324,348,225731,6,0,B|256:306|256:306|188:348,1,160,0|8,0:0|0:0,0:0:0:0:
100,348,226267,1,0,0:0:0:0:
64,268,226445,2,0,B|92:192|92:192|64:117,1,160,0|8,0:0|0:0,0:0:0:0:
100,36,226981,1,0,0:0:0:0:
188,36,227159,6,0,L|276:28,1,80,4|0,0:0|0:0,0:0:0:0:
160,116,227517,2,0,L|344:100,1,160,8|0,0:0|0:0,0:0:0:0:
400,48,228052,1,0,0:0:0:0:
292,196,228231,2,0,P|288:248|312:324,1,120,8|0,0:0|2:0,0:0:0:0:
305,312,228588,2,0,P|348:304|396:300,1,80
228,360,228945,6,0,P|176:364|72:324,1,160,8|0,0:0|0:0,0:0:0:0:
32,232,229481,1,0,0:0:0:0:
96,156,229659,2,0,P|140:152|176:152,1,80,8|0,0:0|0:0,0:0:0:0:
296,140,230017,2,0,P|288:92|284:60,1,80
400,88,230374,2,0,P|396:184|376:256,1,160,8|0,0:0|0:0,0:0:0:0:
412,348,230909,1,0,0:0:0:0:
304,320,231088,6,0,P|256:316|176:316,1,120,8|0,0:0|2:0,0:0:0:0:
184,315,231445,2,0,L|196:224,1,80
88,136,231802,1,8,0:0:0:0:
88,136,231981,2,0,L|76:227,2,80
244,132,232517,2,0,L|240:48,1,80,8|0,0:0|0:0,0:0:0:0:
380,200,232874,6,0,P|420:192|476:188,1,80,4|0,0:0|0:0,0:0:0:0:
300,252,233231,2,0,P|220:244|132:248,1,160,8|0,0:0|0:0,0:0:0:0:
64,320,233767,1,0,0:0:0:0:
16,192,233945,2,0,P|8:140|16:68,1,120,8|0,0:0|2:0,0:0:0:0:
14,73,234302,2,0,L|103:67,1,80
256,192,234659,6,0,L|166:197,1,80,8|0,0:0|0:0,0:0:0:0:
72,336,235017,1,0,0:0:0:0:
176,312,235196,1,0,0:0:0:0:
152,212,235375,1,8,0:0:0:0:
48,236,235553,1,0,0:0:0:0:
208,344,235731,6,0,P|252:340|320:336,1,80
344,256,236088,2,0,P|400:256|488:240,1,120,8|0,0:0|2:0,0:0:0:0:
463,246,236445,2,0,L|456:336,1,80
392,160,236802,2,0,L|400:48,1,80,8|0,0:0|0:0,0:0:0:0:
240,80,237159,5,0,0:0:0:0:
156,156,237338,1,0,0:0:0:0:
264,188,237517,1,8,0:0:0:0:
136,52,237695,1,0,0:0:0:0:
136,52,237784,1,0,0:0:0:0:
136,52,237874,2,0,P|84:56|40:64,1,80,0|0,0:0|0:0,0:0:0:0:
240,80,238231,2,0,P|296:92|400:80,1,160,8|4,0:0|0:0,0:0:0:0:
