osu file format v14

[General]
AudioFilename: To aru Majutsu No Index OP2 (TV Size).mp3
AudioLeadIn: 0
PreviewTime: 55232
Countdown: 0
SampleSet: Soft
StackLeniency: 0.7
Mode: 0
LetterboxInBreaks: 0
WidescreenStoryboard: 0

[Editor]
DistanceSpacing: 0.8
BeatDivisor: 4
GridSize: 4
TimelineZoom: 5.000003

[Metadata]
Title:masterpiece (TV Size)
TitleUnicode:masterpiece (TV Size)
Artist:Kawada Mami
ArtistUnicode:Kawada Mami
Creator:Arnold24x24
Version:Normal
Source:To aru Majutsu no Index
Tags:
BeatmapID:494427
BeatmapSetID:208129

[Difficulty]
HPDrainRate:5
CircleSize:3
OverallDifficulty:3
ApproachRate:5
SliderMultiplier:0.8
SliderTickRate:2

[Events]
//Background and Video events
Video,0,"To Aru Majutsu No Index Opening 2 - Masterpiece.avi"
0,0,"A_Certain-Magical-Index-wallpaper.jpg",0,0
//Break Periods
//Storyboard Layer 0 (Background)
//Storyboard Layer 1 (Fail)
//Storyboard Layer 2 (Pass)
//Storyboard Layer 3 (Foreground)
//Storyboard Sound Samples

[TimingPoints]
1161,359.281437125748,4,2,1,20,1,0
6909,-62.5,4,2,1,70,0,0
15532,-62.5,4,2,1,70,0,0
16969,-66.6666666666667,4,2,1,40,0,0
18316,-66.6666666666667,4,2,1,5,0,0
18406,-83.3333333333333,4,2,1,60,0,0
18945,-83.3333333333333,4,2,1,60,0,0
21280,-66.6666666666667,4,2,1,60,0,0
22717,-62.5,4,2,1,22,0,0
23616,-50,4,2,1,79,0,0
24155,-66.6666666666667,4,2,1,79,0,0
25592,-73.5294117647059,4,2,1,79,0,0
29184,-66.6666666666667,4,2,1,40,0,0
29454,-62.5,4,2,1,70,0,0
31340,-58.8235294117647,4,2,1,70,0,0
34214,-102.040816326531,4,2,1,80,0,0
34394,-102.040816326531,4,2,1,20,0,0
34933,-55.5555555555556,4,2,1,75,0,0
36550,-62.5,4,2,1,75,0,0
37089,-55.5555555555556,4,2,1,75,0,0
38705,-50,4,2,1,10,0,0
39963,-50,4,2,1,35,0,0
40322,-50,4,2,1,50,0,0
40681,-50,4,2,1,65,0,0
40951,-50,4,2,1,5,0,0
41400,-74.0740740740741,4,2,1,80,0,0
43376,-95.2380952380952,4,2,1,80,0,0
44274,-74.0740740740741,4,2,1,80,0,0
46250,-55.5555555555556,4,2,1,80,0,0
51999,-50,4,2,1,80,0,0
52897,-58.8235294117647,4,2,1,40,0,0
53616,-64.5161290322581,4,2,1,40,0,0
55771,-50,4,1,1,70,0,1
57208,-60.6060606060606,4,1,1,70,0,1
57927,-60.6060606060606,4,1,1,20,0,1
58286,-72.992700729927,4,1,1,60,0,1
59364,-72.992700729927,4,2,1,90,0,1
59903,-62.5,4,1,1,30,0,1
60981,-62.5,4,1,1,86,0,1
63855,-66.6666666666667,4,1,1,86,0,1
65831,-66.6666666666667,4,2,1,85,0,1
71939,-50,4,2,1,85,0,1
73376,-62.5,4,2,1,85,0,1
73915,-50,4,2,1,85,0,1
75172,-58.8235294117647,4,2,1,80,0,1
77149,-58.8235294117647,4,2,1,80,0,0
78765,-58.8235294117647,4,1,1,90,0,0
79125,-58.8235294117647,4,2,1,80,0,0
89544,-66.6666666666667,4,2,1,15,0,0

[Colours]
Combo1 : 255,128,0
Combo2 : 255,0,0
Combo3 : 0,0,255
Combo4 : 0,255,0
Combo5 : 0,255,255
Combo6 : 255,255,255

[HitObjects]
256,192,1879,12,0,6190,0:0:0:0:
104,272,6909,6,0,P|144:332|224:336,1,128,0|4,0:0|0:0,0:0:0:0:
312,312,7628,1,0,0:0:0:0:
232,216,7987,1,0,0:0:0:0:
136,152,8346,2,0,L|64:152,2,64,0|0|0,0:0|0:0|0:0,0:0:0:0:
180,64,8885,2,0,B|212:64|212:64|232:52|232:52|260:52,1,64
240,144,9244,2,0,B|276:144|276:144|292:132|292:132|320:132,1,64
432,116,9783,6,0,P|387:53|320:52,1,128,0|4,0:0|0:0,0:0:0:0:
256,96,10502,1,0,0:0:0:0:
320,176,10861,1,0,0:0:0:0:
400,256,11220,2,0,L|468:256,2,64,0|0|0,0:0|0:0|0:0,0:0:0:0:
316,320,11759,2,0,B|276:320|276:320|264:332|264:332|244:332,1,64
264,240,12119,2,0,B|228:240|228:240|212:252|212:252|192:252,1,64
64,56,12658,6,0,L|160:160,1,128,0|4,0:0|0:0,0:0:0:0:
84,308,13376,1,0,0:0:0:0:
96,316,13556,2,0,L|176:284|176:284,1,64
260,296,14095,1,0,0:0:0:0:
272,304,14274,2,0,L|344:276,1,64
416,332,14813,6,0,P|444:256|404:220,1,128,2|4,0:0|0:0,0:0:0:0:
408,120,15532,6,0,L|408:52,2,64,8|0|0,0:0|0:0|0:0,0:0:0:0:
288,80,16250,2,0,L|288:148,2,64,8|0|8,0:0|0:0|0:0,0:0:0:0:
100,128,16969,6,0,L|168:144,1,60.0000022888184,0|0,0:0|0:0,0:0:0:0:
124,228,17328,6,0,L|196:244,1,60.0000022888184,0|0,0:0|0:0,0:0:0:0:
160,344,17687,6,0,B|224:288|336:364|384:292,1,240.000009155274
316,224,18765,1,0,0:0:0:0:
424,204,19125,2,0,L|424:108,1,95.9999970703126
320,68,19843,6,0,P|272:68|228:36,1,95.9999970703126
56,68,20562,2,0,P|104:68|148:36,1,95.9999970703126
128,188,21280,6,0,B|100:208|100:208|108:248|108:248|80:268|80:268|84:300,1,120.000004577637
208,260,21999,2,0,B|236:240|236:240|228:200|228:200|256:180|256:180|252:148,1,120.000004577637
388,248,22717,6,0,L|424:176,3,64,0|0|0|0,0:0|0:0|0:0|0:0,0:0:0:0:
432,184,23436,2,0,L|460:124,3,64,0|0|0|0,0:0|0:0|0:0|0:0,0:0:0:0:
324,56,24155,6,0,P|292:144|268:44,1,240.000009155274
140,64,25053,2,0,L|80:100,1,60.0000022888184
96,244,25592,5,0,0:0:0:0:
96,244,25951,1,0,0:0:0:0:
96,244,26310,2,0,L|216:244,1,108.800000664063
432,176,27029,6,8,L|432:64|432:64,1,108.800000664063
336,48,27747,2,8,L|336:172,1,108.800000664063,8|8,0:0|0:0,0:0:0:0:
204,48,28466,1,0,0:0:0:0:
128,116,28825,1,8,0:0:0:0:
128,216,29184,1,0,0:0:0:0:
200,288,29544,1,8,0:0:0:0:
224,160,29903,6,0,B|264:160|288:160|288:160,2,64,0|0|0,0:0|0:0|0:0,0:0:0:0:
420,144,30622,2,0,B|448:216|448:216|424:264,1,128,4|0,0:0|0:0,0:0:0:0:
392,292,31160,1,0,0:0:0:0:
352,316,31340,2,0,L|208:316,1,136.000002593994,2|0,0:0|0:0,0:0:0:0:
80,296,32059,6,0,B|32:244|32:244|32:176,1,136.000002593994,0|8,0:0|0:0,0:0:0:0:
88,76,32777,2,0,B|136:128|136:128|136:196,1,136.000002593994,0|8,0:0|0:0,0:0:0:0:
204,252,33316,1,0,0:0:0:0:
272,196,33496,2,0,B|320:144|320:144|320:76,1,136.000002593994,0|12,0:0|0:0,0:0:0:0:
448,128,34214,6,8,B|445:125|445:125|445:125|445:125|461:141|461:141|445:153|445:153|461:165|461:165|445:177|445:177|461:189|461:189|445:201|445:201|461:213|461:213|453:229,1,156.799998564453,10|4,0:0|0:0,0:0:0:0:
364,284,35292,1,8,0:0:0:0:
256,328,35652,2,0,B|168:316|168:316|124:256,1,143.999995605469
96,144,36370,2,0,B|184:156|184:156|228:216,1,143.999995605469,4|2,0:0|0:0,0:0:0:0:
368,64,37089,5,8,0:0:0:0:
448,144,37448,1,0,0:0:0:0:
368,224,37807,1,8,0:0:0:0:
288,144,38166,1,0,0:0:0:0:
256,192,38526,12,0,41041,0:0:0:0:
168,92,41400,6,0,B|180:73|209:52|238:30|259:59|283:104|316:104|328:79|357:58|351:27,2,216.000000823975,0|8|0,0:0|0:0|0:0,0:0:0:0:
316,192,43376,6,0,L|190:192,1,125.999996154785,2|4,0:0|0:0,0:0:0:0:
168,292,44274,6,0,B|180:310|209:331|238:353|259:324|283:279|316:280|328:304|357:325|351:356,2,216.000000823975,0|8|0,0:0|0:0|0:0,0:0:0:0:
216,156,46071,5,0,0:0:0:0:
148,96,46250,2,0,B|216:32|320:76|308:176,1,216.000000823975
152,240,47149,6,0,B|114:252|114:252|102:254|102:254|91:259|91:259|38:274,2,107.999996704102,0|8|0,0:0|0:0|0:0,0:0:0:0:
188,332,47867,2,0,B|227:319|227:319|232:316|232:316|249:311|249:311|296:296,2,107.999996704102,0|8|0,0:0|0:0|0:0,0:0:0:0:
436,292,48586,6,0,P|420:220|392:196,1,107.999996704102
424,104,49125,1,10,0:0:0:0:
320,80,49304,2,0,P|264:56|224:96,1,107.999996704102
104,112,49843,1,10,0:0:0:0:
104,112,50023,1,4,0:0:0:0:
256,192,50113,12,0,51460,0:0:0:0:
188,208,51999,6,0,P|212:276|320:208,1,240,0|4,0:0|0:0,0:0:0:0:
352,56,52897,6,0,B|392:56|392:96|392:96|436:96|436:96|436:96,1,102.000001945496
460,196,53436,1,8,0:0:0:0:
460,300,53616,2,0,L|384:312,1,62.0000004730225
364,308,53975,2,0,L|296:320,1,62.0000004730225
268,316,54334,2,0,L|204:328,1,62.0000004730225
172,324,54693,2,0,L|100:340,1,62.0000004730225
96,248,55053,6,4,L|68:192,1,62.0000004730225
160,176,55412,2,4,L|192:240,1,62.0000004730225
276,268,55771,6,2,P|344:304|416:264,1,160,2|2,0:0|0:0,0:0:0:0:
464,176,56490,1,8,0:0:0:0:
352,96,56849,1,8,0:0:0:0:
224,64,57208,2,0,B|128:96|128:96|104:120,1,132.00000125885
80,320,57927,2,0,L|224:320,1,132.00000125885
336,320,58646,2,0,B|428:264|428:264|440:256,1,109.600003093872
444,144,59364,6,0,L|416:92,1,54.8000015469361
368,80,59723,1,4,0:0:0:0:
324,52,59903,2,0,P|256:44|188:88,1,128,0|2,0:0|0:0,0:0:0:0:
88,76,60622,2,0,P|128:160|240:148,1,192
320,188,61520,5,14,0:0:0:0:
448,264,61879,6,0,L|328:320,1,128
220,328,62598,1,8,0:0:0:0:
104,300,62957,2,0,B|60:252|60:252|112:204,1,128
160,112,63675,1,2,0:0:0:0:
176,96,63855,2,0,B|208:64|240:64|288:144|352:48,1,180.000006866455,0|4,0:0|0:0,0:0:0:0:
400,160,64753,5,2,0:0:0:0:
448,288,65113,5,2,0:0:0:0:
352,288,65472,5,2,0:0:0:0:
192,304,65831,6,0,L|64:304,2,128,0|0|0,0:0|0:0|0:0,0:0:0:0:
256,224,66909,1,8,0:0:0:0:
256,224,67268,1,12,0:0:0:0:
160,64,67628,6,0,B|96:64|96:64|96:48|96:48|48:48,2,120.000004577637,0|0|0,0:0|0:0|0:0,0:0:0:0:
256,80,68705,1,0,0:0:0:0:
256,160,69065,1,8,0:0:0:0:
352,192,69424,2,0,B|416:192|416:192|416:176|416:176|464:176,2,120.000004577637,0|0|0,0:0|0:0|0:0,0:0:0:0:
256,304,70502,1,8,0:0:0:0:
112,304,70861,6,0,P|68:272|56:244,1,60.0000022888184
144,224,71220,2,0,P|115:149|144:107,1,120.000004577637
276,76,71939,6,0,B|348:76|348:76|344:56|344:56|424:56,1,160,8|4,0:0|0:0,0:0:0:0:
464,176,72658,6,0,B|392:176|392:176|396:196|396:196|316:196,1,160,8|4,0:0|0:0,0:0:0:0:
256,320,73376,6,0,P|212:288|152:320,1,128
72,320,73915,2,0,P|84:272|132:240,1,80,8|8,0:0|0:0,0:0:0:0:
88,168,74274,2,0,B|148:168|148:168|192:208|192:208|232:168|232:168|308:168,1,240,2|4,0:0|0:0,0:0:0:0:
408,192,75172,6,0,B|415:118|415:118|484:61,2,136.000002593994,0|0|4,0:0|0:0|0:0,0:0:0:0:
388,288,76250,1,8,0:0:0:0:
292,344,76610,1,8,0:0:0:0:
192,348,76969,1,8,0:0:0:0:
88,288,77328,6,0,P|72:232|144:168,2,136.000002593994,8|0|8,0:0|0:0|0:0,0:0:0:0:
200,128,78406,2,0,P|216:184|144:248,1,136.000002593994,8|0,0:0|0:0,0:0:0:0:
264,44,79125,6,0,L|400:108,1,136.000002593994
456,208,79843,2,0,L|320:272,1,136.000002593994
224,328,80562,1,0,0:0:0:0:
112,272,80921,6,0,L|48:320,2,68.0000012969971,0|0|0,0:0|0:0|0:0,0:0:0:0:
112,160,81640,2,0,L|48:112,2,68.0000012969971,0|0|0,0:0|0:0|0:0,0:0:0:0:
200,212,82358,2,0,P|276:184|328:228,1,136.000002593994,0|0,0:0|0:0,0:0:0:0:
472,104,83077,6,0,P|432:72|356:116,1,136.000002593994,0|10,0:0|0:0,0:0:0:0:
248,56,83795,1,8,0:0:0:0:
136,120,84155,2,0,P|104:160|144:240,1,136.000002593994,2|4,0:0|0:0,0:0:0:0:
200,296,84873,6,0,P|280:336|456:296,2,272.000005187988,0|10|0,0:0|0:0|0:0,0:0:0:0:
328,240,86669,1,0,0:0:0:0:
240,168,87029,1,0,0:0:0:0:
152,88,87388,2,0,P|128:64|24:88,2,136.000002593994,0|0|0,0:0|0:0|0:0,0:0:0:0:
88,168,88286,6,8,L|120:256,1,68.0000012969971,2|4,0:0|0:0,0:0:0:0:
256,192,88825,12,0,90083,0:0:0:0:
