osu file format v14

[General]
AudioFilename: To aru Majutsu No Index OP2 (TV Size).mp3
AudioLeadIn: 0
PreviewTime: 55232
Countdown: 0
SampleSet: Soft
StackLeniency: 0.7
Mode: 0
LetterboxInBreaks: 0
WidescreenStoryboard: 0

[Editor]
DistanceSpacing: 0.8
BeatDivisor: 4
GridSize: 4
TimelineZoom: 5.000003

[Metadata]
Title:masterpiece (TV Size)
TitleUnicode:masterpiece (TV Size)
Artist:Kawada Mami
ArtistUnicode:Kawada Mami
Creator:Arnold24x24
Version:Insane
Source:To aru Majutsu no Index
Tags:
BeatmapID:490447
BeatmapSetID:208129

[Difficulty]
HPDrainRate:7
CircleSize:4
OverallDifficulty:6
ApproachRate:9
SliderMultiplier:1.2
SliderTickRate:1

[Events]
//Background and Video events
Video,0,"To Aru Majutsu No Index Opening 2 - Masterpiece.avi"
0,0,"A_Certain-Magical-Index-wallpaper.jpg",0,0
//Break Periods
//Storyboard Layer 0 (Background)
//Storyboard Layer 1 (Fail)
//Storyboard Layer 2 (Pass)
//Storyboard Layer 3 (Foreground)
//Storyboard Sound Samples

[TimingPoints]
1161,359.281437125748,4,3,1,20,1,0
3226,-50,4,3,1,20,0,0
6909,-50,4,3,1,60,0,0
8885,-62.5,4,3,1,60,0,0
10143,-50,4,3,1,10,0,0
10502,-100,4,3,1,60,0,0
10771,-83.3333333333333,4,3,1,60,0,0
12658,-50,4,3,1,60,0,0
18406,-62.5,4,2,1,70,0,0
18945,-50,4,2,1,70,0,0
19663,-50,4,2,1,60,0,0
19843,-50,4,2,1,60,0,0
21280,-62.5,4,2,1,60,0,0
22717,-62.5,4,2,1,22,0,0
23795,-50,4,2,1,70,0,0
24514,-111.111111111111,4,2,1,40,0,0
24873,-50,4,2,1,80,0,0
25951,-66.6666666666667,4,2,1,80,0,0
29005,-66.6666666666667,4,2,1,40,0,0
29184,-66.6666666666667,4,2,1,70,0,0
37089,-57.1428571428571,4,2,1,70,0,0
37448,-83.3333333333333,4,2,1,70,0,0
38166,-57.1428571428571,4,2,1,70,0,0
38526,-57.1428571428571,4,2,1,50,0,0
39783,-57.1428571428571,4,3,1,85,0,0
41759,-50,4,2,1,70,0,0
44274,-50,4,2,1,75,0,0
46340,-76.9230769230769,4,2,1,70,0,0
50023,-83.3333333333333,4,2,1,58,0,0
51101,-66.6666666666667,4,2,1,60,0,0
52059,-133.333333333333,4,2,1,70,0,0
52897,-50,4,2,1,5,0,0
53616,-100,4,2,1,55,0,0
55771,-50,4,1,1,65,0,1
59364,-50,4,1,1,65,0,1
60981,-76.9230769230769,4,1,1,66,0,1
61879,-76.9230769230769,4,2,1,80,0,1
63047,-76.9230769230769,4,2,1,5,0,1
63137,-76.9230769230769,4,2,1,70,0,1
63226,-76.9230769230769,4,2,1,5,0,1
63316,-76.9230769230769,4,2,1,70,0,1
63406,-76.9230769230769,4,2,1,5,0,1
63496,-76.9230769230769,4,2,1,70,0,1
63586,-76.9230769230769,4,2,1,5,0,1
63675,-50,4,2,1,75,0,1
65652,-50,4,2,1,75,0,1
67089,-50,4,1,1,70,0,1
67268,-50,4,2,1,80,0,1
67628,-50,4,1,1,75,0,1
68705,-66.6666666666667,4,1,1,75,0,1
69424,-50,4,1,1,75,0,1
73376,-66.6666666666667,4,2,1,80,0,1
75172,-83.3333333333333,4,2,1,70,0,1
77149,-83.3333333333333,4,2,1,70,0,0
78765,-50,4,1,1,60,0,0
83797,-50,4,1,1,60,0,0
88646,-125,4,2,1,85,0,0
88825,-125,4,2,1,85,0,1
89544,-71.4285714285714,4,2,1,20,0,1
90083,-71.4285714285714,4,2,1,20,0,0

[Colours]
Combo1 : 255,128,0
Combo2 : 255,13,13
Combo3 : 0,0,255
Combo4 : 0,240,0
Combo5 : 0,255,255
Combo6 : 255,255,255

[HitObjects]
256,192,1879,12,0,6190,0:0:0:0:
52,128,6909,6,0,P|124:148|172:124,1,120
184,120,7178,1,8,0:0:0:0:
204,104,7268,1,8,0:0:0:0:
328,56,7448,1,2,0:0:0:0:
432,104,7628,2,0,P|444:192|396:212,1,120
416,216,7897,1,8,0:0:0:0:
404,224,7987,1,8,0:0:0:0:
256,312,8166,1,2,0:0:0:0:
116,264,8346,5,0,0:0:0:0:
136,240,8436,1,8,0:0:0:0:
116,216,8526,1,8,0:0:0:0:
128,196,8616,1,0,0:0:0:0:
116,168,8705,2,0,B|131:134|131:134|112:119|112:119|127:106|127:106|112:85|112:85|125:55,1,120,8|0,0:0|0:0,0:0:0:0:
288,88,9065,5,0,0:0:0:0:
456,48,9244,1,2,0:0:0:0:
296,128,9424,5,0,0:0:0:0:
464,80,9603,1,2,0:0:0:0:
376,248,9783,6,0,P|343:325|293:322,1,144
176,176,10143,2,0,L|280:244,1,120
180,312,10502,6,0,L|128:276,1,60
108,264,10771,1,0,0:0:0:0:
84,244,10861,1,0,0:0:0:0:
72,216,10951,1,0,0:0:0:0:
68,188,11041,1,0,0:0:0:0:
72,160,11131,1,0,0:0:0:0:
120,72,11220,2,0,L|145:46,1,35.9999989013672
248,64,11400,2,0,L|216:104,1,35.9999989013672
368,40,11580,5,8,0:0:0:0:
152,256,11759,5,0,0:0:0:0:
292,192,11939,1,4,0:0:0:0:
216,340,12119,1,2,0:0:0:0:
192,168,12298,1,0,0:0:0:0:
304,300,12478,1,2,0:0:0:0:
448,208,12658,6,0,P|416:140|448:100,1,120
320,104,12927,1,0,0:0:0:0:
288,96,13017,2,0,P|256:92|180:40,1,120
92,72,13286,5,8,0:0:0:0:
96,112,13376,1,8,0:0:0:0:
124,144,13466,1,8,0:0:0:0:
164,148,13556,1,8,0:0:0:0:
272,172,13735,5,8,0:0:0:0:
160,288,13915,1,10,0:0:0:0:
340,300,14095,6,0,B|376:300|376:300|392:320|392:320|408:300|408:300|448:300,2,120,0|0|0,0:0|0:0|0:0,0:0:0:0:
428,216,14634,1,0,0:0:0:0:
340,112,14813,1,0,0:0:0:0:
392,32,14993,2,0,P|440:100|392:152,1,120
256,288,15352,5,4,0:0:0:0:
88,220,15532,5,0,0:0:0:0:
160,288,15711,1,2,0:0:0:0:
124,324,15801,1,2,0:0:0:0:
76,324,15891,1,2,0:0:0:0:
192,112,16071,5,8,0:0:0:0:
336,264,16250,5,0,0:0:0:0:
408,184,16430,1,2,0:0:0:0:
372,148,16520,1,2,0:0:0:0:
324,148,16610,1,2,0:0:0:0:
436,44,16789,5,0,0:0:0:0:
436,44,16969,1,8,0:0:0:0:
404,48,17059,1,8,0:0:0:0:
368,56,17149,1,8,0:0:0:0:
332,48,17238,1,8,0:0:0:0:
296,56,17328,1,8,0:0:0:0:
256,40,17418,1,8,0:0:0:0:
212,56,17508,1,8,0:0:0:0:
160,48,17598,1,8,0:0:0:0:
104,72,17687,5,2,0:0:0:0:
112,168,17867,5,2,0:0:0:0:
60,248,18047,5,2,0:0:0:0:
76,340,18226,5,2,0:0:0:0:
188,236,18406,6,0,P|248:216|280:248,1,96
272,328,18765,2,0,P|336:340|368:308,1,96
424,224,19125,2,0,B|436:160|436:160|400:112,1,120
288,36,19484,2,0,B|276:100|276:100|312:148,1,120
152,192,19843,6,0,P|100:232|216:304,1,240,8|0,0:0|0:0,0:0:0:0:
208,248,20382,5,0,0:0:0:0:
228,160,20562,1,8,0:0:0:0:
148,112,20741,1,8,0:0:0:0:
68,160,20921,1,0,0:0:0:0:
100,248,21101,1,4,0:0:0:0:
208,248,21280,6,0,P|228:300|364:340,1,192
452,240,21819,1,2,0:0:0:0:
392,136,21998,1,2,0:0:0:0:
340,248,22178,1,2,0:0:0:0:
460,232,22358,1,2,0:0:0:0:
400,132,22538,1,2,0:0:0:0:
304,68,22717,6,0,L|256:40,3,48,0|0|0|0,0:0|0:0|0:0|0:0,0:0:0:0:
168,88,23077,2,0,L|128:116,3,48,0|0|0|0,0:0|0:0|0:0|0:0,0:0:0:0:
80,216,23436,2,0,L|120:248,1,48
256,312,23616,2,0,L|216:280,1,48
400,312,23795,6,0,P|460:280|452:236,1,120
384,152,24155,2,0,P|330:170|330:226,1,120
464,72,24514,2,0,L|480:56,5,17.9999994506836,0|0|0|0|0|0,0:0|0:0|0:0|0:0|0:0|0:0,0:0:0:0:
448,80,24873,2,0,B|376:96|376:96|320:80,1,120
216,56,25232,1,0,0:0:0:0:
160,136,25412,1,0,0:0:0:0:
64,192,25592,6,0,P|112:240|176:240,1,120
232,296,25951,2,0,P|176:336|136:328,1,90.0000034332277
344,248,26310,5,0,0:0:0:0:
472,200,26490,1,2,0:0:0:0:
336,216,26669,5,0,0:0:0:0:
464,168,26849,1,2,0:0:0:0:
440,48,27029,6,0,L|344:80,1,90.0000034332277
354,76,27298,1,0,0:0:0:0:
354,76,27388,1,0,0:0:0:0:
216,16,27568,1,0,0:0:0:0:
56,176,27747,6,0,L|144:200,1,90.0000034332277
142,199,28017,1,0,0:0:0:0:
142,199,28107,1,0,0:0:0:0:
216,16,28286,1,0,0:0:0:0:
208,288,28466,6,0,P|348:320|480:280,1,270.000010299683
336,232,29184,5,8,0:0:0:0:
168,48,29364,1,8,0:0:0:0:
448,48,29544,6,0,P|476:88|408:104,1,135.000005149841
456,224,29903,5,12,0:0:0:0:
144,296,30262,6,0,P|64:216|176:124,1,270.000010299683
296,104,30981,2,0,L|312:52,1,45.0000017166138
476,40,31160,2,0,L|452:112,1,45.0000017166138
352,256,31340,6,0,B|403:218|436:243|436:243|461:196|461:196|432:148,1,180.000006866455
160,208,31879,2,0,B|96:200|89:159|89:159|38:177|38:177|28:232,1,180.000006866455
160,208,32418,5,0,0:0:0:0:
256,320,32598,1,8,0:0:0:0:
256,320,32777,2,0,P|318:283|418:325,1,180.000006866455,2|0,0:0|0:0,0:0:0:0:
256,64,33316,2,0,P|193:100|93:58,1,180.000006866455,2|0,0:0|0:0,0:0:0:0:
424,64,33855,5,0,0:0:0:0:
424,64,34035,1,0,0:0:0:0:
448,192,34214,2,0,B|430:190|430:190|429:208|429:208|411:207|411:207|410:225|410:225|392:224|392:224|391:242|391:242|373:241|373:241|372:258|372:258|354:257|354:257|353:275|353:275|335:274|335:274|334:292|334:292|316:291|316:291|315:309|315:309|297:308|297:308|296:325|296:325|278:324|278:324,1,270.000010299683
216,272,34933,6,0,L|160:304,1,45.0000017166138
96,280,35113,2,0,L|48:304,1,45.0000017166138
184,192,35292,6,0,L|128:224,1,45.0000017166138
64,200,35472,2,0,L|16:224,1,45.0000017166138
384,56,35652,6,0,L|328:136,1,90.0000034332277
480,40,36011,1,8,0:0:0:0:
480,40,36370,1,4,0:0:0:0:
432,264,36550,6,0,L|320:296,1,90.0000034332277
432,264,36909,1,0,0:0:0:0:
256,168,37089,5,0,0:0:0:0:
152,200,37268,1,0,0:0:0:0:
224,240,37448,1,0,0:0:0:0:
184,128,37628,1,0,0:0:0:0:
312,152,37807,5,0,0:0:0:0:
96,208,37987,1,0,0:0:0:0:
248,288,38166,1,8,0:0:0:0:
168,72,38346,1,8,0:0:0:0:
336,328,38526,6,0,P|384:272|416:232,1,105.000001001358
176,56,38885,2,0,P|141:95|108:136,1,105.000001001358
328,128,39244,5,0,0:0:0:0:
400,48,39424,1,0,0:0:0:0:
192,216,39604,5,0,0:0:0:0:
104,304,39783,5,8,0:0:0:0:
400,48,39963,5,4,0:0:0:0:
256,192,40053,12,0,41400,0:0:0:0:
120,56,41759,6,0,B|140:100|180:68|180:68|224:108,1,120
80,152,42119,1,8,0:0:0:0:
232,192,42298,1,8,0:0:0:0:
96,304,42478,2,0,B|130:337|156:293|156:293|208:316,1,120
280,232,42837,5,0,0:0:0:0:
336,328,43017,1,0,0:0:0:0:
424,272,43196,1,8,0:0:0:0:
368,176,43376,1,8,0:0:0:0:
368,176,43556,5,0,0:0:0:0:
464,120,43735,1,0,0:0:0:0:
408,16,43915,1,8,0:0:0:0:
304,64,44095,1,8,0:0:0:0:
176,40,44274,6,0,P|96:56|136:216,1,240
184,144,44813,1,0,0:0:0:0:
264,120,44993,2,0,P|280:200|136:208,1,240
352,328,45532,5,8,0:0:0:0:
416,216,45711,2,0,P|448:272|496:296,1,120
480,168,46071,2,0,P|452:115|399:87,1,120
296,48,46430,6,0,B|297:47|297:47|281:55|281:55|265:47|265:47|249:55|249:55|233:47|233:47|216:56,1,77.9999964294435
208,160,46789,2,0,B|192:152|192:152|176:160|176:160|160:152|160:152|144:160|144:160|128:152|128:152|112:160,1,77.9999964294435
352,128,47149,5,0,0:0:0:0:
424,32,47328,1,0,0:0:0:0:
384,152,47508,5,8,0:0:0:0:
456,56,47687,1,8,0:0:0:0:
320,224,47867,5,0,0:0:0:0:
392,328,48046,1,0,0:0:0:0:
296,240,48226,5,8,0:0:0:0:
368,344,48405,1,8,0:0:0:0:
256,328,48586,6,0,L|172:328,1,77.9999964294435
120,248,48945,2,0,L|24:248,1,77.9999964294435
76,168,49304,5,0,0:0:0:0:
156,56,49484,1,0,0:0:0:0:
284,144,49663,1,8,0:0:0:0:
204,264,49843,1,0,0:0:0:0:
496,40,50023,6,0,L|472:88,1,35.9999989013672
368,80,50202,2,0,L|392:136,1,35.9999989013672,0|0,0:0|0:0,0:0:0:0:
472,168,50382,2,0,L|456:200,1,35.9999989013672,8|0,0:0|0:0,0:0:0:0:
352,208,50562,2,0,L|376:248,1,35.9999989013672,8|0,0:0|0:0,0:0:0:0:
448,296,50742,2,0,L|432:328,1,35.9999989013672,0|0,0:0|0:0,0:0:0:0:
328,336,50921,2,0,L|352:376,1,35.9999989013672
248,288,51101,6,0,L|176:328,3,45.0000017166138,0|0|0|0,0:0|0:0|0:0|0:0,0:0:0:0:
64,320,51460,2,0,L|136:288,3,45.0000017166138,0|0|0|0,0:0|0:0|0:0|0:0,0:0:0:0:
168,160,51819,6,0,L|224:176,1,45.0000017166138
80,200,51999,2,0,L|56:248,1,45.0000017166138
64,104,52178,5,0,0:0:0:0:
96,64,52268,1,0,0:0:0:0:
144,64,52358,1,0,0:0:0:0:
192,72,52448,1,0,0:0:0:0:
232,56,52538,1,0,0:0:0:0:
272,64,52628,1,0,0:0:0:0:
312,48,52717,1,0,0:0:0:0:
352,64,52807,1,0,0:0:0:0:
400,48,52897,5,0,0:0:0:0:
64,336,53166,1,0,0:0:0:0:
400,48,53436,1,0,0:0:0:0:
456,128,53616,6,0,L|492:132,5,20,0|0|0|0|0|0,0:0|0:0|0:0|0:0|0:0|0:0,0:0:0:0:
392,200,53975,2,0,L|368:192,5,20,0|0|0|0|0|0,0:0|0:0|0:0|0:0|0:0|0:0,0:0:0:0:
288,136,54334,1,0,0:0:0:0:
248,152,54424,1,0,0:0:0:0:
232,184,54514,1,0,0:0:0:0:
200,200,54604,5,2,0:0:0:0:
184,232,54693,1,2,0:0:0:0:
152,240,54783,1,2,0:0:0:0:
128,272,54873,1,2,0:0:0:0:
184,336,55053,5,0,0:0:0:0:
264,296,55232,5,8,0:0:0:0:
344,344,55412,5,0,0:0:0:0:
416,296,55592,5,8,0:0:0:0:
432,184,55771,6,0,P|456:128|416:72,1,120
244,56,56131,1,0,0:0:0:0:
336,160,56310,1,8,0:0:0:0:
292,44,56490,1,0,0:0:0:0:
292,172,56669,1,0,0:0:0:0:
336,56,56849,1,8,0:0:0:0:
244,160,57029,1,0,0:0:0:0:
104,80,57208,6,0,B|84:100|84:100|96:128|96:128|76:144|76:144|88:180|88:180,1,120
176,224,57568,2,0,B|165:255|165:255|192:272|192:272|176:304|176:304|200:320|200:320,1,120
352,320,57927,5,0,0:0:0:0:
448,288,58107,1,0,0:0:0:0:
416,176,58286,1,0,0:0:0:0:
312,208,58466,1,0,0:0:0:0:
288,104,58646,6,0,P|208:72|96:200,1,240,8|0,0:0|0:0,0:0:0:0:
144,288,59184,1,0,0:0:0:0:
192,192,59364,1,8,0:0:0:0:
192,96,59544,5,0,0:0:0:0:
272,48,59723,1,8,0:0:0:0:
384,24,59903,2,0,P|448:56|448:128,1,120
344,160,60262,5,0,0:0:0:0:
384,312,60442,1,0,0:0:0:0:
440,184,60622,1,0,0:0:0:0:
296,280,60801,1,0,0:0:0:0:
240,176,60981,5,0,0:0:0:0:
496,280,61160,1,0,0:0:0:0:
416,96,61340,5,8,0:0:0:0:
304,368,61520,1,12,0:0:0:0:
56,88,61879,6,0,P|112:40|112:16,1,77.9999964294435
192,48,62238,1,2,0:0:0:0:
200,64,62328,1,2,0:0:0:0:
208,80,62418,1,2,0:0:0:0:
216,96,62508,1,2,0:0:0:0:
224,112,62598,5,2,0:0:0:0:
232,128,62687,1,0,0:0:0:0:
240,144,62777,1,0,0:0:0:0:
248,160,62867,1,0,0:0:0:0:
160,216,62957,6,0,L|200:232,1,38.9999982147218,8|8,0:0|0:0,0:0:0:0:
256,296,63137,2,0,L|296:312,1,38.9999982147218,8|0,0:0|0:0,0:0:0:0:
328,216,63316,2,0,L|376:232,1,38.9999982147218,8|0,0:0|0:0,0:0:0:0:
400,312,63496,2,0,L|448:328,1,38.9999982147218,8|8,0:0|0:0,0:0:0:0:
448,136,63675,6,0,P|456:64|384:56,1,120
160,216,64035,5,8,0:0:0:0:
376,112,64214,1,8,0:0:0:0:
256,192,64394,12,0,65472,0:0:0:0:
208,48,65652,6,0,B|248:56|248:56|272:40|272:40|328:40,1,120
416,112,66011,1,8,0:0:0:0:
456,240,66190,2,0,P|472:280|424:352,1,120
320,336,66550,1,0,0:0:0:0:
256,240,66729,2,0,P|240:200|288:128,1,120,0|0,0:0|0:0,0:0:0:0:
224,56,67089,1,0,0:0:0:0:
160,144,67268,1,4,0:0:0:0:
344,144,67628,6,0,P|396:152|396:228,1,120,8|0,0:0|0:0,0:0:0:0:
288,360,67987,2,0,P|234:345|228:288,1,120,8|0,0:0|0:0,0:0:0:0:
320,256,68346,1,8,0:0:0:0:
320,256,68526,1,0,0:0:0:0:
184,160,68705,6,0,P|152:144|136:152,3,45.0000017166138,0|0|0|0,0:0|0:0|0:0|0:0,0:0:0:0:
128,152,69065,2,0,P|96:168|88:152,3,45.0000017166138,0|0|0|0,0:0|0:0|0:0|0:0,0:0:0:0:
80,176,69424,2,0,P|40:248|56:280,1,120
120,336,69783,1,2,0:0:0:0:
480,264,69963,5,0,0:0:0:0:
376,160,70143,1,0,0:0:0:0:
272,272,70322,1,0,0:0:0:0:
384,376,70502,1,0,0:0:0:0:
112,228,70681,6,0,P|176:252|176:300,1,120
392,48,71041,5,10,0:0:0:0:
268,48,71220,1,10,0:0:0:0:
144,64,71400,2,0,L|32:144,1,120
232,128,71759,2,0,L|120:256,1,120
336,168,72119,2,0,L|280:312,1,120
456,152,72478,5,0,0:0:0:0:
280,232,72658,1,0,0:0:0:0:
432,336,72837,1,0,0:0:0:0:
432,336,72927,1,0,0:0:0:0:
432,336,73017,1,4,0:0:0:0:
356,60,73376,6,0,B|284:20|244:88|172:48,1,180.000006866455
68,128,73915,1,0,0:0:0:0:
148,260,74095,1,0,0:0:0:0:
228,148,74274,1,0,0:0:0:0:
296,264,74454,1,8,0:0:0:0:
392,104,74634,1,8,0:0:0:0:
472,264,74813,1,8,0:0:0:0:
488,40,74993,1,8,0:0:0:0:
280,288,75172,6,0,L|208:344,1,71.9999978027344
440,336,75532,2,0,L|376:280,1,71.9999978027344
384,96,75891,1,8,0:0:0:0:
320,176,76071,1,8,0:0:0:0:
400,80,76250,1,8,0:0:0:0:
304,192,76430,1,8,0:0:0:0:
416,64,76610,1,8,0:0:0:0:
288,208,76789,1,8,0:0:0:0:
160,216,76969,5,4,0:0:0:0:
48,240,77149,2,0,P|96:320|160:320,1,143.999995605469
248,328,77687,1,0,0:0:0:0:
372,160,77867,1,0,0:0:0:0:
392,364,78047,1,0,0:0:0:0:
252,208,78226,1,0,0:0:0:0:
448,260,78406,1,0,0:0:0:0:
472,64,78586,5,8,0:0:0:0:
472,64,78675,1,8,0:0:0:0:
472,64,78765,1,4,0:0:0:0:
256,192,78855,12,0,81640,0:0:0:0:
96,112,81819,5,0,0:0:0:0:
144,96,81909,1,0,0:0:0:0:
184,64,81999,1,0,0:0:0:0:
296,48,82178,1,8,0:0:0:0:
408,112,82358,5,8,0:0:0:0:
456,264,82538,1,0,0:0:0:0:
408,288,82628,1,0,0:0:0:0:
376,328,82717,1,0,0:0:0:0:
280,232,82897,5,0,0:0:0:0:
192,320,83077,1,8,0:0:0:0:
144,320,83166,1,8,0:0:0:0:
96,304,83256,1,8,0:0:0:0:
56,272,83346,1,8,0:0:0:0:
32,224,83436,1,8,0:0:0:0:
88,124,83616,6,0,L|132:176,1,60,8|0,0:0|0:0,0:0:0:0:
248,48,83795,1,0,0:0:0:0:
248,168,83975,1,8,0:0:0:0:
408,112,84155,1,8,0:0:0:0:
464,224,84514,6,0,B|392:288|360:304|360:304,1,120
352,312,84783,1,0,0:0:0:0:
328,324,84873,2,0,P|288:340|200:308,1,120,8|2,0:0|0:0,0:0:0:0:
88,288,85232,1,2,0:0:0:0:
184,168,85412,1,2,0:0:0:0:
64,208,85592,5,8,0:0:0:0:
136,228,85681,1,8,0:0:0:0:
188,284,85771,1,8,0:0:0:0:
136,64,85951,6,0,P|200:80|216:104,1,60
336,100,86131,2,0,P|272:96|260:108,1,60
72,136,86310,1,4,0:0:0:0:
432,40,86490,1,0,0:0:0:0:
448,156,86669,5,0,0:0:0:0:
356,120,86849,1,0,0:0:0:0:
308,212,87029,1,0,0:0:0:0:
400,256,87208,1,8,0:0:0:0:
180,48,87388,6,0,P|260:84|244:128,1,120
184,128,87747,2,0,P|108:156|56:140,1,120
256,232,88107,5,0,0:0:0:0:
104,312,88286,1,0,0:0:0:0:
148,196,88466,1,8,0:0:0:0:
212,356,88646,1,8,0:0:0:0:
308,324,88825,6,0,L|336:316,3,16,0|0|0|0,0:0|0:0|0:0|0:0,0:0:0:0:
328,316,89065,2,0,L|356:308,3,16,0|0|0|0,0:0|0:0|0:0|0:0,0:0:0:0:
352,308,89304,2,0,L|380:300,3,16,0|0|0|0,0:0|0:0|0:0|0:0,0:0:0:0:
384,296,89544,2,0,L|472:256,1,83.9999974365235
336,160,89903,6,0,L|244:200,1,83.9999974365235,0|4,0:0|0:0,0:0:0:0:
