osu file format v6

[General]
AudioFilename: a frame.mp3
AudioLeadIn: 0
PreviewTime: -1
Countdown: 1
SampleSet: Soft
StackLeniency: 0.7
Mode: 0
LetterboxInBreaks: 1

[Editor]
Bookmarks: 153752
DistanceSpacing: 0.800000011920929
BeatDivisor: 4
GridSize: 8

[Metadata]
Title:a frame
Artist:Kawada Mami
Creator:Nekoo[]
Version:Insane
Source:
Tags:OVA Shakugan no Shana S OP Single - Prophecy

[Difficulty]
HPDrainRate:7
CircleSize:5
OverallDifficulty:8
SliderMultiplier:2.6
SliderTickRate:2

[Events]
//Background and Video events
0,0,"InsaneA.jpg"
//Break Periods
2,34810,40503
2,113666,123431
2,149452,151288
2,163381,165002
//Storyboard Layer 0 (Background)
//Storyboard Layer 1 (Fail)
//Storyboard Layer 2 (Pass)
//Storyboard Layer 3 (Foreground)
//Storyboard Sound Samples
//Background Colour Transformations
3,100,163,162,255

[TimingPoints]
328,428.571428571429,4,2,0,60,1,0
69542,-100,4,2,0,60,0,1
96113,-100,4,2,0,60,0,0
179042,-100,4,2,0,60,0,1
209042,-100,4,2,0,60,0,0

[HitObjects]
96,96,20682,1,2
96,96,20789,1,2
96,96,20896,1,6
224,96,21756,5,2
320,64,21970,1,8
416,96,22185,2,0,B|496:96|496:96|496:304|496:304|352:304|352:304|352:208|352:208|224:208,1,650
176,296,23470,1,8
72,296,23685,1,2
56,192,23899,2,0,C|128:184,4,65
56,88,24542,1,2
56,88,24756,1,8
360,144,25399,5,8
360,144,25506,1,2
360,144,25613,1,8
408,240,25828,1,2
320,288,26042,1,8
216,296,26256,1,2
120,264,26470,1,0
120,160,26685,1,0
224,320,27539,5,8
224,320,27646,1,2
224,320,27753,1,4
224,288,28613,5,2
320,320,28827,1,8
416,288,29042,2,0,B|496:288|496:288|496:80|496:80|352:80|352:80|352:176|352:176|224:176,1,650
176,88,30327,1,2
72,88,30542,1,8
56,192,30756,2,0,C|128:200,4,65
56,296,31399,1,2
56,296,31613,1,8
360,240,32256,5,8
360,240,32363,1,2
360,240,32470,1,8
408,144,32685,1,2
320,96,32899,1,8
216,88,33113,1,2
120,120,33327,1,0
120,224,33542,1,0
224,320,34399,1,10
224,320,34503,1,2
224,320,34610,1,4
128,96,41253,5,2
128,96,41360,1,2
128,96,41470,1,4
288,96,42328,5,2
192,64,42542,1,8
96,96,42757,2,0,B|16:96|16:96|16:304|16:304|160:304|160:304|160:208|160:208|288:208,1,650
336,296,44042,1,2
440,296,44257,1,8
456,192,44471,2,0,C|384:184,4,65
456,88,45114,1,2
456,88,45328,1,8
152,144,45971,5,8
152,144,46078,1,2
152,144,46185,1,8
104,240,46400,1,2
192,288,46614,1,8
296,296,46828,1,2
392,264,47042,1,0
392,160,47257,1,0
288,320,48111,5,2
288,320,48218,1,2
288,320,48325,1,4
288,288,49185,5,2
192,320,49399,1,8
96,288,49614,2,0,B|16:288|16:288|16:80|16:80|160:80|160:80|160:176|160:176|288:176,1,650
336,88,50899,1,2
440,88,51114,1,8
456,192,51328,2,0,C|384:200,4,65
456,296,51971,1,2
456,296,52185,1,8
152,240,52828,5,8
152,240,52935,1,2
152,240,53042,1,8
104,144,53257,1,2
192,96,53471,1,8
296,88,53685,1,2
392,120,53899,1,0
392,224,54114,1,0
224,64,54970,5,8
224,64,55075,1,2
224,64,55182,2,0,B|496:64|496:64|496:128|496:128|208:128|208:128|208:224|208:224|464:224|464:224|464:352|464:352|464:352,1,1040
224,320,57325,1,0
224,320,57753,1,2
224,320,57967,5,8
128,320,58610,2,0,B|48:320|48:320|48:64|48:64|512:64|512:64|480:64,1,780
492,64,60110,2,0,B|448:256|448:256|288:32|288:32|223:276|223:276|320:288,1,780
464,352,62039,2,0,B|16:352|16:352|5:16|5:16|173:21|173:21|80:64,1,1040
128,96,64182,5,0
160,192,64396,1,0
216,104,64610,1,2
272,192,64825,1,8
320,96,65252,1,2
320,96,65360,1,2
320,96,65467,1,4
416,96,65896,5,2
416,160,66110,1,8
416,224,66325,1,2
416,288,66539,1,8
352,288,66753,1,2
288,288,66967,1,8
192,288,67396,1,2
192,288,67610,1,8
64,128,68039,5,2
112,128,68146,1,2
160,128,68253,1,2
208,128,68360,1,2
256,128,68467,1,2
304,128,68575,1,2
352,128,68682,1,2
400,128,68789,1,2
352,56,69756,5,8
448,88,69970,1,2
368,160,70185,1,8
464,200,70399,1,2
440,304,70613,1,8
392,296,70720,1,2
352,264,70828,1,8
248,248,71042,1,2
152,64,71470,5,8
48,88,71685,1,2
32,192,71899,1,8
128,160,72113,1,2
112,264,72328,1,8
64,288,72435,1,2
88,336,72542,1,8
192,336,72756,1,2
80,112,73610,5,8
80,112,73717,1,2
80,112,73828,2,0,B|80:32|80:32|336:32|336:32|336:96|336:96|256:96|256:96|256:144,1,520
480,160,75110,1,8
416,240,75325,1,2
464,320,75539,1,8
352,320,75753,1,4
352,320,75967,1,8
352,320,76074,1,2
352,320,76182,2,0,B|16:16,2,390
256,192,78325,12,4,80896
192,160,81110,5,8
192,160,81217,1,2
192,160,81324,1,8
256,160,81539,1,8
256,160,81646,1,2
256,160,81753,1,8
320,160,81967,1,2
384,160,82181,1,2
448,160,82396,1,8
448,160,82503,1,2
448,160,82610,1,4
352,328,83470,5,8
448,296,83684,1,8
368,224,83899,1,8
464,184,84113,1,2
440,80,84327,1,8
392,88,84434,1,2
352,120,84542,1,8
248,136,84756,1,2
152,320,85184,5,8
48,296,85399,1,2
32,192,85613,1,8
128,224,85827,1,2
112,120,86042,1,8
64,96,86149,1,2
88,48,86256,1,8
192,48,86470,1,2
416,80,87324,5,8
416,80,87431,1,2
416,80,87539,2,0,B|16:80|16:80|16:352|16:352|448:352,1,1040
448,192,89681,1,8
448,192,89789,1,2
448,192,89896,2,0,B|448:48|448:48|64:48,1,520
80,128,90967,2,0,B|160:128,6,65
272,64,92039,5,8
272,64,92146,1,2
272,64,92253,1,8
368,64,92467,1,2
464,112,92681,1,8
464,224,92896,1,2
416,320,93110,1,8
320,320,93324,2,0,B|176:320|176:320|176:256|176:256|368:256|368:256|368:192|368:192|160:192,2,650
336,112,96324,6,0,B|480:112,2,130
240,112,96966,2,0,B|160:112,6,65
240,224,97824,1,2
336,224,98256,1,0
432,224,98681,2,0,B|432:80|432:80|176:80,1,390
192,80,99752,1,8
80,80,100181,1,2
192,80,100609,1,8
304,80,101038,1,2
416,80,101466,2,0,B|416:352,1,260
256,336,102324,5,8
48,192,102752,1,2
256,48,103181,1,4
464,192,103609,1,2
256,192,104038,1,8
256,192,104466,2,8,B|256:48,1,130
256,62,104895,2,8,B|416:64,1,130
385,63,105324,2,8,B|384:240,1,130
384,193,105752,2,8,B|240:192,1,130
254,192,106181,1,4
80,80,106609,6,2,B|160:80,2,65
80,80,107038,2,0,B|80:160,2,65
80,80,107466,2,0,B|0:80,2,65
80,80,107895,2,0,B|80:0,2,65
80,80,108324,2,2,B|368:80,1,260
448,80,109181,1,8
448,176,109609,1,2
448,272,110038,1,4
352,272,110466,2,0,B|272:272,2,65
352,160,111109,5,8
352,160,111216,1,2
352,160,111323,1,0
352,160,111538,1,6
352,64,111752,1,2
256,64,111966,1,2
208,64,112074,1,2
160,80,112181,1,2
112,112,112288,1,2
80,144,112395,1,2
64,192,112502,1,2
64,240,112609,1,2
160,288,112824,5,8
160,288,112931,1,2
160,288,113038,1,6
256,288,113252,1,8
256,288,113359,1,2
256,288,113466,1,6
320,80,124181,5,8
320,80,124395,2,0,B|464:80|464:80|464:288|464:288|400:288,1,390
425,288,125252,1,8
336,288,125681,1,8
336,288,125788,1,2
336,288,125895,1,8
240,288,126109,1,2
144,288,126538,2,2,B|0:288|0:288|0:112,1,260,0|2
80,112,127609,5,8
80,112,127824,1,2
192,112,128038,1,8
192,112,128252,1,2
400,112,128681,1,8
400,208,129109,2,2,B|400:288|400:288|192:288,1,260
219,288,129966,1,2
16,288,130395,5,8
16,288,130502,1,2
16,288,130609,2,0,B|16:16|16:16|336:16|336:16|336:80|336:80|288:80,1,650
336,74,131895,2,0,B|336:288|336:288|464:288|464:288|464:32|464:32|400:32,1,650
416,80,133395,5,8
416,80,133502,1,2
416,80,133609,1,2
416,80,133824,6,0,B|416:352|416:352|352:352|352:352|352:32|352:32|288:32|288:32|288:368|288:368,1,1040
352,272,136181,5,8
352,272,136288,1,0
352,272,136395,1,0
352,272,136502,1,0
352,272,136613,1,8
256,272,137038,1,8
256,272,137145,1,0
256,272,137252,1,8
256,272,137466,1,4
320,304,137895,5,8
320,304,138109,2,0,B|464:304|464:304|464:96|464:96|400:96,1,390
425,96,138966,1,8
336,96,139395,1,8
336,96,139502,1,2
336,96,139609,1,8
240,96,139823,1,2
144,96,140252,2,0,B|0:96|0:96|0:272,1,260
80,272,141323,5,8
80,272,141430,1,2
80,272,141538,1,8
192,272,141752,1,2
192,272,141966,1,8
400,272,142395,1,2
400,176,142823,2,0,B|400:96|400:96|192:96,1,260
219,96,143680,1,8
16,96,144109,5,8
16,96,144216,1,2
16,96,144324,2,0,B|16:368|16:368|336:368|336:368|336:112|336:112|464:112|480:112|480:112|480:368|480:368|416:368|416:368|416:240,1,1430
416,304,147109,5,8
416,304,147216,1,2
416,304,147324,1,2
416,304,147538,6,0,B|416:32|416:32|352:32|352:32|352:352|352:352|288:352|288:352|288:16|288:16,1,1040
144,96,152038,5,0
144,96,152252,1,0
240,96,152466,1,0
240,96,152681,2,0,B|384:96,1,130
370,96,153109,1,0
370,96,153324,1,0
144,288,153752,5,0
144,288,153966,1,0
240,288,154180,1,0
240,288,154395,2,0,B|384:288,1,130
370,288,154823,1,0
370,288,155038,1,0
416,96,155895,5,0
416,96,156109,2,0,B|416:304|416:304|352:304|352:304|352:160,1,390
352,185,156966,1,0
352,185,157181,1,0
352,185,157395,1,0
352,185,157609,1,0
352,185,157824,1,0
352,112,158252,5,0
448,112,158466,2,0,B|448:32|448:32|112:32|112:32|111:285|111:285|240:288,1,780
256,192,160609,12,0,163181
368,96,165752,5,0
368,96,165966,1,0
272,96,166180,1,0
272,96,166395,2,0,B|128:96,1,130
142,96,166823,1,0
142,96,167038,1,0
368,288,167466,5,0
368,288,167680,1,0
272,288,167894,1,0
272,288,168109,2,0,B|128:288,1,130
142,288,168537,1,0
142,288,168752,1,0
96,96,169609,5,0
96,96,169823,2,0,B|-16:368|104:304|104:304|96:304,1,260
304,304,170681,1,0
304,208,171109,1,0
304,208,171323,1,0
304,208,171538,1,0
160,112,171966,5,0
64,112,172180,2,0,B|64:32|64:32|400:32|400:32|400:112|399:307|399:307|400:112,1,780
208,96,174324,5,8
416,64,174752,1,0
448,160,174966,1,8
304,320,175395,1,8
304,320,175609,2,0,B|80:320|80:320|80:256|80:256|320:256,1,520
128,176,177113,5,8
128,176,177216,1,2
128,176,177323,1,8
240,176,177538,1,2
240,80,177966,5,8
240,80,178074,1,2
240,80,178181,1,8
144,80,178395,1,8
144,80,178609,1,4
416,64,179251,5,8
320,112,179466,1,2
416,160,179680,1,8
320,208,179894,2,2,B|400:240|400:240|448:224|448:224|456:291|456:291|384:288,1,260
304,288,180537,1,8
224,240,180751,1,2
96,64,181180,5,8
192,112,181395,1,2
96,160,181609,1,8
192,208,181823,2,2,B|112:240|112:240|64:224|64:224|55:291|55:291|128:288,1,260
208,288,182466,1,8
400,96,183323,5,8
400,96,183537,2,2,B|400:320|400:320|320:320,1,260
363,320,184180,2,8,B|400:320|400:320|400:224,1,130
288,48,184823,1,8
192,48,185037,1,2
96,80,185251,1,8
48,288,185680,1,2
144,336,185894,2,0,B|256:336|256:336|240:304|240:304|112:304|112:304|128:256|128:256|272:256|272:256|256:208|256:208|96:208|96:208|128:176|128:176|208:176,1,780
256,192,188042,12,4,190399
192,96,190822,5,8
192,96,190929,1,2
192,96,191037,1,8
288,96,191251,1,2
288,96,191465,1,8
384,96,191679,1,2
400,192,191894,1,8
336,272,192108,1,2
288,176,192322,1,4
80,80,193179,5,8
160,144,193394,1,2
144,48,193608,1,8
96,144,193822,1,2
48,240,194036,1,8
144,256,194251,1,2
80,336,194465,1,8
432,80,194894,5,8
352,144,195109,1,2
368,48,195323,1,8
416,144,195537,1,2
464,240,195751,1,8
368,256,195966,1,2
432,336,196180,1,8
160,96,197036,5,8
160,96,197251,2,2,B|432:96,1,260
416,304,198108,1,8
208,304,198536,1,2
112,272,198751,1,8
48,192,198965,1,2
192,48,199394,1,8
288,48,199608,2,0,B|368:48|368:48|368:80|368:80|288:80|288:80|288:96|288:96|368:96|368:96|368:128|368:128|288:128|288:128|288:160|288:160|368:160|368:160|368:192|368:192|288:192|288:192|288:224|288:224,1,650
128,96,201751,5,2
336,48,202179,1,8
384,80,202286,1,2
416,128,202394,1,8
320,304,202822,1,8
272,304,202929,1,2
224,304,203036,2,0,B|16:304|16:304|16:80|16:80|288:80|288:80|288:192|288:192|48:192|48:192|48:128|48:128|240:128,1,1300
32,64,205608,5,8
32,64,205822,2,0,B|432:64|432:64|432:336|432:336|0:336|0:336|16:112|16:112|336:224|336:224|96:272,1,1885
64,128,209251,6,2,B|112:208,1,65
97,183,209465,2,0,B|176:176,2,65
144,80,209894,6,2,B|192:128,1,65
189,125,210108,2,0,B|256:128,2,65
176,240,210536,6,2,B|256:240,1,65
241,240,210751,2,0,B|304:288,2,65
336,208,211179,6,2,B|400:160,1,65
388,169,211394,2,0,B|352:112,2,65
288,144,211822,6,2,B|224:96,1,65
236,105,212036,2,0,B|160:96,2,65
236,105,212465,6,8,B|368:112,1,130
320,64,212894,5,8
320,64,213001,1,2
320,64,213108,1,8
224,64,213322,1,2
224,64,213536,1,8
224,64,213751,2,8,B|80:64,2,130
320,64,214394,5,8
320,64,214501,1,2
320,64,214608,1,8
416,64,214822,1,2
416,64,215036,2,8,B|416:224,2,130
320,64,215679,1,8
320,64,215786,1,2
320,64,215894,1,2
224,64,216108,5,2
224,64,216322,2,8,B|368:64,2,130
112,64,216965,5,8
112,64,217072,1,2
112,64,217179,1,8
224,64,217394,1,2
320,64,217608,1,0
416,64,217822,1,0
416,160,218036,1,2
320,160,218251,1,0
416,64,218465,1,0
416,160,218679,1,2
320,64,218894,1,0
224,64,219108,1,0
128,64,219322,5,8
128,64,219536,2,0,B|48:64|48:64|48:336|48:336|482:334|482:334|480:75|480:75|208:80,1,1300
208,80,222108,6,2,B|208:160,4,65
208,80,222751,2,2,B|288:80,4,65
208,80,223394,2,2,B|128:80,4,65
304,80,224036,5,2
416,80,224251,1,0
416,176,224465,1,0
304,176,224679,1,2
416,176,224894,5,0
416,80,225108,1,0
304,80,225322,1,2
304,176,225536,1,0
416,80,225751,5,0
304,176,225965,1,2
416,176,226179,1,0
304,80,226394,1,0
208,80,226608,5,2
208,176,226822,1,8
208,176,226929,1,2
208,176,227036,1,8
208,176,227251,1,2
112,176,227465,1,8
112,176,227572,1,2
112,176,227679,1,8
112,176,227894,1,2
112,80,228108,5,8
112,80,228215,1,2
112,80,228322,1,8
112,80,228536,1,2
224,80,228751,1,8
224,80,228858,1,2
224,80,228965,1,8
224,80,229179,1,2
336,80,229394,5,0
432,80,229608,1,0
432,176,229822,1,2
432,272,230036,1,0
336,272,230251,1,0
240,272,230465,1,2
144,272,230679,1,0
48,272,230894,1,0
48,176,231108,1,2
48,80,231322,5,0
144,80,231536,1,0
240,80,231751,1,2
336,80,231965,1,0
432,80,232179,1,0
432,176,232394,1,2
432,272,232608,1,0
336,272,232822,1,0
240,272,233036,1,2
144,272,233251,5,0
48,272,233465,1,8
48,272,233572,1,2
48,272,233679,1,8
48,272,233894,1,2
48,168,234113,1,4
