osu file format v6

[General]
AudioFilename: a frame.mp3
AudioLeadIn: 0
PreviewTime: -1
Countdown: 1
SampleSet: Soft
StackLeniency: 0.7
Mode: 0
LetterboxInBreaks: 1

[Editor]
DistanceSpacing: 0.800000011920929
BeatDivisor: 4
GridSize: 8

[Metadata]
Title:a frame
Artist:Kawada Mami
Creator:Nekoo[]
Version:Hard
Source:
Tags:OVA Shakugan no Shana S OP Single - Prophecy

[Difficulty]
HPDrainRate:5
CircleSize:4
OverallDifficulty:4
SliderMultiplier:1.4
SliderTickRate:2

[Events]
//Background and Video events
0,0,"InsaneA.jpg"
//Break Periods
2,34813,41008
2,81099,82150
2,113670,122865
2,135955,136579
2,149670,150722
2,163170,164436
//Storyboard Layer 0 (Background)
//Storyboard Layer 1 (Fail)
//Storyboard Layer 2 (Pass)
//Storyboard Layer 3 (Foreground)
//Storyboard Sound Samples
//Background Colour Transformations
3,100,163,162,255

[TimingPoints]
328,428.571428571429,4,2,0,60,1,0
69542,-100,4,2,0,60,0,1
96113,-100,4,2,0,60,0,0
179042,-100,4,2,0,60,0,1
208399,-100,4,2,0,60,0,0

[HitObjects]
288,96,21756,1,0
288,96,21970,1,2
384,96,22399,1,8
384,192,22827,1,2
384,288,23256,1,8
288,288,23685,1,2
192,288,24113,1,8
96,288,24542,1,0
96,288,24756,1,2
160,96,25613,5,2
160,96,25827,1,8
256,96,26256,1,0
256,96,26470,2,0,B|416:96,2,140
256,96,27756,1,4
384,256,28613,5,0
384,256,28827,1,2
288,256,29256,1,8
192,256,29685,1,2
96,256,30113,1,8
96,160,30542,1,2
192,160,30970,1,8
288,160,31399,1,0
288,160,31613,1,2
64,96,32470,5,0
64,96,32685,1,8
160,96,33113,2,0,B|384:96,2,210
160,96,34613,1,4
352,128,42328,5,0
352,128,42542,1,2
352,224,42970,1,8
256,224,43399,1,2
160,224,43828,1,8
64,224,44256,1,2
64,128,44685,1,8
160,128,45113,1,0
160,128,45328,1,2
376,64,46185,5,0
376,64,46399,1,8
296,144,46828,2,0,B|392:240|264:336,2,210
296,144,48328,1,6
160,256,49185,5,0
160,256,49399,1,2
64,256,49828,1,8
64,160,50256,1,2
64,64,50685,1,8
160,64,51113,1,2
256,64,51542,1,8
352,64,51970,1,0
352,64,52185,1,2
352,224,53042,5,0
352,224,53256,1,8
352,320,53685,1,2
352,320,54113,2,0,B|192:320|227:187,1,210,0|0
384,160,55185,6,0,B|192:64|32:96|64:352,2,490
384,256,58613,6,0,B|160:320|32:64,1,420
42,83,60113,6,0,B|480:96,1,420
448,96,62042,6,0,B|448:384|0:0,1,560
192,96,64185,5,0
192,96,64613,2,8,B|288:96,1,70
384,96,65470,1,4
384,192,65899,6,0,B|384:288,5,70
288,288,67399,1,2
288,288,67613,1,8
256,192,68042,12,4,68899
64,96,69756,5,2
64,96,69970,1,8
64,96,70185,1,2
64,96,70399,2,0,B|256:96,1,140
204,96,71042,1,8
320,96,71470,1,2
320,96,71685,1,8
320,96,71899,1,2
320,96,72113,2,0,B|320:256,1,140
320,236,72756,1,4
160,288,73613,5,8
160,288,73828,2,0,B|64:160,1,140
76,176,74470,1,8
76,176,74685,1,10
76,176,75113,5,2
76,176,75328,1,8
76,176,75542,2,0,B|224:128,1,140
209,132,76185,2,0,B|320:128|384:128|448:160|432:272|304:336|80:320,1,560
256,192,78328,12,4,80899
384,96,83470,5,2
320,96,83685,1,8
384,96,83899,1,2
320,96,84113,1,8
352,192,84542,1,2
352,192,84756,1,2
288,288,85185,1,2
352,288,85399,1,8
288,288,85613,1,2
352,288,85828,1,8
288,192,86256,1,2
288,192,86470,2,0,B|448:192,1,140
192,96,87328,5,8
192,96,87542,2,0,B|-32:256|416:352,1,420
354,337,89256,1,8
416,320,89685,1,8
416,320,89899,2,0,B|416:32,1,280
416,40,90970,1,4
128,64,92042,5,2
224,64,92470,1,8
224,64,92685,1,2
320,64,93113,1,8
320,64,93328,2,0,B|480:64|480:352|64:320|32:32|480:96|480:288|128:352|32:96,1,700
128,96,96327,5,0
128,96,96542,1,8
128,96,96756,1,0
128,96,96970,1,8
128,96,97185,1,0
128,96,97399,1,8
224,96,97827,2,0,B|320:96,1,70
294,96,98256,1,8
294,96,98470,1,0
294,96,98685,1,4
416,96,99113,2,0,B|416:192,1,70
416,288,99756,1,4
304,288,100185,5,2
192,288,100613,1,8
80,288,101042,2,0,B|80:136,1,140
80,32,101899,1,8
192,32,102328,1,0
304,32,102756,2,0,B|480:32,1,140
448,144,103613,5,8
448,256,104042,1,2
336,256,104470,2,0,B|168:256,1,140
80,256,105328,2,0,B|80:96,1,140
192,120,106185,1,8
304,120,106613,1,4
416,120,107042,1,8
304,120,107470,5,2
304,232,107899,2,0,C|304:376,1,140
416,376,108756,1,8
416,256,109185,1,2
416,144,109613,1,8
320,256,110042,1,6
320,256,110256,5,8
320,256,110470,2,8,C|232:256,1,70
136,264,111113,2,8,C|136:208,1,35
136,144,111542,1,8
136,144,111649,1,0
136,144,111756,2,8,C|224:144,1,70
264,144,112185,2,8,C|352:144,1,70
448,144,112828,1,8
448,144,112935,1,0
448,144,113042,1,4
448,224,113256,1,8
448,224,113363,1,0
448,224,113470,1,4
96,128,124185,5,8
96,128,124399,1,2
96,128,124613,1,8
96,128,124827,1,2
192,128,125256,1,8
304,128,125685,1,2
416,128,126113,1,8
416,224,126542,1,2
416,320,126970,1,4
320,320,127613,5,8
320,320,127827,1,2
320,320,128042,1,8
320,320,128256,1,2
320,224,128685,1,8
320,128,129113,1,2
224,128,129542,1,8
224,128,129970,2,0,B|64:128,1,140
84,128,130613,2,8,B|32:64|480:64,1,420
416,224,133399,5,8
416,224,133613,1,2
416,224,133827,2,0,B|416:320|416:384|192:352|64:352|32:0,1,630
384,96,137899,5,8
352,128,138113,1,2
384,160,138327,1,8
352,192,138542,1,2
352,288,138970,1,8
352,288,139399,1,2
256,288,139827,1,8
256,288,140256,1,2
256,288,140685,1,4
96,288,141327,5,8
64,256,141542,1,2
96,224,141756,1,8
64,192,141970,1,2
64,96,142399,1,8
160,96,142827,1,2
256,96,143256,1,8
352,96,143685,1,2
448,96,144113,1,8
448,96,144327,2,0,B|448:192|448:256|448:320|320:320|160:320|32:320|32:320|64:64,1,770
48,112,147113,5,8
48,112,147327,1,2
48,112,147542,2,0,B|64:192|64:256|64:320|192:320|352:320|480:320|480:160,1,630
160,96,152042,5,0
160,96,152256,1,0
256,96,152685,1,0
352,96,153113,1,0
352,96,153327,1,0
352,192,153756,1,0
352,192,153970,1,0
352,192,154185,1,0
352,192,154399,1,0
352,288,154827,1,0
352,288,155042,1,0
128,288,155899,5,0
96,256,156113,1,0
96,160,156542,1,0
96,64,156970,1,0
192,64,157399,1,0
224,96,157613,1,0
256,128,157827,1,0
360,88,158256,1,0
320,56,158470,2,0,B|320:344,1,280
256,192,160613,12,0,162970
128,96,165756,5,0
160,64,165970,1,0
256,64,166399,1,0
352,64,166827,1,0
384,96,167042,1,0
384,192,167470,1,0
352,224,167685,1,0
320,256,167899,1,0
288,288,168113,1,0
160,224,168542,1,0
128,192,168756,1,0
128,96,169613,5,0
128,96,169827,2,0,B|288:96,1,140
384,96,170685,1,0
384,192,171113,1,0
352,224,171327,1,0
320,256,171542,1,0
288,320,171970,1,0
240,304,172185,2,0,B|288:224|336:160|352:80|240:48|96:96,1,420
128,288,174327,5,8
64,192,174756,1,2
96,160,174970,1,8
160,96,175399,1,2
160,96,175613,2,0,B|256:96|352:96|416:96|480:96|480:192|480:352|320:320|32:288,1,770
96,192,178396,5,8
96,192,178503,1,8
96,192,178613,1,4
224,96,179256,5,2
256,128,179470,1,8
288,160,179685,1,2
320,192,179899,1,8
352,224,180113,1,2
456,184,180542,1,8
456,128,180756,1,2
352,96,181185,5,8
320,128,181399,1,2
288,160,181613,1,8
320,200,181827,1,2
416,128,182256,1,8
416,128,182470,1,4
416,288,183327,5,8
416,288,183542,2,0,B|256:288,1,140
232,320,184185,1,2
176,320,184399,1,8
72,280,184827,1,2
120,256,185042,1,8
168,232,185256,2,0,B|328:232,1,140
312,232,185899,2,0,B|396:232|460:232|460:168|460:72|460:8|300:40|76:40,1,560
256,192,188042,12,4,190399
128,128,190825,5,8
160,128,190932,1,8
192,128,191042,1,4
248,128,191256,1,2
272,128,191363,1,2
296,128,191470,1,4
352,128,191682,1,2
376,128,191789,1,2
376,216,192113,1,4
160,288,193185,5,2
128,256,193399,1,8
96,224,193613,1,2
64,192,193827,1,8
128,64,194256,1,2
160,32,194470,1,8
256,32,194899,1,2
288,64,195113,1,8
320,96,195327,1,2
352,128,195542,1,8
384,224,195970,1,2
352,256,196185,1,4
80,336,197042,5,8
80,336,197256,2,0,B|16:304|16:272|16:240|48:208,1,210
81,173,198113,1,2
120,80,198542,1,2
152,48,198756,1,8
184,80,198970,1,2
272,80,199399,1,8
304,96,199613,2,0,B|304:192|288:304|352:320|384:288|400:192|384:64,1,420
384,96,201756,6,0,B|384:192|384:256|384:320,1,210
384,306,202827,1,8
384,306,203042,2,0,B|288:320|192:320|128:288|32:288|32:256|32:128|64:64|160:64|320:32|384:96|416:96,1,770
408,152,205613,1,0
384,208,205827,2,0,B|416:272|352:368|256:368|128:368|64:336|0:304|32:144|64:48|224:80,1,700
160,224,208613,6,2,B|64:224,2,70
160,224,209256,2,0,B|160:128,2,70,0|0|0
160,224,209899,6,2,B|256:224,2,70
160,224,210542,2,0,B|160:320,2,70
320,224,211185,6,2,B|224:224,2,70,0|0|0
320,224,211827,2,0,B|320:320,2,70,0|0|0
320,224,212470,6,2,B|416:224,2,70,0|0|0
224,96,213113,2,0,B|224:0,2,70
160,96,213756,6,2,B|64:96,2,70
160,160,214399,2,0,B|64:160,2,70
160,224,215042,6,2,B|64:224,2,70
160,288,215685,2,0,B|64:288,2,70
224,288,216327,6,2,B|320:288,2,70
224,224,216970,2,0,B|320:224,2,70
224,160,217613,6,2,B|320:160,2,70
224,96,218256,2,0,B|320:96,2,70
224,160,218899,6,2,B|320:160,1,70
352,160,219327,1,2
352,160,219542,2,0,B|352:224|512:192|448:320|352:320|352:352|192:320|128:320|64:320|32:32,1,700
128,96,222113,1,2
160,64,222327,1,0
192,32,222542,1,0
224,64,222756,1,2
256,96,222970,1,0
288,128,223185,1,0
320,160,223399,5,2
352,192,223613,1,0
384,224,223827,1,0
416,256,224042,1,2
384,288,224256,1,0
352,320,224470,1,0
320,352,224685,1,2
288,320,224899,1,0
256,288,225113,1,0
224,256,225327,1,2
192,224,225542,1,0
160,192,225756,5,0
128,160,225970,1,2
96,128,226185,1,0
64,96,226399,1,0
64,96,226613,2,2,B|160:96,2,70
64,160,227256,2,0,B|160:160,2,70
64,224,227899,6,2,B|160:224,2,70
64,288,228542,2,0,B|160:288,2,70
256,288,229185,6,2,B|160:288,2,70
256,224,229827,2,0,B|160:224,2,70
256,160,230470,6,2,B|160:160,2,70
256,96,231113,2,0,B|160:96,2,70
320,96,231756,5,2
352,128,231970,1,0
384,160,232185,1,0
384,192,232399,1,2
352,224,232613,1,0
320,256,232827,1,0
288,288,233042,2,0,B|192:288,2,70
288,288,233685,1,2
280,176,234113,1,4
