osu file format v6

[General]
AudioFilename: a frame.mp3
AudioLeadIn: 0
PreviewTime: -1
Countdown: 1
SampleSet: Soft
StackLeniency: 0.7
Mode: 0
LetterboxInBreaks: 1

[Editor]
DistanceSpacing: 0.600000023841858
BeatDivisor: 2
GridSize: 8

[Metadata]
Title:a frame
Artist:Kawada Mami
Creator:Nekoo[]
Version:Easy
Source:Prophecy (the CD)
Tags:OVA Shakugan no Shana S OP Single - Prophecy

[Difficulty]
HPDrainRate:3
CircleSize:3
OverallDifficulty:3
SliderMultiplier:1.4
SliderTickRate:1

[Events]
//Background and Video events
0,0,"InsaneA.jpg"
//Break Periods
2,34812,40888
2,67813,68316
2,80885,82030
2,113670,122745
2,136169,136459
2,149884,150602
2,158670,159173
2,163385,164316
2,172384,172887
2,190599,191745
//Storyboard Layer 0 (Background)
//Storyboard Layer 1 (Fail)
//Storyboard Layer 2 (Pass)
//Storyboard Layer 3 (Foreground)
//Storyboard Sound Samples
//Background Colour Transformations
3,100,163,162,255

[TimingPoints]
328,428.571428571429,4,2,0,60,1,0
69542,-100,4,2,0,60,0,1
96113,-100,4,2,0,60,0,0
179256,-100,4,2,0,60,0,1
208399,-100,4,2,0,60,0,0

[HitObjects]
176,96,21756,1,2
256,96,22185,1,8
336,96,22613,1,2
336,176,23042,1,8
336,256,23470,1,2
336,336,23899,1,8
256,336,24327,2,0,B|112:336,1,140
112,112,25613,6,0,B|448:304|448:304|400:112,1,560
336,96,27756,1,4
176,96,28613,6,0,B|176:320,1,210
240,256,29685,1,0
240,176,30113,1,0
320,144,30542,2,0,B|320:384,1,210
384,304,31613,1,0
400,144,32470,6,0,B|240:144,5,140
336,288,42328,5,2
256,288,42756,1,8
176,288,43185,1,2
96,288,43613,1,8
96,208,44042,1,2
96,128,44470,1,8
96,48,44899,2,0,B|240:48,1,140
400,272,46185,6,0,B|64:80|64:80|112:272,1,560
176,288,48328,1,4
432,288,49185,6,0,B|432:64,1,210
352,112,50256,1,0
352,192,50685,1,0
288,256,51113,2,0,B|288:16,1,210
208,64,52185,1,0
112,304,53042,6,0,B|272:304,4,140
224,304,55185,6,0,B|352:304|416:304|448:304|512:304|480:192|480:96|528:16|496:-16|256:32|160:48|45:56|24:167|0:256|10:115|64:48,1,980
80,160,58613,2,0,B|304:96|304:96|416:48,3,350
411,49,62042,6,0,B|416:208|416:304|416:352|304:336|208:336|144:336|64:336,1,560
80,256,64185,1,8
80,176,64613,2,0,B|224:176,1,140
224,96,65470,1,8
304,96,65899,2,0,B|304:240,4,140
144,96,69756,6,2,B|224:96,6,70
144,176,71470,2,2,B|224:176,6,70
480,64,73613,6,0,B|480:144|480:208|480:288|480:352|400:352|304:336|224:336,1,420
160,336,75542,1,4
64,256,76185,2,8,B|70:104|432:96|432:96|432:288,1,560
256,192,78328,12,4,80685
368,96,83470,6,2,B|288:96,6,70
368,176,85185,2,2,B|288:176,6,70
32,64,87328,6,0,B|32:144|32:208|32:288|32:352|112:352|208:336|288:336,1,420
352,320,89256,1,4
448,240,89899,2,8,B|368:80|368:80|71:108|71:108|64:240,1,560
256,192,92042,12,4,94399
288,208,96327,6,8,B|288:288,5,70
240,208,97827,1,8
240,128,98256,1,2
160,128,98685,1,4
96,112,99756,5,2
96,192,100185,1,8
96,272,100613,2,0,B|272:272,1,140
320,272,101470,1,8
400,272,101899,1,2
480,272,102327,2,0,B|480:128,1,140
480,48,103185,5,4
400,48,103613,1,8
320,48,104042,2,0,B|240:192,1,140
160,176,104899,1,8
112,240,105327,1,2
112,320,105756,2,0,B|272:320,1,140
336,320,106613,5,4
416,320,107042,1,8
464,240,107470,2,0,B|320:240,1,140
320,160,108327,1,8
240,128,108756,1,2
256,48,109185,2,0,B|432:48,1,140
368,128,110042,5,4
368,208,110470,2,8,B|368:288,1,70
288,240,111113,2,8,B|288:160,1,70
208,192,111756,2,2,B|128:192,6,70
288,192,113470,1,4
96,96,124185,5,8
176,96,124613,2,2,B|416:96,1,210
464,96,125685,1,8
464,176,126113,2,2,B|464:288|464:320|384:304|272:304,1,280
160,304,127613,5,8
224,256,128042,2,2,B|128:256,3,70
224,208,129113,1,8
288,160,129542,1,2
352,128,129970,1,8
416,80,130399,1,2
464,112,130613,2,0,B|464:208|464:256|464:336|352:320|240:320|176:320|96:320|32:304|48:224|64:160|80:112|64:96,1,700
216,80,133399,5,2
138,80,133827,2,0,B|32:80|0:80|16:224|16:304|16:352|208:336|352:336|416:336|464:320,1,700
96,288,137899,5,8
176,288,138328,2,2,B|416:288,1,210
464,272,139399,1,8
464,192,139827,2,2,B|464:80|464:48|384:64|272:64,1,280
160,32,141327,5,8
176,112,141756,2,2,B|80:112,3,70
160,176,142827,1,8
224,224,143256,1,2
304,256,143685,1,8
384,256,144113,1,2
432,256,144327,2,0,B|432:160|432:112|432:32|320:48|208:48|144:48|64:48|0:64|16:144|32:208|48:256|32:272,1,700
224,304,147113,5,2
138,304,147542,2,0,B|32:304|0:304|16:160|16:80|16:32|208:48|352:48|416:48|464:64,1,700
128,96,152042,6,0,B|208:96,1,70
288,96,152685,1,0
368,96,153113,2,0,B|368:176,1,70
400,240,153756,2,0,B|320:240,1,70
240,240,154399,1,0
160,240,154827,2,0,B|48:240,1,70
80,64,155899,6,0,B|176:64,1,70
240,64,156542,1,0
320,64,156970,1,0
400,64,157399,1,0
432,144,157828,1,0
464,224,158256,2,0,B|464:304,1,70
256,192,160613,12,0,163185
384,96,165756,6,0,B|304:96,1,70
224,96,166399,1,0
144,96,166827,2,0,B|144:176,1,70
96,240,167470,2,0,B|176:240,1,70
240,272,168113,1,0
320,272,168542,2,0,B|432:272,1,70
448,112,169613,6,0,B|352:112,1,70
288,112,170256,1,0
208,112,170685,1,0
128,112,171113,1,0
48,112,171542,1,0
48,192,171970,2,0,B|48:272,1,70
160,96,174327,5,8
240,96,174756,2,2,B|320:96,1,70
384,96,175399,1,4
384,96,175613,2,0,B|384:256|384:336|288:336|176:320|64:304|64:224|32:128|64:64,1,630
336,112,178399,2,4,B|240:112,1,70
96,128,179470,6,2,B|256:128,1,140
236,128,180113,1,8
320,128,180542,2,2,B|320:208,1,70
320,288,181185,2,8,B|400:288,2,70
320,288,181828,1,8
240,288,182256,2,8,B|144:288,1,70
96,144,183328,5,2
96,144,183542,2,2,B|288:32|288:32|464:144,1,420
448,224,185256,1,8
384,272,185685,1,2
384,272,185899,2,8,B|384:128|384:128|48:128,1,420
256,192,188042,12,4,190399
416,128,193185,6,2,B|256:128,1,140
276,128,193828,1,8
192,128,194257,2,2,B|192:208,1,70
192,288,194900,2,8,B|112:288,2,70
192,288,195543,1,8
272,288,195971,2,8,B|368:288,1,70
416,144,197043,5,2
416,144,197257,2,2,B|224:32|224:32|48:144,1,420
64,224,198971,1,8
128,272,199400,1,2
128,272,199613,2,8,B|128:128|128:128|464:128,1,420
256,192,201756,12,4,204113
368,80,205613,5,8
368,80,205827,2,2,B|368:192|368:256|352:320|352:352|288:352|160:320|80:288|48:208|64:80|96:48,1,630
80,320,208613,6,0,B|80:32,1,280
160,48,209899,2,0,B|160:336,1,280
240,336,211185,2,0,B|240:48,1,280
320,64,212470,2,0,B|320:352,1,280
400,320,213756,6,0,B|48:320,1,280
96,240,215042,2,0,B|448:240,1,280
416,160,216327,2,0,B|112:160,1,280
96,96,217613,2,0,B|384:96,1,280
400,288,219327,5,4
400,288,219542,2,0,B|320:288|224:288|144:288|80:288|32:288|48:208|64:144|64:96|80:48|224:64|304:64,1,630
400,80,222113,2,2,B|400:208,8,70
352,80,224042,2,2,B|352:208,8,70
304,80,225970,6,2,B|304:208,8,70
240,80,227899,2,2,B|240:208,8,70
192,80,229827,2,2,B|192:208,8,70
144,80,231756,2,2,B|144:208,8,70,2|2|2|2|2|2|2|2|2
304,128,234113,1,6
