osu file format v14

[General]
AudioFilename: Wings of Courage.mp3
AudioLeadIn: 0
PreviewTime: 79967
Countdown: 0
SampleSet: Soft
StackLeniency: 0.5
Mode: 0
LetterboxInBreaks: 0
WidescreenStoryboard: 0

[Editor]
DistanceSpacing: 0.5
BeatDivisor: 4
GridSize: 4
TimelineZoom: 1.9

[Metadata]
Title:Wings of Courage -Sora o Koete-
TitleUnicode:Wings of Courage -空を超えて-
Artist:Kawada Mami
ArtistUnicode:川田まみ
Creator:Moecho
Version:wkyik's Insane
Source:蒼の彼方のフォーリズム
Tags:sprite eroge galgame Ao no Kanata no Four Rhythm Shudaika opening Beyond the sky into the firmament No Dap No_Dap Kawaiwkyik wkyik sammy711
BeatmapID:654387
BeatmapSetID:279701

[Difficulty]
HPDrainRate:6
CircleSize:4
OverallDifficulty:7
ApproachRate:8
SliderMultiplier:1.8
SliderTickRate:1

[Events]
//Background and Video events
0,0,"BG.jpg",0,0
Video,0,"Wings of Courage.avi"
//Break Periods
2,6011,8100
2,9050,11056
//Storyboard Layer 0 (Background)
//Storyboard Layer 1 (Fail)
//Storyboard Layer 2 (Pass)
//Storyboard Layer 3 (Foreground)
//Storyboard Sound Samples

[TimingPoints]
5811,375,4,2,89,30,1,0
8850,375,4,2,89,30,1,0
11806,375,4,2,89,50,1,0
11806,-133.333333333333,4,2,89,40,0,0
13306,-125,4,2,89,45,0,0
14806,-100,4,2,89,50,0,0
15931,-100,4,2,89,15,0,0
16024,-100,4,2,89,20,0,0
16118,-100,4,2,89,25,0,0
16306,-100,4,2,89,30,0,0
16681,-100,4,2,89,25,0,0
16868,-100,4,2,89,40,0,0
17056,-100,4,2,89,25,0,0
17431,-100,4,2,89,25,0,0
17524,-100,4,2,89,30,0,0
17618,-100,4,2,89,40,0,0
17759,-100,4,2,89,35,0,0
17806,-100,4,2,89,50,0,0
23806,-100,4,2,89,40,0,0
23899,-100,4,2,89,50,0,0
29806,-100,4,2,89,40,0,0
29899,-100,4,2,89,50,0,0
35806,-100,4,2,89,40,0,0
35899,-100,4,2,89,50,0,0
38618,-100,4,2,89,40,0,0
38712,-100,4,2,89,50,0,0
40493,-100,4,2,89,20,0,0
40587,-100,4,2,89,35,0,0
40681,-100,4,2,89,50,0,0
40868,-100,4,2,89,45,0,0
41431,-100,4,2,89,15,0,0
41806,-100,4,2,89,40,0,0
47806,-100,4,2,89,50,0,0
53431,-100,4,2,89,50,0,0
53806,-100,4,2,89,40,0,0
59806,-100,4,2,89,50,0,0
64681,-100,4,2,89,40,0,0
65618,-100,4,2,89,35,0,0
65712,-100,4,2,89,30,0,0
65806,-100,4,2,89,45,0,0
65899,-100,4,2,89,30,0,0
68431,-100,4,2,89,30,0,0
68524,-100,4,2,89,30,0,0
71806,-100,4,2,89,35,0,0
71899,-100,4,2,89,45,0,0
74806,-100,4,2,89,45,0,0
76306,-100,4,2,89,40,0,0
79118,-100,4,2,89,50,0,0
80056,-100,4,2,89,50,0,0
80806,-100,4,2,89,70,0,1
95806,-100,4,2,89,50,0,1
95899,-100,4,2,89,70,0,1
97118,-100,4,2,89,50,0,1
97212,-100,4,2,89,70,0,1
98806,-100,4,2,89,50,0,1
98993,-100,4,2,89,70,0,1
104806,-100,4,2,89,60,0,0
116806,-100,4,2,89,60,0,1
121118,-100,4,2,89,40,0,1
121212,-100,4,2,89,60,0,1
122806,-100,4,2,89,40,0,1
122899,-100,4,2,89,60,0,1
125431,-100,4,2,89,50,0,1
127306,-100,4,2,89,50,0,0
128618,-100,4,2,89,50,0,0
128806,-100,4,2,89,40,0,0
129181,-100,4,2,89,35,0,0
129368,-100,4,2,89,30,0,0
129931,-100,4,2,89,25,0,0
134806,-100,4,2,89,40,0,0
136306,-100,4,2,89,30,0,0
137806,-100,4,2,89,20,0,0
139306,-100,4,2,89,10,0,0
140806,-100,4,2,89,5,0,0

[Colours]
Combo1 : 200,200,140
Combo2 : 235,200,160
Combo3 : 170,125,190
Combo4 : 165,230,240

[HitObjects]
256,192,5811,5,2,0:0:0:0:
256,192,8850,5,2,0:0:0:0:
100,96,11806,6,0,L|108:176,1,67.5000025749208
52,264,12181,2,0,P|88:256|140:252,1,67.5000025749208
252,176,12556,2,0,P|216:184|164:188,1,67.5000025749208
200,280,12931,1,0,0:0:0:0:
344,344,13118,1,0,0:0:0:0:
384,192,13306,6,0,P|382:157|376:112,1,72
244,24,13681,2,0,P|239:59|237:95,1,72
356,268,14056,2,0,P|391:266|427:261,1,72
312,156,14431,1,0,0:0:0:0:
228,308,14618,1,0,0:0:0:0:
96,228,14806,6,0,P|104:172|116:128,1,90
180,68,15181,1,0,0:0:0:0:
256,228,15368,5,0,0:0:0:0:
256,228,15743,1,0,0:0:0:0:
460,356,16118,2,0,L|464:324,3,30
420,168,16681,5,0,0:0:0:0:
336,144,16868,2,0,L|340:92,2,45
260,192,17243,1,0,0:0:0:0:
244,280,17431,2,0,L|248:316,7,22.5
248,324,17806,6,0,P|200:316|140:308,1,90,4|0,0:0|0:0,0:0:0:0:
28,248,18181,2,0,P|76:240|136:232,1,90,8|0,0:0|0:0,0:0:0:0:
260,192,18556,2,0,P|248:140|232:92,1,90
144,60,18931,1,8,0:0:0:0:
116,196,19118,1,2,0:0:0:0:
312,252,19306,5,0,0:0:0:0:
312,252,19493,2,0,P|352:232|400:232,2,90,0|8|0,0:0|0:0|0:0,0:0:0:0:
264,336,20056,1,0,0:0:0:0:
444,312,20243,1,2,0:0:0:0:
330,164,20431,1,8,0:0:0:0:
330,164,20806,6,0,P|314:236|310:276,1,90,4|0,0:0|0:0,0:0:0:0:
360,348,21181,1,8,0:0:0:0:
440,184,21368,2,0,P|433:139|421:95,1,90
292,40,21743,2,0,P|303:83|310:128,1,90,0|8,0:0|0:0,0:0:0:0:
216,252,22118,6,0,P|168:272|88:192,1,180,2|0,0:0|0:0,0:0:0:0:
148,72,22681,1,10,0:0:0:0:
216,152,22868,1,0,0:0:0:0:
320,128,23056,2,0,P|328:180|340:220,1,90,2|0,0:0|0:0,0:0:0:0:
404,96,23431,2,0,P|396:44|384:4,1,90,8|0,0:0|0:0,0:0:0:0:
385,8,23712,1,0,0:0:0:0:
385,8,23806,5,4,0:0:0:0:
328,144,23993,1,0,0:0:0:0:
452,204,24181,2,0,L|444:304,2,90,8|0|2,0:0|0:0|0:0,0:0:0:0:
319,268,24743,2,0,P|276:278|231:283,1,90,0|8,0:0|0:0,0:0:0:0:
124,168,25118,2,0,P|167:157|212:152,1,90,2|0,0:0|0:0,0:0:0:0:
396,256,25493,5,0,0:0:0:0:
316,128,25681,1,8,0:0:0:0:
424,172,25868,1,0,0:0:0:0:
240,260,26056,2,0,P|184:268|116:276,1,90,0|2,0:0|0:0,0:0:0:0:
236,56,26431,1,8,0:0:0:0:
236,56,26806,6,0,P|248:120|256:184,1,90,4|0,0:0|0:0,0:0:0:0:
104,124,27181,1,8,0:0:0:0:
104,124,27274,1,0,0:0:0:0:
103,124,27368,2,0,L|59:120,2,45,2|0|0,0:0|0:0|0:0,0:0:0:0:
140,224,27743,1,0,0:0:0:0:
240,168,27931,5,8,0:0:0:0:
240,168,28024,1,0,0:0:0:0:
240,168,28118,2,0,P|284:164|312:164,2,45,2|0|0,0:0|0:0|0:0,0:0:0:0:
296,20,28493,1,2,0:0:0:0:
180,56,28681,5,8,0:0:0:0:
164,52,28774,1,0,0:0:0:0:
148,48,28868,1,0,0:0:0:0:
132,44,28962,1,0,0:0:0:0:
116,40,29056,2,0,P|104:104|104:152,1,90,0|8,0:0|0:0,0:0:0:0:
64,232,29431,1,8,0:0:0:0:
176,152,29618,1,8,0:0:0:0:
176,152,29712,1,0,0:0:0:0:
176,152,29806,6,0,P|192:216|200:264,1,90,4|0,0:0|0:0,0:0:0:0:
140,364,30181,1,8,0:0:0:0:
232,264,30368,2,0,P|296:248|428:240,1,180,2|0,0:0|0:0,0:0:0:0:
288,360,30931,1,8,0:0:0:0:
180,320,31118,6,0,P|156:264|232:188,1,180,2|0,0:0|0:0,0:0:0:0:
356,80,31681,2,0,P|368:136|376:180,1,90,10|0,0:0|0:0,0:0:0:0:
344,256,32056,1,0,0:0:0:0:
272,160,32243,1,2,0:0:0:0:
464,104,32431,1,8,0:0:0:0:
464,104,32806,6,0,P|456:172|448:212,2,90,6|0|8,0:0|0:0|0:0,0:0:0:0:
336,52,33368,1,0,0:0:0:0:
244,124,33556,1,0,0:0:0:0:
144,68,33743,2,0,P|96:64|48:56,1,90,2|8,0:0|0:0,0:0:0:0:
144,184,34118,6,0,P|192:168|304:240,1,180,2|0,0:0|0:0,0:0:0:0:
284,344,34681,1,10,0:0:0:0:
208,256,34868,1,0,0:0:0:0:
260,152,35056,2,0,P|267:107|268:62,1,90
336,240,35431,1,8,0:0:0:0:
336,240,35806,6,0,P|384:248|444:252,1,90,4|0,0:0|0:0,0:0:0:0:
344,136,36181,2,0,P|392:135|452:129,1,90,8|2,0:0|0:0,0:0:0:0:
240,44,36556,1,0,0:0:0:0:
176,120,36743,2,0,P|176:164|180:209,1,90,2|8,0:0|0:0,0:0:0:0:
268,324,37118,6,0,B|216:316|216:316|80:352,1,180,2|0,0:0|0:0,0:0:0:0:
352,372,37681,1,8,0:0:0:0:
424,304,37868,2,0,P|444:252|392:136,1,180,2|2,0:0|0:0,0:0:0:0:
308,108,38431,1,8,0:0:0:0:
228,164,38618,1,4,0:0:0:0:
352,372,38993,5,8,0:0:0:0:
424,304,39181,2,0,B|416:252|416:252|400:216,1,90
324,280,39556,5,8,0:3:0:0:
232,368,39743,1,8,0:3:0:0:
176,256,39931,1,8,0:0:0:0:
456,120,40306,5,0,0:0:0:0:
376,80,40493,2,0,L|380:40,4,22.5
300,128,40868,5,4,0:3:0:0:
212,108,41056,1,4,0:3:0:0:
124,92,41243,1,4,0:3:0:0:
52,220,41431,2,0,B|144:240|144:240|184:216,1,135,8|0,0:1|0:0,0:0:0:0:
212,248,41806,6,0,P|220:296|224:344,1,90,4|0,0:0|0:0,0:0:0:0:
320,272,42181,2,0,P|319:320|315:368,1,90
448,256,42556,1,0,0:0:0:0:
392,188,42743,2,0,P|444:168|500:184,1,90
448,256,43118,1,0,0:0:0:0:
308,188,43306,6,0,P|316:128|360:8,1,180
248,80,43868,2,0,P|200:96|108:8,1,180
64,196,44431,2,0,L|72:264,1,45
76,272,44618,6,0,P|136:236|256:272,1,180,2|0,0:0|0:0,0:0:0:0:
360,308,45181,1,0,0:0:0:0:
344,184,45368,1,0,0:0:0:0:
344,184,45462,1,0,0:0:0:0:
344,184,45556,2,0,L|356:284,1,90
292,352,45931,5,0,0:0:0:0:
436,296,46118,1,0,0:0:0:0:
272,232,46306,5,0,0:0:0:0:
412,123,46493,2,0,P|420:168|426:212,1,90
256,216,46868,2,0,P|208:200|100:304,1,180,2|0,0:0|0:0,0:0:0:0:
164,360,47431,1,0,0:0:0:0:
164,360,47618,1,0,0:0:0:0:
256,376,47806,6,0,B|324:368|324:368|376:376,1,90,4|0,0:0|0:0,0:0:0:0:
488,224,48181,2,0,B|436:204|436:204|288:220,1,180,8|0,0:0|0:0,0:0:0:0:
200,260,48743,1,0,0:0:0:0:
332,320,48931,1,8,0:0:0:0:
224,244,49118,1,0,0:0:0:0:
224,244,49493,6,0,P|232:304|232:360,1,90,0|8,0:0|0:0,0:0:0:0:
316,208,49868,2,0,P|356:224|440:128,1,180
344,44,50431,2,2,B|296:32|296:32|260:44|260:44|192:32,1,135,8|0,0:0|0:0,0:0:0:0:
184,27,50806,6,0,P|187:72|188:117,1,90,4|0,0:0|0:0,0:0:0:0:
224,244,51181,2,0,P|284:224|384:304,1,180,8|0,0:0|0:0,0:0:0:0:
284,332,51743,1,0,0:0:0:0:
208,236,51931,2,0,P|216:176|224:132,1,90,8|0,0:0|0:0,0:0:0:0:
221,146,52493,5,0,0:0:0:0:
372,128,52681,1,8,0:0:0:0:
312,192,52868,2,0,B|284:144|284:144|304:20,1,180
392,8,53431,2,0,B|372:130,1,90,10|0,0:0|0:0,0:0:0:0:
416,256,53806,5,4,0:0:0:0:
380,348,53993,2,0,P|440:336|480:336,1,90
284,332,54368,2,0,B|248:316|204:336|204:336|144:364|96:332,1,180
24,276,54931,2,0,P|28:231|35:186,1,90
114,127,55306,5,0,0:0:0:0:
240,84,55493,1,0,0:0:0:0:
140,144,55681,1,0,0:0:0:0:
272,184,55868,2,0,B|332:172|332:172|384:184|384:184|472:168,1,180
328,264,56431,2,0,L|316:336,1,45
316,336,56618,6,0,P|264:324|152:376,1,180,2|0,0:0|0:0,0:0:0:0:
48,240,57181,2,0,P|52:284|60:328,1,90
172,256,57556,2,0,P|167:211|159:167,1,90
24,224,57931,2,0,P|28:268|36:312,1,90
144,356,58306,5,0,0:0:0:0:
236,320,58493,1,0,0:0:0:0:
328,356,58681,1,0,0:0:0:0:
400,288,58868,2,0,L|408:104,1,180,2|0,0:0|0:0,0:0:0:0:
332,44,59431,1,0,0:0:0:0:
332,44,59618,1,0,0:0:0:0:
252,104,59806,6,0,B|220:108|220:108|156:92,1,90,4|0,0:0|0:0,0:0:0:0:
91,23,60181,2,0,P|11:50|11:134,1,180,8|0,0:0|0:0,0:0:0:0:
180,184,60743,1,0,0:0:0:0:
84,204,60931,1,8,0:0:0:0:
152,276,61118,1,0,0:0:0:0:
152,276,61493,6,0,P|164:220|180:176,1,90,0|8,0:0|0:0,0:0:0:0:
248,256,61868,2,0,P|296:276|380:200,1,180
404,104,62431,2,2,L|432:316,1,180,8|4,0:0|0:0,0:0:0:0:
352,348,62993,1,0,0:0:0:0:
248,256,63181,6,0,B|212:240|212:240|136:272|168:356,1,180,8|0,0:0|0:0,0:0:0:0:
336,268,63743,2,0,P|328:208|316:168,1,90,0|8,0:0|0:0,0:0:0:0:
328,80,64118,2,0,P|368:56|472:132,1,180
469,117,64681,5,8,0:0:0:0:
424,216,64868,1,0,0:0:0:0:
424,216,64962,1,8,0:0:0:0:
424,216,65056,2,0,L|316:208,1,90,8|0,0:0|0:0,0:0:0:0:
252,276,65431,2,0,L|260:320,2,45,8|0|0,0:0|0:0|0:0,0:0:0:0:
152,232,65806,6,0,P|128:184|196:68,1,180,4|0,0:0|0:0,0:0:0:0:
272,128,66368,2,0,B|320:144|320:144|456:112,1,180,2|0,0:0|0:0,0:0:0:0:
380,28,66931,2,0,P|368:104|364:156,1,90,2|0,0:0|0:0,0:0:0:0:
432,200,67306,5,0,0:0:0:0:
344,260,67493,1,0,0:0:0:0:
440,312,67681,1,0,0:0:0:0:
284,336,67868,2,0,P|194:330|104:328,1,180,2|0,0:0|0:0,0:0:0:0:
20,260,68431,2,0,P|36:200|64:160,1,90,4|0,0:0|0:0,0:0:0:0:
108,48,68806,6,0,P|152:84|112:220,1,180,4|0,0:0|0:0,0:0:0:0:
142,197,69368,1,0,0:0:0:0:
224,268,69556,2,0,P|300:252|416:240,1,180,2|0,0:0|0:0,0:0:0:0:
456,312,70118,1,2,0:0:0:0:
320,216,70306,6,0,P|328:156|340:120,1,90,0|2,0:0|0:0,0:0:0:0:
464,60,70681,2,0,P|476:103|480:147,1,90,0|2,0:0|0:0,0:0:0:0:
424,220,71056,2,0,L|328:208,1,90
280,296,71431,2,0,L|376:308,1,90
444,360,71806,5,4,0:0:0:0:
408,184,72181,1,2,0:0:0:0:
256,280,72556,2,0,B|216:288|216:288|148:276,1,90,2|0,0:0|0:0,0:0:0:0:
56,320,72931,1,0,0:0:0:0:
56,320,73118,2,0,P|20:260|92:160,1,180,2|0,0:0|0:0,0:0:0:0:
184,176,73681,6,0,P|208:136|200:84,1,90
278,262,74056,2,0,P|231:261|190:294,1,90,2|0,0:0|0:0,0:0:0:0:
305,137,74431,2,0,P|328:178|377:197,1,90,2|0,0:0|0:0,0:0:0:0:
500,276,74806,6,0,P|444:268|380:264,1,90,4|0,0:0|0:0,0:0:0:0:
336,320,75181,1,0,0:0:0:0:
428,364,75368,2,0,P|352:348|216:336,1,180,2|0,0:0|0:0,0:0:0:0:
156,364,75931,1,0,0:0:0:0:
156,364,76118,1,0,0:0:0:0:
68,316,76306,6,4,B|76:216|76:216|104:176,2,135,4|12|12,0:3|0:3|0:3,0:3:0:0:
168,272,77056,2,0,B|176:172|176:172|204:132,2,135,4|8|8,0:3|0:3|0:3,0:0:0:0:
252,324,77806,5,0,0:0:0:0:
252,324,77993,1,0,0:0:0:0:
344,292,78181,1,0,0:0:0:0:
344,292,78368,1,0,0:0:0:0:
432,340,78556,2,0,P|444:280|456:244,1,90
508,172,78931,1,0,0:0:0:0:
356,160,79118,6,0,P|304:168|272:64,1,180,4|0,0:0|0:0,0:0:0:0:
440,52,79681,1,0,0:0:0:0:
336,348,80431,1,0,0:0:0:0:
248,304,80618,1,0,0:0:0:0:
248,304,80712,1,0,0:0:0:0:
248,304,80806,6,0,P|204:320|112:232,1,180,4|8,0:0|0:0,0:0:0:0:
160,84,81368,1,0,0:0:0:0:
200,231,81556,2,0,P|214:189|217:144,1,90,2|0,0:0|0:0,0:0:0:0:
112,242,81931,1,8,0:0:0:0:
272,288,82118,6,0,B|336:276|336:276|392:288|392:288|488:276,1,180,2|0,0:0|0:0,0:0:0:0:
408,108,82681,2,0,P|399:152|394:196,1,90,8|0,0:0|0:0,0:0:0:0:
492,212,83056,1,2,0:0:0:0:
388,328,83243,1,0,0:0:0:0:
488,360,83431,1,8,0:0:0:0:
368,228,83618,1,0,0:0:0:0:
248,360,83806,6,0,P|172:372|112:292,1,180,4|8,0:0|0:0,0:0:0:0:
184,152,84368,1,0,0:0:0:0:
184,152,84462,1,0,0:0:0:0:
184,152,84556,2,0,L|196:256,2,90,2|0|8,0:0|0:0|0:0,0:0:0:0:
256,84,85118,6,0,P|304:88|444:48,1,180,2|0,0:0|0:0,0:0:0:0:
488,136,85681,2,0,L|476:256,1,90,8|0,0:0|0:0,0:0:0:0:
368,260,86056,2,0,L|380:140,1,90,2|0,0:0|0:0,0:0:0:0:
472,332,86431,1,8,0:0:0:0:
336,376,86618,1,0,0:0:0:0:
232,276,86806,6,0,P|164:264|104:352,1,180,4|8,0:0|0:0,0:0:0:0:
248,292,87368,2,0,B|260:240|260:240|224:88,1,180,2|0,0:0|0:0,0:0:0:0:
316,132,87931,1,8,0:0:0:0:
184,248,88118,1,0,0:0:0:0:
332,320,88306,6,0,L|424:308,2,90,2|0|8,0:0|0:0|0:0,0:0:0:0:
192,356,88868,2,0,P|152:332|36:384,1,180,2|2,0:0|0:0,0:0:0:0:
96,296,89431,1,8,0:0:0:0:
40,192,89618,1,0,0:0:0:0:
127,112,89806,6,0,P|171:101|216:100,1,90,4|0,0:0|0:0,0:0:0:0:
280,176,90181,1,8,0:0:0:0:
364,224,90368,1,0,0:0:0:0:
364,224,90462,1,8,0:0:0:0:
364,224,90556,2,0,P|376:172|364:124,1,90
248,84,90931,1,8,0:0:0:0:
208,236,91118,1,8,0:0:0:0:
208,236,91212,1,8,0:0:0:0:
208,236,91306,6,0,P|196:288|208:336,1,90
304,364,91681,1,8,0:0:0:0:
400,316,91868,2,0,L|408:360,2,45
312,252,92243,1,0,0:0:0:0:
480,316,92431,1,8,0:0:0:0:
416,196,92618,1,0,0:0:0:0:
292,340,92806,6,0,B|248:356|248:356|108:328,1,180,4|8,0:0|0:0,0:0:0:0:
60,168,93368,1,0,0:0:0:0:
60,168,93556,2,0,B|104:152|104:152|244:180,1,180,4|8,0:0|0:0,0:0:0:0:
416,196,94118,6,0,P|432:128|352:52,1,180,2|0,0:0|0:0,0:0:0:0:
264,164,94681,2,0,P|258:208|255:253,1,90,8|0,0:0|0:0,0:0:0:0:
384,304,95056,1,0,0:0:0:0:
264,272,95243,1,0,0:0:0:0:
244,368,95431,1,8,0:0:0:0:
336,216,95618,1,0,0:0:0:0:
144,320,95806,6,0,P|100:328|16:232,1,180,4|8,0:0|0:0,0:0:0:0:
120,153,96368,2,0,P|122:197|108:240,1,90,2|0,0:0|0:0,0:0:0:0:
0,152,96743,2,0,P|-2:107|12:65,1,90,2|8,0:0|0:0,0:0:0:0:
204,136,97118,6,0,P|248:148|360:76,1,180,4|0,0:0|0:0,0:0:0:0:
424,168,97681,1,8,0:0:0:0:
424,168,97868,1,0,0:0:0:0:
364,256,98056,2,0,L|256:248,1,90,2|0,0:0|0:0,0:0:0:0:
444,316,98431,1,8,0:0:0:0:
308,364,98618,1,0,0:0:0:0:
184,292,98806,6,0,P|112:280|52:376,1,180,4|8,0:0|0:0,0:0:0:0:
128,236,99368,1,0,0:0:0:0:
128,236,99556,2,0,L|144:40,1,180,2|8,0:0|0:0,0:0:0:0:
280,20,100118,6,0,L|264:216,1,180,4|2,0:0|0:0,0:0:0:0:
372,300,100681,2,0,P|416:312|496:208,1,180,8|0,0:0|0:0,0:0:0:0:
498,224,101243,1,0,0:0:0:0:
392,140,101431,1,8,0:0:0:0:
308,244,101618,1,0,0:0:0:0:
308,244,101712,1,0,0:0:0:0:
308,244,101806,6,0,L|240:236,3,45,8|0|0|0,0:0|0:0|0:0|0:0,0:0:0:0:
372,300,102181,2,0,L|343:362,3,45,8|0|0|0,0:0|0:0|0:0|0:0,0:0:0:0:
416,232,102556,2,0,P|421:187|430:143,1,90,0|8,0:0|0:0,0:0:0:0:
480,48,102931,1,8,0:0:0:0:
348,108,103118,1,0,0:0:0:0:
348,108,103212,1,0,0:0:0:0:
348,108,103306,6,0,P|280:120|224:32,1,180,4|0,0:0|0:0,0:0:0:0:
180,160,103868,2,0,P|85:151|-12:148,2,180,4|4|0,0:0|0:0|0:0,0:0:0:0:
220,272,104806,6,0,P|264:265|309:259,1,90,4|0,0:0|0:0,0:0:0:0:
424,292,105181,2,0,P|436:224|448:192,1,90,8|0,0:0|0:0,0:0:0:0:
344,12,105556,2,0,P|356:101|360:196,1,180,2|8,0:0|0:0,0:0:0:0:
128,172,106118,6,0,P|172:120|288:140,1,180,2|0,0:0|0:0,0:0:0:0:
216,196,106681,2,0,L|208:300,1,90,8|0,0:0|0:0,0:0:0:0:
287,348,107056,2,0,P|332:339|377:336,1,90,2|0,0:0|0:0,0:0:0:0:
196,328,107431,2,0,P|151:336|106:339,1,90,8|0,0:0|0:0,0:0:0:0:
20,248,107806,5,2,0:0:0:0:
96,148,107993,1,0,0:0:0:0:
216,196,108181,2,0,P|268:208|340:104,2,180,8|2|8,0:0|0:0|0:0,0:0:0:0:
96,148,109118,6,0,P|104:88|212:116,1,180,2|0,0:0|0:0,0:0:0:0:
216,195,109681,2,0,P|212:240|205:285,1,90,8|0,0:0|0:0,0:0:0:0:
296,344,110056,2,0,P|340:336|385:333,1,90,2|0,0:0|0:0,0:0:0:0:
456,184,110431,2,0,P|411:191|366:194,1,90,8|0,0:0|0:0,0:0:0:0:
168,128,110806,6,0,P|204:80|336:104,1,180,4|8,0:0|0:0,0:0:0:0:
372,152,111368,1,0,0:0:0:0:
372,152,111556,2,0,L|364:256,1,90,2|0,0:0|0:0,0:0:0:0:
280,272,111931,1,8,0:0:0:0:
400,344,112118,6,0,B|336:332|336:332|288:348|288:348|200:332,1,180,2|0,0:0|0:0,0:0:0:0:
56,320,112681,1,10,0:0:0:0:
144,300,112868,1,0,0:0:0:0:
92,144,113056,2,0,L|84:252,1,90,2|0,0:0|0:0,0:0:0:0:
228,364,113431,2,0,L|236:256,1,90,10|0,0:0|0:0,0:0:0:0:
188,176,113806,6,0,P|224:136|348:160,1,180,4|8,0:0|0:0,0:0:0:0:
332,260,114368,1,0,0:0:0:0:
332,260,114462,1,8,0:0:0:0:
332,259,114556,2,0,P|376:252|421:248,1,90
432,128,114931,1,8,0:0:0:0:
360,72,115118,1,8,0:0:0:0:
360,72,115212,1,0,0:0:0:0:
360,72,115306,6,0,P|344:124|360:180,1,90,0|2,0:0|0:0,0:0:0:0:
452,272,115681,1,8,0:0:0:0:
452,272,115868,1,0,0:0:0:0:
371,344,116056,2,0,P|327:336|282:332,1,90,0|8,0:0|0:0,0:0:0:0:
184,284,116431,1,8,0:0:0:0:
184,284,116524,1,8,0:0:0:0:
184,284,116618,1,8,0:0:0:0:
184,284,116712,1,8,0:0:0:0:
184,284,116806,6,0,B|140:272|140:272|8:304,1,180,4|8,0:0|0:0,0:0:0:0:
272,332,117368,1,0,0:0:0:0:
272,332,117556,2,0,B|304:299|304:299|342:169,1,180,6|8,0:0|0:0,0:0:0:0:
440,108,118118,6,0,L|452:200,1,90,2|0,0:0|0:0,0:0:0:0:
388,284,118493,2,0,L|400:376,2,90,0|8|0,0:0|0:0|0:0,0:0:0:0:
312,224,119056,1,2,0:0:0:0:
216,204,119243,1,0,0:0:0:0:
116,216,119431,1,8,0:0:0:0:
32,268,119618,1,0,0:0:0:0:
32,268,119806,6,0,P|37:312|44:357,1,90,4|0,0:0|0:0,0:0:0:0:
128,184,120181,1,8,0:0:0:0:
128,184,120368,2,0,P|140:120|40:48,1,180,2|2,0:0|0:0,0:0:0:0:
40,144,120931,1,8,0:0:0:0:
136,276,121118,6,0,P|184:268|316:256,1,180,4|0,0:0|0:0,0:0:0:0:
404,300,121681,1,8,0:0:0:0:
404,300,121868,1,0,0:0:0:0:
472,223,122056,2,0,P|458:180|450:136,1,90,0|2,0:0|0:0,0:0:0:0:
368,80,122431,2,0,P|323:72|278:70,1,90,8|0,0:0|0:0,0:0:0:0:
204,136,122806,6,0,P|160:148|48:72,1,180,4|8,0:0|0:0,0:0:0:0:
4,168,123368,1,0,0:0:0:0:
48,256,123556,2,0,L|40:356,1,90,0|2,0:0|0:0,0:0:0:0:
196,280,123931,1,8,0:0:0:0:
140,352,124118,6,0,P|208:372|288:280,1,180,4|0,0:0|0:0,0:0:0:0:
258,120,124681,2,0,B|252:148|252:148|264:208,1,90,8|0,0:0|0:0,0:0:0:0:
360,240,125056,2,0,B|366:212|366:212|354:152,1,90,0|2,0:0|0:0,0:0:0:0:
160,180,125431,2,0,B|120:188|120:188|16:164,1,135,8|0,0:0|0:0,0:0:0:0:
16,124,125806,6,0,L|24:64,3,45
96,92,126181,2,0,L|104:32,3,45
172,136,126556,6,0,L|180:76,3,45
252,104,126931,2,0,L|260:44,3,45
312,160,127306,6,0,P|356:176|388:48,1,225,4|0,0:0|0:0,0:0:0:0:
364,40,127868,2,0,P|300:64|308:156,1,135,4|0,0:0|0:0,0:0:0:0:
312,160,128243,2,0,L|120:144,1,180,4|0,0:0|0:0,0:0:0:0:
132,145,128712,1,0,0:0:0:0:
132,145,128806,6,0,P|96:200|140:316,1,180,4|8,0:0|0:0,0:0:0:0:
204,348,129368,2,0,B|256:320|256:320|392:336,2,180
224,232,130306,6,0,B|210:230|402:253,1,180,0|8,0:0|0:0,0:0:0:0:
448,176,130868,1,0,0:0:0:0:
424,88,131056,2,0,P|364:60|236:120,1,180,0|8,0:0|0:0,0:0:0:0:
120,204,131806,6,0,P|108:112|88:24,1,180,0|8,0:0|0:0,0:0:0:0:
40,240,132368,2,0,P|84:284|204:236,1,180
228,180,132931,1,8,0:0:0:0:
228,180,133118,6,0,L|248:368,1,180
332,324,133681,1,8,0:0:0:0:
416,352,133868,2,0,P|424:284|448:160,1,180
408,92,134431,5,8,0:0:0:0:
320,80,134618,1,0,0:0:0:0:
260,148,134806,1,4,0:0:0:0:
256,192,134899,12,0,140806,0:0:0:0:
