osu file format v14

[General]
AudioFilename: Wings of Courage.mp3
AudioLeadIn: 0
PreviewTime: 79967
Countdown: 0
SampleSet: Soft
StackLeniency: 0.5
Mode: 0
LetterboxInBreaks: 0
WidescreenStoryboard: 0

[Editor]
DistanceSpacing: 1
BeatDivisor: 2
GridSize: 4
TimelineZoom: 2.899999

[Metadata]
Title:Wings of Courage -Sora o Koete-
TitleUnicode:Wings of Courage -空を超えて-
Artist:Kawada Mami
ArtistUnicode:川田まみ
Creator:Moecho
Version:sammy's Normal
Source:蒼の彼方のフォーリズム
Tags:sprite eroge galgame Ao no Kanata no Four Rhythm Shudaika opening Beyond the sky into the firmament No Dap No_Dap Kawaiwkyik wkyik sammy711
BeatmapID:661228
BeatmapSetID:279701

[Difficulty]
HPDrainRate:4
CircleSize:3
OverallDifficulty:5
ApproachRate:5
SliderMultiplier:1.1
SliderTickRate:2

[Events]
//Background and Video events
0,0,"BG.jpg",0,0
Video,0,"Wings of Courage.avi"
//Break Periods
//Storyboard Layer 0 (Background)
//Storyboard Layer 1 (Fail)
//Storyboard Layer 2 (Pass)
//Storyboard Layer 3 (Foreground)
//Storyboard Sound Samples

[TimingPoints]
5811,375,4,2,1,50,1,0
8850,375,4,2,1,50,1,0
11806,375,4,2,1,40,1,0
11806,-100,4,2,1,40,0,0
13306,-100,4,2,1,45,0,0
14806,-100,4,2,1,50,0,0
16118,-100,4,2,1,25,0,0
16306,-100,4,2,1,30,0,0
16681,-100,4,2,1,20,0,0
17056,-100,4,2,1,30,0,0
17806,-100,4,2,2,50,0,0
17899,-100,4,2,1,50,0,0
23806,-100,4,2,2,40,0,0
23899,-100,4,2,1,50,0,0
29806,-100,4,2,2,40,0,0
30181,-100,4,2,1,50,0,0
35806,-100,4,2,2,40,0,0
35899,-100,4,2,1,50,0,0
38618,-100,4,2,2,40,0,0
38993,-100,4,2,1,50,0,0
40493,-100,4,2,1,20,0,0
40587,-100,4,2,1,35,0,0
41431,-100,4,2,0,75,0,0
41806,-100,4,2,1,40,0,0
47806,-100,4,2,1,50,0,0
53806,-100,4,2,1,40,0,0
59806,-100,4,2,1,50,0,0
64493,-100,4,2,1,40,0,0
65806,-100,4,2,1,45,0,0
65899,-100,4,2,1,30,0,0
71806,-100,4,2,1,35,0,0
72556,-100,4,2,1,45,0,0
76306,-100,4,2,1,40,0,0
79118,-100,4,2,1,50,0,0
80806,-100,4,2,2,70,0,1
80899,-100,4,2,1,70,0,1
95806,-100,4,2,1,50,0,1
96181,-100,4,2,1,70,0,1
97118,-100,4,2,1,50,0,1
97212,-100,4,2,1,70,0,1
98806,-100,4,2,1,50,0,1
99181,-100,4,2,1,70,0,1
101806,-100,4,2,2,70,0,1
103306,-100,4,2,1,70,0,1
104806,-100,4,2,2,60,0,0
104993,-100,4,2,1,60,0,0
116806,-100,4,2,1,60,0,1
122806,-100,4,2,2,40,0,1
123181,-100,4,2,1,60,0,1
125431,-100,4,2,1,50,0,1
125806,-100,4,2,2,50,0,1
127306,-100,4,2,1,50,0,0
128806,-100,4,2,1,40,0,0
131056,-100,4,2,1,25,0,0
134806,-100,4,2,2,40,0,0
136306,-100,4,2,1,30,0,0
137806,-100,4,2,1,20,0,0
139306,-100,4,2,1,10,0,0
140806,-100,4,2,1,5,0,0

[Colours]
Combo1 : 200,200,140
Combo2 : 235,200,160
Combo3 : 170,125,190
Combo4 : 165,230,240

[HitObjects]
182,213,5811,6,0,B|273:195|296:107|296:107|420:169|389:287,1,385,2|0,0:1|0:0,0:0:0:0:
330,213,8850,6,0,B|239:195|216:107|216:107|92:169|123:287,1,385,2|0,0:1|0:0,0:0:0:0:
87,149,11806,6,0,L|221:121,1,110,2|2,0:3|0:3,0:0:0:0:
264,40,12556,2,0,L|372:121,1,110,2|2,0:3|0:3,0:0:0:0:
374,213,13306,2,0,B|334:227|334:227|294:210|226:219,2,110,2|2|2,0:3|0:3|0:3,0:0:0:0:
464,150,14431,1,2,0:3:0:0:
436,43,14806,5,2,0:3:0:0:
327,27,15181,2,0,L|252:58,1,55,2|2,0:3|0:3,0:0:0:0:
215,139,15743,1,2,0:3:0:0:
319,172,16118,2,0,L|299:273,1,55,2|10,0:0|0:0,0:0:0:0:
200,251,16681,1,8,0:0:0:0:
113,183,17056,1,8,0:0:0:0:
127,73,17431,1,8,0:0:0:0:
216,138,17806,6,0,P|274:163|338:173,1,110,6|10,0:0|0:0,0:0:0:0:
397,249,18556,2,0,P|402:302|429:376,1,110,0|8,0:0|0:0,0:0:0:0:
313,325,19306,1,0,0:0:0:0:
210,364,19681,1,10,0:0:0:0:
119,305,20056,2,0,P|128:242|116:156,1,110,2|10,0:0|0:0,0:0:0:0:
83,94,20806,5,2,0:1:0:0:
189,66,21181,1,10,0:0:0:0:
253,155,21556,1,0,0:0:0:0:
358,123,21931,1,8,0:0:0:0:
465,140,22306,2,0,P|497:185|504:239,1,110,0|10,0:0|0:0,0:0:0:0:
395,227,23056,2,0,P|389:281|359:326,1,110,2|10,0:0|0:0,0:0:0:0:
250,315,23806,6,0,L|140:326,1,110,6|10,0:0|0:0,0:0:0:0:
130,217,24556,2,0,L|20:228,1,110,0|8,0:0|0:0,0:0:0:0:
45,121,25306,1,0,0:0:0:0:
134,56,25681,1,8,0:0:0:0:
213,133,26056,2,0,P|256:164|311:166,1,110,2|10,0:0|0:0,0:0:0:0:
421,155,26806,6,0,L|483:132,2,55,2|2|8,0:1|0:0|0:0,0:0:0:0:
372,254,27556,2,0,L|423:273,2,55,0|2|8,0:0|0:0|0:0,0:0:0:0:
266,287,28306,2,0,P|188:359|84:337,2,220,0|2|6,0:0|0:1|0:0,0:0:0:0:
277,178,30181,5,10,0:0:0:0:
171,146,30556,2,0,L|63:121,1,110,0|8,0:0|0:0,0:0:0:0:
75,231,31306,2,0,B|110:277|122:332|122:332|185:333|228:359,1,220,0|2,0:0|0:0,0:0:0:0:
320,300,32431,1,10,0:0:0:0:
305,190,32806,6,0,L|189:238,1,110,2|10,0:1|0:0,0:0:0:0:
173,125,33556,2,0,L|150:17,1,110,0|8,0:0|0:0,0:0:0:0:
59,78,34306,2,0,B|71:140|71:140|38:194|54:232,1,110,0|10,0:0|0:0,0:0:0:0:
56,292,35056,2,0,B|118:280|118:280|172:312|210:297,1,110,2|10,0:0|0:0,0:0:0:0:
265,333,35806,6,0,P|337:338|423:313,1,110,6|10,0:0|0:0,0:0:0:0:
456,259,36556,1,0,0:0:0:0:
399,164,36931,1,8,0:0:0:0:
305,221,37306,2,0,B|277:212|242:217|242:217|165:181,1,110,0|8,0:0|0:0,0:0:0:0:
155,96,38056,1,0,0:0:0:0:
259,60,38431,2,0,L|283:148,1,55,10|14,0:0|0:0,0:0:0:0:
304,220,38993,6,0,L|279:312,1,55,0|8,0:0|0:0,0:0:0:0:
200,338,39556,2,0,L|122:358,2,55,0|0|8,0:0|0:0|0:0,0:0:0:0:
58,253,40493,2,0,P|57:181|37:70,1,165,0|4,0:0|0:3,0:0:0:0:
144,48,41431,1,8,0:1:0:0:
245,92,41806,6,0,P|299:102|373:83,1,110
444,152,42556,1,0,0:0:0:0:
348,206,42931,1,0,0:0:0:0:
439,264,43306,2,0,P|451:318|438:370,1,110
342,317,44056,2,0,P|269:311|203:323,1,110,2|2,0:1|0:2,0:0:0:0:
179,333,44618,6,0,P|102:358|26:330,1,165
8,222,45556,1,0,0:0:0:0:
101,163,45931,1,0,0:0:0:0:
109,53,46306,2,0,P|158:70|255:69,1,110,0|2,0:0|0:0,0:0:0:0:
274,163,47056,2,0,P|269:240|291:304,1,110
195,336,47806,6,0,L|126:354,2,55,6|2|10,0:0|0:0|0:0,0:0:0:0:
277,270,48556,2,0,L|257:207,1,55
272,163,48931,2,0,L|252:100,1,55,8|0,0:0|0:0,0:0:0:0:
362,85,49493,2,0,L|342:22,2,55,0|8|0,0:0|0:0|0:0,0:0:0:0:
470,67,50243,2,0,L|484:119,1,55,2|10,0:0|0:0,0:0:0:0:
473,229,50806,6,0,P|418:234|363:231,1,110,6|10,0:0|0:0,0:0:0:0:
369,341,51556,2,0,P|313:340|244:355,1,110,2|10,0:0|0:0,0:0:0:0:
270,295,52118,2,0,B|276:249|262:196|262:196|302:135,1,165,2|10,0:0|0:0,0:0:0:0:
291,86,52868,2,0,P|229:77|137:99,1,110,2|2,0:0|0:0,0:0:0:0:
147,124,53431,2,0,P|115:132|84:134,1,55,10|0,0:0|0:0,0:0:0:0:
76,186,53806,6,0,B|101:218|101:218|96:243|111:285,1,110,4|0,0:0|0:0,0:0:0:0:
221,284,54556,1,0,0:0:0:0:
246,177,54931,1,2,0:0:0:0:
279,72,55306,2,0,L|395:102,1,110
367,208,56056,2,0,L|490:183,1,110,2|2,0:1|0:0,0:0:0:0:
464,295,56806,6,0,B|386:313|386:313|333:303|333:303|234:325,2,220
462,185,58681,1,2,0:0:0:0:
458,75,59056,2,0,B|380:93|380:93|327:83|327:83|228:105,1,220,0|6,0:0|0:0,0:0:0:0:
133,116,60181,5,10,0:0:0:0:
176,219,60556,2,0,L|161:387,1,165,2|2,0:0|0:0,0:0:0:0:
271,377,61493,2,0,L|282:251,1,110,2|2,0:0|0:0,0:0:0:0:
290,157,62243,2,0,L|225:112,1,55,2|10,0:0|0:0,0:0:0:0:
149,69,62806,6,0,L|95:90,2,55
149,179,63556,2,0,L|122:253,1,55
166,272,63931,2,0,L|177:348,1,55
283,328,64493,2,0,P|343:311|415:301,1,110,2|2,0:0|0:0,0:0:0:0:
421,256,65056,2,0,P|438:205|430:151,1,110
328,195,65806,6,0,P|228:211|96:190,1,220,6|0,0:0|0:0,0:0:0:0:
54,289,66931,1,0,0:0:0:0:
132,370,67306,2,0,P|182:356|287:351,1,110,0|2,0:0|0:0,0:0:0:0:
342,310,68056,2,0,P|393:316|492:353,1,110,0|4,0:0|0:0,0:0:0:0:
471,225,68806,6,0,B|479:160|451:89|451:89|393:188|335:185|292:202,1,330,2|0,0:0|0:0,0:0:0:0:
191,192,70306,1,2,0:0:0:0:
95,137,70681,1,2,0:0:0:0:
64,242,71056,2,0,P|38:295|-7:343,1,110,2|2,0:0|0:0,0:0:0:0:
109,369,71806,5,4,0:0:0:0:
320,309,72556,1,0,0:0:0:0:
277,207,72931,1,8,0:0:0:0:
383,180,73306,2,0,P|438:159|489:116,1,110,0|2,0:0|0:0,0:0:0:0:
471,17,74056,2,0,P|419:36|375:70,1,110,2|10,0:0|0:0,0:0:0:0:
271,33,74806,6,0,B|253:98|293:142|293:142|251:186|249:233,1,220,4|0,0:0|0:0,0:0:0:0:
182,321,75931,1,8,0:0:0:0:
86,268,76306,2,0,P|39:276|-12:297,2,82.5,2|0|0,3:2|0:0|0:0,0:0:0:0:
107,217,77056,2,0,P|111:162|129:110,1,110,2|8,3:2|0:3,0:0:0:0:
239,101,77806,6,0,P|307:109|406:80,1,165,2|0,0:0|0:0,0:0:0:0:
447,182,78743,1,0,0:0:0:0:
342,214,79118,2,0,P|348:256|342:348,1,110,2|2,0:0|0:0,0:0:0:0:
339,378,79681,1,2,0:0:0:0:
339,378,80806,6,0,B|269:344|251:265|251:265|171:245|79:342,1,330,6|10,0:0|0:0,0:0:0:0:
7,258,82306,1,0,0:0:0:0:
2,148,82681,1,8,0:0:0:0:
110,150,83056,2,0,P|165:157|220:154,1,110,2|8,0:0|0:0,0:0:0:0:
297,75,83806,6,0,P|327:177|259:257,1,220,2|2,0:1|0:0,0:0:0:0:
308,357,84931,1,10,0:0:0:0:
197,359,85306,2,0,P|159:321|142:269,1,110,2|8,0:1|0:0,0:0:0:0:
254,263,86056,6,0,B|311:228|320:179|320:179|363:208|425:183,1,220,2|2,0:0|0:1,0:0:0:0:
373,86,87181,1,8,0:0:0:0:
263,93,87556,2,0,L|154:112,1,110,0|10,0:0|0:0,0:0:0:0:
66,179,88306,2,0,P|68:234|59:289,2,110,2|8|0,0:0|0:0|0:0,0:0:0:0:
55,70,89431,1,10,0:0:0:0:
155,113,89806,6,0,L|264:94,1,110,2|8,0:1|0:0,0:0:0:0:
248,203,90556,2,0,L|356:183,1,110,2|8,0:0|0:0,0:0:0:0:
343,292,91306,2,0,B|207:318|207:318|140:393,1,220,2|2,0:1|0:2,0:0:0:0:
53,333,92431,1,8,0:0:0:0:
123,248,92806,6,0,P|113:163|101:120,1,110,2|8,0:1|0:0,0:0:0:0:
154,40,93556,1,2,0:0:0:0:
263,54,93931,1,10,0:0:0:0:
334,136,94306,2,0,P|286:159|231:159,1,110,0|8,0:0|0:0,0:0:0:0:
272,262,95056,2,0,B|275:303|275:303|256:338|263:380,1,110,2|10,0:0|0:0,0:0:0:0:
154,349,95806,5,6,0:0:0:0:
134,240,96181,2,0,L|51:216,1,55,8|2,0:0|0:0,0:0:0:0:
11,139,96743,1,2,0:0:0:0:
119,121,97118,2,0,L|171:136,1,55,6|0,0:0|0:0,0:0:0:0:
279,162,97681,1,8,0:0:0:0:
342,252,98056,2,0,P|287:259|234:275,1,110,0|8,0:0|0:0,0:0:0:0:
151,203,98806,5,6,0:0:0:0:
46,169,99181,1,8,0:0:0:0:
46,59,99556,1,0,0:0:0:0:
151,25,99931,1,10,0:0:0:0:
215,114,100306,2,0,P|272:127|391:128,1,110,0|10,0:0|0:0,0:0:0:0:
328,241,101056,2,0,P|273:247|220:260,1,110,2|10,0:0|0:0,0:0:0:0:
142,338,101806,6,0,B|83:346|41:374|41:374|1:320|4:272|4:272|78:253|104:227,1,330,10|10,0:0|0:0,0:0:0:0:
77,119,103306,2,0,P|153:150|232:133,1,165,2|0,0:1|0:0,0:0:0:0:
339,162,104243,2,0,B|353:116|325:71|325:71|353:38|384:38,1,165,0|6,0:0|0:0,0:0:0:0:
256,192,104993,12,2,107056,0:0:0:0:
86,37,107806,6,0,P|207:73|428:28,1,330,2|10,0:1|0:0,0:0:0:0:
446,142,109306,2,0,P|438:194|445:279,1,110,0|8,0:0|0:0,0:0:0:0:
334,282,110056,1,2,0:0:0:0:
234,242,110431,1,8,0:0:0:0:
319,173,110806,6,0,B|296:140|251:132|251:132|235:108,1,110,2|8,0:1|0:0,0:0:0:0:
145,172,111556,2,0,B|96:166|69:185|69:185|10:179,1,110,0|8,0:0|0:0,0:0:0:0:
62,291,112306,1,0,0:0:0:0:
164,331,112681,1,10,0:0:0:0:
236,247,113056,2,0,P|259:198|259:143,1,110,2|10,0:0|0:0,0:0:0:0:
305,44,113806,6,0,L|413:25,1,110,2|8,0:1|0:0,0:0:0:0:
473,118,114556,2,0,L|364:136,1,110,0|8,0:0|0:0,0:0:0:0:
409,237,115306,1,0,0:0:0:0:
325,309,115681,1,10,0:0:0:0:
235,243,116056,6,0,P|128:224|19:239,1,220,0|2,0:0|0:1,0:0:0:0:
19,128,117181,1,8,0:0:0:0:
28,18,117556,2,0,P|92:34|253:20,1,220,2|0,0:0|0:0,0:0:0:0:
249,133,118681,2,0,P|237:180|239:260,1,110,8|2,0:0|0:1,0:0:0:0:
147,306,119431,1,8,0:0:0:0:
93,209,119806,6,0,B|37:201|37:201|-26:139,1,110,2|8,0:1|0:0,0:0:0:0:
0,54,120556,2,0,B|38:16|38:16|94:8,1,110,0|8,0:0|0:0,0:0:0:0:
203,12,121306,2,0,B|258:19|258:19|322:82,1,110,0|10,0:0|0:0,0:0:0:0:
302,167,122056,2,0,B|263:204|263:204|207:212,1,110,0|10,0:0|0:0,0:0:0:0:
209,322,122806,5,6,0:0:0:0:
311,360,123181,1,8,0:0:0:0:
371,268,123556,2,0,B|409:230|409:230|465:222,1,110,0|10,0:0|0:0,0:0:0:0:
485,114,124306,1,2,0:1:0:0:
406,37,124681,1,10,0:0:0:0:
295,36,125056,2,0,B|256:73|256:73|200:81,1,110,0|8,0:0|0:0,0:0:0:0:
143,175,125806,6,0,B|110:337|256:288|256:288|401:337|368:175,1,440,10|2,0:1|0:1,0:0:0:0:
257,52,127868,1,2,0:0:0:0:
257,162,128243,1,2,0:0:0:0:
256,192,128806,12,8,131056,0:3:0:0:
256,192,131806,12,6,134806,0:0:0:0:
