osu file format v14

[General]
AudioFilename: Wings of Courage.mp3
AudioLeadIn: 0
PreviewTime: 79967
Countdown: 0
SampleSet: Soft
StackLeniency: 0.5
Mode: 0
LetterboxInBreaks: 0
WidescreenStoryboard: 0

[Editor]
Bookmarks: 14056,22024,72931
DistanceSpacing: 0.8
BeatDivisor: 4
GridSize: 4
TimelineZoom: 1.9

[Metadata]
Title:Wings of Courage -Sora o Koete-
TitleUnicode:Wings of Courage -空を超えて-
Artist:Kawada Mami
ArtistUnicode:川田まみ
Creator:Moecho
Version:No Dap's Hard
Source:蒼の彼方のフォーリズム
Tags:sprite eroge galgame Ao no Kanata no Four Rhythm Shudaika opening Beyond the sky into the firmament No Dap No_Dap Kawaiwkyik wkyik sammy711
BeatmapID:649869
BeatmapSetID:279701

[Difficulty]
HPDrainRate:6
CircleSize:4
OverallDifficulty:6
ApproachRate:7.3
SliderMultiplier:1.41
SliderTickRate:2

[Events]
//Background and Video events
0,0,"BG.jpg",0,0
Video,0,"Wings of Courage.avi"
//Break Periods
//Storyboard Layer 0 (Background)
//Storyboard Layer 1 (Fail)
//Storyboard Layer 2 (Pass)
//Storyboard Layer 3 (Foreground)
//Storyboard Sound Samples

[TimingPoints]
5811,375,4,2,49,30,1,0
5811,-166.666666666667,4,2,49,30,0,0
8850,375,4,2,49,30,1,0
8850,-166.666666666667,4,2,49,30,0,0
11806,375,4,2,50,45,1,0
11806,-125,4,2,50,45,0,0
17806,-100,4,2,50,50,0,0
27181,-100,4,2,52,40,0,0
27556,-100,4,2,50,50,0,0
27931,-100,4,2,52,40,0,0
28306,-100,4,2,50,50,0,0
28681,-100,4,2,52,40,0,0
29056,-100,4,2,50,50,0,0
29243,-100,4,2,52,40,0,0
29431,-100,4,2,50,50,0,0
29618,-100,4,2,52,40,0,0
29806,-100,4,2,50,50,0,0
35806,-100,4,2,50,40,0,0
35993,-100,4,2,50,50,0,0
38618,-100,4,2,50,55,0,0
38712,-100,4,2,50,35,0,0
41431,-100,4,2,51,50,0,0
41806,-111.111111111111,4,2,50,45,0,0
47806,-100,4,2,50,55,0,0
53806,-111.111111111111,4,2,50,45,0,0
59806,-100,4,2,50,55,0,0
64493,-100,4,2,50,50,0,0
65431,-100,4,2,50,40,0,0
65806,-100,4,2,50,45,0,0
68431,-100,4,2,50,35,0,0
68806,-100,4,2,50,45,0,0
71806,-100,4,2,50,55,0,0
72931,-100,4,2,51,40,0,0
73118,-100,4,2,50,55,0,0
74431,-100,4,2,51,40,0,0
74618,-100,4,2,50,55,0,0
75931,-100,4,2,51,40,0,0
76118,-100,4,2,50,55,0,0
76306,-90.9090909090909,4,2,50,60,0,0
77806,-100,4,2,50,65,0,0
80806,-100,4,2,50,70,0,1
90181,-100,4,2,52,50,0,1
90556,-100,4,2,50,60,0,1
90931,-100,4,2,52,50,0,1
91306,-100,4,2,50,60,0,1
91681,-100,4,2,52,50,0,1
92056,-100,4,2,50,60,0,1
92431,-100,4,2,52,50,0,1
92806,-100,4,2,50,60,0,1
92993,-100,4,2,50,70,0,1
95806,-100,4,2,50,60,0,1
95993,-100,4,2,50,70,0,1
97118,-100,4,2,50,50,0,1
97306,-100,4,2,50,70,0,1
98806,-100,4,2,50,60,0,1
98993,-100,4,2,50,70,0,1
101806,-100,4,2,50,60,0,1
101993,-100,4,2,50,70,0,1
104806,-100,4,2,50,65,0,0
110806,-100,4,2,50,55,0,0
110993,-100,4,2,50,65,0,0
113806,-100,4,2,50,55,0,0
113993,-100,4,2,50,65,0,0
114181,-100,4,2,52,55,0,0
114556,-100,4,2,50,65,0,0
114931,-100,4,2,52,55,0,0
115306,-100,4,2,50,65,0,0
115681,-100,4,2,52,55,0,0
116056,-100,4,2,50,65,0,0
116431,-100,4,2,52,55,0,0
116806,-100,4,2,50,65,0,1
119806,-100,4,2,50,55,0,1
119993,-100,4,2,50,65,0,1
121118,-100,4,2,50,55,0,1
121306,-100,4,2,50,65,0,1
122806,-100,4,2,50,55,0,1
122993,-100,4,2,50,65,0,1
125806,-100,4,2,52,35,0,1
126181,-100,4,2,52,40,0,1
126556,-100,4,2,52,45,0,1
127306,-100,4,2,50,55,0,0

[Colours]
Combo1 : 200,200,140
Combo2 : 235,200,160
Combo3 : 170,125,190
Combo4 : 165,230,240

[HitObjects]
204,225,5811,6,0,P|132:135|121:251,1,296.099990963745,2|0,0:0|0:0,0:0:0:0:
196,328,8061,2,0,P|245:320|288:290,1,84.599997418213
307,225,8850,6,0,P|379:135|391:251,1,296.099990963745,2|0,0:0|0:0,0:0:0:0:
391,251,11475,5,0,0:0:0:0:
391,251,11806,6,0,L|317:249,1,56.4,8|0,0:1|0:0,0:0:0:0:
376,168,12181,2,0,L|313:166,1,56.4,8|0,0:1|0:0,0:0:0:0:
241,218,12556,2,0,L|235:138,1,56.4,8|0,0:1|0:0,0:0:0:0:
158,236,12931,2,0,L|148:158,1,56.4,8|0,0:1|0:0,0:0:0:0:
76,124,13306,6,0,P|63:67|120:27,2,112.8,8|8|8,0:1|0:1|0:1,0:0:0:0:
159,149,14243,1,0,0:0:0:0:
80,223,14431,2,0,P|73:265|74:297,1,56.4,8|0,0:1|0:0,0:0:0:0:
152,337,14806,6,0,B|187:329|187:329|228:341|228:341|264:335,1,112.8,8|8,0:1|0:1,0:0:0:0:
346,268,15368,1,8,0:1:0:0:
481,340,15743,1,8,0:1:0:0:
444,172,16118,1,0,0:0:0:0:
444,172,16212,1,0,0:0:0:0:
444,172,16306,6,0,B|407:154|407:154|317:175,1,112.8,8|0,0:1|0:0,0:0:0:0:
264,232,16868,1,0,0:0:0:0:
194,179,17056,2,0,P|189:144|187:111,1,56.4
101,217,17431,2,0,P|130:259|131:305,1,84.6,8|8,0:1|0:1,0:0:0:0:
118,326,17806,6,0,P|189:309|229:380,2,141,12|8|8,0:1|0:0|0:1,0:0:0:0:
50,372,18743,1,2,0:0:0:0:
27,289,18931,2,0,P|22:254|19:218,1,70.5,8|2,0:0|0:0,0:0:0:0:
67,145,19306,6,0,P|132:169|191:135,1,141,8|8,0:1|0:0,0:0:0:0:
220,222,19868,2,0,P|231:260|233:296,1,70.5,2|8,0:0|0:1,0:0:0:0:
179,364,20243,1,2,0:0:0:0:
309,310,20431,1,10,0:0:0:0:
309,309,20806,6,0,B|355:297|355:297|403:310|403:310|451:298,1,141,10|8,0:1|0:0,0:0:0:0:
490,223,21368,1,2,0:0:0:0:
431,161,21556,2,0,P|414:192|405:226,1,70.5,8|2,0:1|0:0,0:0:0:0:
445,299,21931,1,8,0:0:0:0:
330,229,22118,6,0,P|288:210|196:260,1,141,2|2,0:0|0:0,0:0:0:0:
159,327,22681,2,0,L|84:329,1,70.5,8|2,0:0|0:0,0:0:0:0:
118,235,23056,2,0,L|44:229,1,70.5,8|2,0:1|0:0,0:0:0:0:
88,135,23431,1,10,0:0:0:0:
257,110,23806,6,0,P|263:56|259:22,1,70.5,14|2,0:1|0:0,0:0:0:0:
178,67,24181,2,0,P|172:101|173:136,1,70.5,8|2,0:0|0:0,0:0:0:0:
239,195,24556,1,8,0:1:0:0:
239,195,24743,1,2,0:0:0:0:
318,163,24931,2,0,P|352:153|387:150,1,70.5,8|2,0:0|0:0,0:0:0:0:
442,238,25306,6,0,P|371:235|302:256,1,141,8|8,0:1|0:0,0:0:0:0:
231,296,25868,2,0,P|238:333|242:394,1,70.5,2|8,0:0|0:1,0:0:0:0:
320,332,26243,1,2,0:0:0:0:
156,336,26431,1,10,0:0:0:0:
156,336,26806,6,0,P|149:299|145:238,1,70.5,10|2,0:1|0:0,0:0:0:0:
187,192,27181,2,0,L|190:146,3,35.25,8|8|8|8,0:0|0:0|0:0|0:0,0:0:0:0:
163,117,27556,2,0,B|192:122|192:122|260:102,1,70.5,8|2,0:1|0:0,0:0:0:0:
310,82,27931,6,0,L|356:85,3,35.25,8|8|8|8,0:0|0:0|0:0|0:0,0:0:0:0:
385,58,28306,2,0,B|380:87|380:87|400:155,1,70.5,8|2,0:1|0:0,0:0:0:0:
443,199,28681,6,0,L|435:233,3,35.25,8|8|8|8,0:0|0:0|0:0|0:0,0:0:0:0:
443,273,29056,2,0,P|399:266|354:260,1,70.5,8|10,0:1|0:0,0:0:0:0:
293,243,29431,1,8,0:1:0:0:
210,275,29618,1,10,0:0:0:0:
210,275,29712,1,8,0:0:0:0:
210,275,29806,6,0,P|196:207|264:170,2,141,12|8|8,0:1|0:0|0:1,0:0:0:0:
269,330,30743,1,2,0:0:0:0:
339,384,30931,2,0,L|349:304,1,70.5,8|2,0:0|0:0,0:0:0:0:
340,226,31306,6,0,P|369:286|436:296,1,141,8|8,0:1|0:0,0:0:0:0:
485,234,31868,2,0,L|488:163,1,70.5,2|8,0:0|0:1,0:0:0:0:
496,74,32243,1,2,0:0:0:0:
406,164,32431,1,10,0:0:0:0:
406,164,32806,6,0,P|318:159|293:113,1,141,10|8,0:1|0:0,0:0:0:0:
319,36,33368,1,2,0:0:0:0:
236,59,33556,2,0,P|215:99|210:145,1,70.5,8|2,0:1|0:0,0:0:0:0:
261,209,33931,1,8,0:0:0:0:
261,209,34118,6,0,B|190:223|190:180|122:197,1,141,2|2,0:0|0:0,0:0:0:0:
53,257,34681,2,0,L|35:189,1,70.5,8|2,0:0|0:0,0:0:0:0:
131,284,35056,2,0,L|148:351,1,70.5,8|2,0:1|0:0,0:0:0:0:
29,348,35431,1,10,0:0:0:0:
116,205,35806,6,0,P|120:157|115:112,1,70.5,12|2,0:1|0:0,0:0:0:0:
207,178,36181,2,0,P|203:226|208:271,1,70.5,8|2,0:0|0:0,0:0:0:0:
280,274,36556,1,8,0:1:0:0:
283,356,36743,2,0,P|318:347|358:342,1,70.5,2|8,0:0|0:0,0:0:0:0:
441,362,37118,6,0,B|379:329|396:261|396:261|421:235,1,141,2|2,0:0|0:0,0:0:0:0:
482,208,37681,1,8,0:0:0:0:
378,158,37868,2,0,B|338:162|314:141|314:141|275:151|244:129,1,141,2|2,0:0|0:0,0:0:0:0:
289,57,38431,1,10,0:0:0:0:
267,224,38618,1,12,0:0:0:0:
256,192,38712,12,8,41431,0:0:0:0:
189,268,41806,6,0,P|184:204|175:130,1,126.899996127319,12|8,0:1|0:1,0:0:0:0:
160,62,42368,1,0,0:0:0:0:
95,129,42556,2,0,P|82:158|75:189,1,63.4499980636597,8|0,0:1|0:0,0:0:0:0:
98,273,42931,2,0,P|66:266|35:263,1,63.4499980636597,8|0,0:1|0:0,0:0:0:0:
70,354,43306,6,0,P|101:360|132:363,1,63.4499980636597,8|0,0:1|0:0,0:0:0:0:
203,319,43681,1,8,0:1:0:0:
280,354,43868,1,0,0:0:0:0:
339,289,44056,2,0,L|341:209,1,63.4499980636597,10|2,0:1|0:0,0:0:0:0:
264,186,44431,2,0,L|253:250,1,63.4499980636597,10|10,0:1|0:1,0:0:0:0:
203,318,44806,6,0,P|141:318|98:273,2,126.899996127319,8|10|8,0:1|0:1|0:1,0:0:0:0:
254,249,45743,1,0,0:0:0:0:
198,189,45931,2,0,P|191:126|191:113,1,63.4499980636597,8|0,0:1|0:0,0:0:0:0:
250,74,46306,6,0,B|294:56|294:56|326:73|371:66,1,126.899996127319,8|8,0:1|0:1,0:0:0:0:
457,76,46868,2,0,B|454:107|439:123|439:123|461:155|457:195,1,126.899996127319,2|10,0:0|0:1,0:0:0:0:
433,280,47431,2,0,P|395:254|372:214,1,63.4499980636597,10|10,0:1|0:1,0:0:0:0:
333,167,47806,6,0,B|287:165|287:165|237:190|237:190|198:189,1,141,8|8,0:0|0:0,0:0:0:0:
66,235,48556,1,8,0:0:0:0:
66,235,48743,1,8,0:0:0:0:
146,275,48931,2,0,P|157:309|165:343,1,70.5,8|8,0:0|0:0,0:0:0:0:
298,309,49493,2,0,P|340:306|376:301,1,70.5,8|8,0:0|0:0,0:0:0:0:
421,217,49868,2,0,P|344:222|278:220,1,141,8|8,0:0|0:0,0:0:0:0:
186,153,50431,1,8,0:0:0:0:
186,153,50806,6,0,B|141:146|141:146|111:99|130:47,1,141,12|8,0:0|0:0,0:0:0:0:
291,59,51556,1,8,0:0:0:0:
291,59,51743,1,8,0:0:0:0:
325,140,51931,2,0,P|361:136|395:130,1,70.5,8|8,0:0|0:0,0:0:0:0:
343,270,52493,2,0,P|329:318|323:354,1,70.5,8|8,0:0|0:0,0:0:0:0:
247,359,52868,2,0,P|175:345|94:338,1,141,8|8,0:0|0:0,0:0:0:0:
4,308,53431,1,8,0:0:0:0:
109,176,53806,6,0,P|94:117|36:100,2,126.899996127319,12|8|8,0:1|0:1|0:1,0:0:0:0:
169,237,54743,1,0,0:0:0:0:
169,236,54931,2,0,P|168:268|165:300,1,63.4499980636597,8|0,0:1|0:0,0:0:0:0:
264,266,55306,6,0,P|291:222|256:147,1,126.899996127319,8|8,0:1|0:1,0:0:0:0:
189,154,55868,1,0,0:0:0:0:
169,237,56056,2,0,P|135:229|88:225,1,63.4499980636597,10|2,0:1|0:0,0:0:0:0:
31,268,56431,2,0,L|19:190,1,63.4499980636597,2|10,0:1|0:1,0:0:0:0:
89,140,56806,6,0,P|72:63|16:65,2,126.899996127319,8|10|8,0:1|0:1|0:1,0:0:0:0:
21,205,57743,1,0,0:0:0:0:
80,274,57931,2,0,L|152:261,1,63.4499980636597,8|0,0:1|0:0,0:0:0:0:
190,335,58306,6,0,P|222:299|206:204,1,126.899996127319,8|8,0:1|0:1,0:0:0:0:
159,168,58868,2,0,L|151:103,1,63.4499980636597,2|8,0:0|0:1,0:0:0:0:
249,72,59243,2,0,L|241:134,1,63.4499980636597,10|10,0:1|0:1,0:0:0:0:
331,114,59618,1,10,0:1:0:0:
407,164,59806,6,0,P|428:211|444:309,1,141,12|8,0:0|0:0,0:0:0:0:
316,353,60556,2,0,L|239:339,1,70.5,8|8,0:0|0:0,0:0:0:0:
218,258,60931,1,8,0:0:0:0:
218,258,61118,1,8,0:0:0:0:
99,340,61493,2,0,P|93:298|84:259,1,70.5,8|8,0:0|0:0,0:0:0:0:
19,213,61868,2,0,B|57:226|57:226|151:189,1,141,8|8,0:0|0:0,0:0:0:0:
216,304,62431,1,8,0:0:0:0:
344,206,62806,6,0,P|352:243|364:302,2,70.5,12|8|8,0:0|0:0|0:0,0:0:0:0:
229,90,63556,2,0,L|151:76,1,70.5,8|8,0:0|0:0,0:0:0:0:
179,176,63931,1,8,0:0:0:0:
179,176,64118,1,8,0:0:0:0:
86,345,64493,6,0,P|80:298|77:260,1,70.5,8|0,0:1|0:0,0:0:0:0:
166,299,64868,2,0,P|208:290|247:287,1,70.5,8|8,0:1|0:0,0:0:0:0:
303,350,65243,1,8,0:1:0:0:
347,276,65431,2,0,L|355:238,3,35.25,8|8|8|8,0:0|0:0|0:0|0:0,0:0:0:0:
380,210,65806,6,0,P|339:123|428:75,2,211.5,12|2|10,0:1|0:0|0:1,0:0:0:0:
471,195,67118,6,0,P|475:233|480:280,1,70.5,2|8,0:0|0:1,0:0:0:0:
424,338,67493,1,2,0:0:0:0:
351,290,67681,2,0,P|339:326|332:362,1,70.5,10|0,0:1|0:0,0:0:0:0:
263,288,68056,2,0,P|256:254|243:204,1,70.5,8|2,0:1|0:0,0:0:0:0:
224,139,68431,1,12,0:1:0:0:
109,257,68806,6,0,P|44:236|23:171,2,141,10|8|8,0:1|0:1|0:1,0:0:0:0:
193,218,69743,1,0,0:0:0:0:
286,229,69931,2,0,L|270:308,1,70.5,10|2,0:1|0:0,0:0:0:0:
193,218,70306,6,0,L|179:148,1,70.5,8|2,0:1|0:0,0:0:0:0:
280,79,70681,2,0,L|266:148,1,70.5,8|2,0:1|0:0,0:0:0:0:
196,63,71056,2,0,P|122:75|91:146,1,141,8|8,0:1|0:1,0:0:0:0:
134,204,71618,1,0,0:0:0:0:
134,204,71806,6,0,B|119:246|85:252|85:252|51:234|8:255,2,141,12|8|8,0:1|0:1|0:1,0:0:0:0:
210,160,72743,1,0,0:0:0:0:
274,217,72931,2,0,P|309:211|345:209,1,70.5,8|0,0:0|0:0,0:0:0:0:
413,266,73306,6,0,B|472:261|486:206|486:206|471:154,1,141,8|8,0:1|0:1,0:0:0:0:
446,90,73868,1,0,0:0:0:0:
371,127,74056,2,0,P|336:131|300:129,1,70.5,8|0,0:1|0:0,0:0:0:0:
226,91,74431,2,0,P|209:44|211:11,1,70.5,8|0,0:0|0:0,0:0:0:0:
158,145,74806,6,0,P|95:166|50:116,2,141,8|8|8,0:1|0:1|0:1,0:0:0:0:
226,91,75743,1,0,0:0:0:0:
311,63,75931,2,0,P|306:104|302:148,1,70.5,8|0,0:0|0:0,0:0:0:0:
257,228,76306,6,0,B|223:216|223:216|193:245|149:239,2,116.325003549957,8|8|8,0:1|0:1|0:1,0:0:0:0:
347,306,77056,2,0,B|399:301|399:301|425:269|435:218,2,116.325003549957,8|8|8,0:1|0:1|0:1,0:0:0:0:
257,228,77806,5,8,0:1:0:0:
327,154,77993,1,8,0:1:0:0:
250,89,78181,1,8,0:1:0:0:
250,89,78368,2,0,B|215:62|215:62|102:88,2,141,8|8|8,0:1|0:1|0:1,0:0:0:0:
424,175,79493,5,8,0:0:0:0:
374,303,79681,1,8,0:0:0:0:
105,184,80806,6,0,L|251:170,1,141,12|8,0:1|0:0,0:0:0:0:
329,166,81368,1,0,0:0:0:0:
382,233,81556,2,0,P|392:297|332:325,1,141,8|8,0:1|0:0,0:0:0:0:
251,319,82118,6,0,L|244:243,2,70.5,2|8|0,0:0|0:1|0:0,0:0:0:0:
173,347,82681,2,0,P|127:336|104:333,1,70.5,8|0,0:0|0:0,0:0:0:0:
26,359,83056,2,0,P|70:305|71:234,1,141,10|8,0:1|0:0,0:0:0:0:
155,223,83618,1,0,0:0:0:0:
97,149,83806,6,0,P|98:70|162:56,2,141,10|8|8,0:1|0:0|0:1,0:0:0:0:
155,223,84743,1,0,0:0:0:0:
188,130,84931,2,0,P|227:155|253:190,1,70.5,8|2,0:0|0:0,0:0:0:0:
287,259,85306,6,0,B|329:229|329:229|432:242,1,141,8|8,0:1|0:0,0:0:0:0:
496,265,85868,1,0,0:0:0:0:
467,161,86056,2,0,B|425:131|425:131|336:142,1,141,10|8,0:1|0:0,0:0:0:0:
167,228,86806,6,0,B|105:216|105:216|98:172|115:141,1,141,10|8,0:1|0:0,0:0:0:0:
178,86,87368,2,0,P|176:42|173:11,1,70.5,2|8,0:0|0:1,0:0:0:0:
91,60,87743,1,2,0:0:0:0:
30,123,87931,2,0,P|18:156|9:192,1,70.5,8|2,0:0|0:0,0:0:0:0:
58,267,88306,6,0,P|128:263|198:254,1,141,10|8,0:1|0:0,0:0:0:0:
274,308,88868,2,0,P|284:257|281:214,1,70.5,2|8,0:0|0:1,0:0:0:0:
227,170,89243,2,0,L|312:148,2,70.5,2|8|2,0:0|0:0|0:0,0:0:0:0:
143,208,89806,6,0,P|108:178|125:78,1,141,10|8,0:1|0:0,0:0:0:0:
203,76,90368,1,8,0:0:0:0:
203,76,90462,1,8,0:0:0:0:
203,76,90556,2,0,P|237:68|285:64,2,70.5,10|0|8,0:1|0:0|0:0,0:0:0:0:
121,138,91118,5,8,0:0:0:0:
121,138,91212,1,8,0:0:0:0:
121,138,91306,2,0,P|83:129|39:126,2,70.5,10|0|8,0:1|0:0|0:0,0:0:0:0:
196,207,91868,5,8,0:0:0:0:
196,207,91962,1,8,0:0:0:0:
196,207,92056,2,0,P|235:198|276:193,1,70.5,10|0,0:1|0:0,0:0:0:0:
347,193,92431,2,0,L|362:233,3,35.25,8|8|8|8,0:0|0:0|0:0|0:0,0:0:0:0:
404,286,92806,6,0,B|363:270|363:270|253:297,1,141,12|8,0:1|0:0,0:0:0:0:
206,361,93368,1,2,0:0:0:0:
146,293,93556,2,0,P|78:298|46:359,1,141,8|8,0:1|0:0,0:0:0:0:
146,293,94118,6,0,L|153:215,1,70.5,2|8,0:0|0:1,0:0:0:0:
120,143,94493,1,0,0:0:0:0:
205,154,94681,2,0,P|240:144|274:137,1,70.5,8|0,0:0|0:0,0:0:0:0:
332,198,95056,2,0,L|322:267,1,70.5,10|0,0:1|0:0,0:0:0:0:
411,147,95431,2,0,P|420:182|427:216,1,70.5,10|0,0:0|0:0,0:0:0:0:
494,295,95806,6,0,P|442:343|374:335,1,141,12|8,0:1|0:0,0:0:0:0:
323,268,96368,2,0,P|292:318|285:351,1,70.5,2|8,0:0|0:1,0:0:0:0:
412,260,96743,2,0,P|398:227|377:199,1,70.5,2|8,0:0|0:0,0:0:0:0:
291,161,97118,6,0,P|218:169|142:156,1,141,12|0,0:1|0:0,0:0:0:0:
189,84,97681,2,0,P|223:89|258:86,1,70.5,10|0,0:0|0:0,0:0:0:0:
358,107,98056,2,0,P|396:141|392:237,1,141,10|10,0:1|0:0,0:0:0:0:
329,280,98618,1,0,0:0:0:0:
329,280,98806,6,0,B|284:277|284:277|236:296|236:296|169:289,2,141,12|8|8,0:1|0:0|0:1,0:0:0:0:
407,322,99743,1,2,0:0:0:0:
477,271,99931,2,0,L|497:354,1,70.5,8|2,0:0|0:0,0:0:0:0:
401,237,100306,6,0,B|376:195|391:153|391:153|421:137|424:112,1,141,8|8,0:1|0:0,0:0:0:0:
263,174,101056,2,0,B|266:198|296:214|296:214|311:256|286:298,1,141,8|8,0:1|0:0,0:0:0:0:
206,260,101618,1,0,0:0:0:0:
130,291,101806,6,0,B|101:302|72:298|40:276|21:245|20:213|35:175|61:149|108:138|140:158|140:158|124:122|124:90|124:90|160:91|192:108|192:108|220:104|253:77|253:77|291:84|328:111,1,564,12|10,0:1|0:0,0:0:0:0:
502,198,103868,5,10,0:0:0:0:
451,319,104243,2,0,B|411:306|392:271|392:271|317:241|249:315,1,211.5,10|12,0:0|0:1,0:0:0:0:
107,360,105181,6,0,P|70:295|82:218,2,141,8|8|8,0:0|0:1|0:0,0:0:0:0:
179,297,106118,1,2,0:0:0:0:
249,351,106306,6,0,P|313:341|392:336,1,141,8|8,0:1|0:0,0:0:0:0:
465,298,106868,1,0,0:0:0:0:
416,224,107056,2,0,P|405:173|410:120,1,105.75,8|8,0:1|0:1,0:0:0:0:
433,78,107431,2,0,L|338:70,1,70.5,8|0,0:0|0:0,0:0:0:0:
298,153,107806,6,0,P|253:101|184:101,2,141,8|8|8,0:1|0:0|0:1,0:0:0:0:
204,200,108743,1,0,0:0:0:0:
274,260,108931,2,0,P|281:310|284:355,1,70.5,8|2,0:0|0:0,0:0:0:0:
194,370,109306,6,0,P|139:334|137:250,1,141,8|8,0:1|0:0,0:0:0:0:
204,200,109868,1,0,0:0:0:0:
274,259,110056,2,0,P|326:251|378:249,1,105.75,8|8,0:1|0:1,0:0:0:0:
412,281,110431,2,0,L|429:195,1,70.5,8|0,0:0|0:0,0:0:0:0:
488,126,110806,6,0,P|442:134|346:124,1,141,12|8,0:1|0:0,0:0:0:0:
271,72,111368,1,0,0:0:0:0:
251,168,111556,2,0,P|256:208|256:250,1,70.5,8|0,0:1|0:0,0:0:0:0:
162,210,111931,2,0,P|157:170|157:128,1,70.5,8|2,0:0|0:0,0:0:0:0:
96,67,112306,6,0,P|50:68|43:163,1,141,8|10,0:1|0:0,0:0:0:0:
67,222,112868,1,0,0:0:0:0:
126,285,113056,2,0,P|195:275|265:266,1,141,10|10,0:1|0:0,0:0:0:0:
351,259,113618,1,0,0:0:0:0:
432,297,113806,6,0,P|441:341|444:371,1,70.5,12|0,0:1|0:0,0:0:0:0:
485,230,114181,2,0,P|460:181|462:119,1,105.75,8|8,0:0|0:0,0:0:0:0:
489,98,114556,2,0,P|454:92|419:87,1,70.5,8|0,0:1|0:0,0:0:0:0:
321,57,114931,6,0,B|335:107|335:107|315:184,1,105.75,8|8,0:0|0:0,0:0:0:0:
285,188,115306,2,0,L|295:276,1,70.5,8|0,0:1|0:0,0:0:0:0:
239,339,115681,6,0,B|201:313|201:313|135:324,1,105.75,8|8,0:0|0:0,0:0:0:0:
116,352,116056,2,0,L|38:344,1,70.5,8|0,0:1|0:0,0:0:0:0:
63,259,116431,2,0,L|55:219,3,35.25,8|8|8|8,0:0|0:0|0:0|0:0,0:0:0:0:
48,186,116806,6,0,P|99:176|156:98,1,141,12|8,0:1|0:0,0:0:0:0:
242,154,117368,1,0,0:0:0:0:
242,154,117556,2,0,P|310:133|387:145,1,141,8|8,0:1|0:0,0:0:0:0:
453,233,118118,6,0,P|385:254|308:242,1,141,2|0,0:0|0:0,0:0:0:0:
245,296,118681,2,0,P|257:337|260:374,1,70.5,8|0,0:0|0:0,0:0:0:0:
152,315,119056,2,0,P|156:280|166:246,1,70.5,8|0,0:1|0:0,0:0:0:0:
248,207,119431,1,8,0:0:0:0:
248,207,119618,1,0,0:0:0:0:
167,129,119806,6,0,P|92:138|10:125,1,141,12|8,0:1|0:1,0:0:0:0:
43,221,120368,2,0,P|48:256|51:292,1,70.5,10|8,0:0|0:1,0:0:0:0:
137,341,120743,2,0,P|139:305|144:270,1,70.5,10|8,0:0|0:1,0:0:0:0:
217,231,121118,1,12,0:0:0:0:
302,327,121306,6,0,B|352:353|401:325|401:325|411:288,1,141,8|8,0:1|0:0,0:0:0:0:
414,193,121868,1,0,0:0:0:0:
492,246,122056,2,0,L|505:327,1,70.5,10|2,0:1|0:0,0:0:0:0:
414,193,122431,2,0,L|425:123,1,70.5,10|0,0:0|0:0,0:0:0:0:
321,200,122806,6,0,P|277:202|238:112,2,141,12|8|8,0:1|0:0|0:1,0:0:0:0:
368,126,123743,1,0,0:0:0:0:
419,55,123931,2,0,P|447:88|465:127,1,70.5,8|2,0:0|0:0,0:0:0:0:
432,207,124306,6,0,P|409:247|464:316,1,141,8|8,0:1|0:0,0:0:0:0:
286,367,125056,2,0,P|307:303|258:258,1,141,8|8,0:1|0:0,0:0:0:0:
106,307,125806,6,0,L|90:260,3,35.25,8|8|8|8,0:0|0:0|0:0|0:0,0:0:0:0:
120,202,126181,2,0,L|116:152,3,35.25,8|8|8|8,0:0|0:0|0:0|0:0,0:0:0:0:
176,120,126556,2,0,L|185:71,3,35.25,8|8|8|8,0:0|0:0|0:0|0:0,0:0:0:0:
258,82,126931,2,0,L|279:37,3,35.25,8|8|8|8,0:0|0:0|0:0|0:0,0:0:0:0:
346,69,127306,6,0,P|413:143|362:227,1,211.5,10|10,0:0|0:0,0:0:0:0:
149,227,128243,2,0,P|98:143|165:69,1,211.5,10|12,0:0|0:0,0:0:0:0:
256,192,128899,12,12,134806,0:1:0:0:
