osu file format v14

[General]
AudioFilename: Wings of Courage.mp3
AudioLeadIn: 0
PreviewTime: 79967
Countdown: 0
SampleSet: Soft
StackLeniency: 0.5
Mode: 0
LetterboxInBreaks: 0
WidescreenStoryboard: 0

[Editor]
DistanceSpacing: 1
BeatDivisor: 4
GridSize: 32
TimelineZoom: 1.9

[Metadata]
Title:Wings of Courage -Sora o Koete-
TitleUnicode:Wings of Courage -空を超えて-
Artist:Kawada Mami
ArtistUnicode:川田まみ
Creator:Moecho
Version:Courage
Source:蒼の彼方のフォーリズム
Tags:sprite eroge galgame Ao no Kanata no Four Rhythm Shudaika opening Beyond the sky into the firmament No Dap No_Dap Kawaiwkyik wkyik sammy711
BeatmapID:633251
BeatmapSetID:279701

[Difficulty]
HPDrainRate:6.5
CircleSize:4
OverallDifficulty:8
ApproachRate:9
SliderMultiplier:1.7
SliderTickRate:2

[Events]
//Background and Video events
Video,0,"Wings of Courage.avi"
0,0,"CourageBG.jpg",0,0
//Break Periods
2,6011,8250
2,9050,11206
//Storyboard Layer 0 (Background)
//Storyboard Layer 1 (Fail)
//Storyboard Layer 2 (Pass)
//Storyboard Layer 3 (Foreground)
//Storyboard Sound Samples

[TimingPoints]
5811,375,4,2,1,50,1,0
8850,375,4,2,1,50,1,0
11806,375,4,2,1,50,1,0
11806,-100,4,2,1,40,0,0
13306,-100,4,2,1,45,0,0
14806,-100,4,2,1,50,0,0
15931,-80,4,2,1,15,0,0
16024,-80,4,2,1,20,0,0
16118,-80,4,2,1,25,0,0
16306,-80,4,2,1,30,0,0
16681,-100,4,2,1,20,0,0
16868,-100,4,2,1,30,0,0
17056,-100,4,2,1,30,0,0
17431,-80,4,2,1,30,0,0
17524,-80,4,2,1,20,0,0
17618,-80,4,2,1,30,0,0
17759,-80,4,2,1,35,0,0
17806,-100,4,2,2,50,0,0
17899,-100,4,2,1,50,0,0
23806,-100,4,2,2,40,0,0
23899,-100,4,2,1,50,0,0
29618,-100,4,2,3,50,0,0
29712,-100,4,2,1,50,0,0
29806,-100,4,2,2,40,0,0
29899,-100,4,2,1,50,0,0
35806,-100,4,2,2,40,0,0
35899,-100,4,2,1,50,0,0
38618,-100,4,2,2,40,0,0
38712,-100,4,2,1,50,0,0
40493,-80,4,2,1,20,0,0
40587,-80,4,2,1,35,0,0
40681,-100,4,2,1,50,0,0
40868,-100,4,2,2,45,0,0
41431,-100,4,2,0,35,0,0
41806,-111.111111111111,4,2,1,40,0,0
47806,-100,4,2,1,50,0,0
53431,-80,4,2,1,50,0,0
53806,-100,4,2,1,40,0,0
59806,-100,4,2,1,50,0,0
64681,-100,4,2,1,40,0,0
65618,-100,4,2,1,35,0,0
65712,-100,4,2,1,30,0,0
65806,-117.647058823529,4,2,1,45,0,0
65899,-117.647058823529,4,2,1,30,0,0
68431,-117.647058823529,4,2,1,30,0,0
68524,-117.647058823529,4,2,1,30,0,0
71806,-111.111111111111,4,2,1,35,0,0
71899,-111.111111111111,4,2,1,45,0,0
74806,-105.263157894737,4,2,1,45,0,0
76306,-100,4,2,1,40,0,0
79118,-83.3333333333333,4,2,1,50,0,0
79399,-83.3333333333333,4,2,1,20,0,0
79493,-83.3333333333333,4,2,1,35,0,0
79681,-83.3333333333333,4,2,1,45,0,0
80056,-90.9090909090909,4,2,1,50,0,0
80806,-90.9090909090909,4,2,2,70,0,1
80899,-90.9090909090909,4,2,1,70,0,1
95806,-90.9090909090909,4,2,1,50,0,1
95899,-90.9090909090909,4,2,1,70,0,1
97118,-90.9090909090909,4,2,1,50,0,1
97212,-90.9090909090909,4,2,1,70,0,1
98806,-90.9090909090909,4,2,1,50,0,1
98993,-90.9090909090909,4,2,1,70,0,1
101806,-90.9090909090909,4,2,2,70,0,1
101899,-90.9090909090909,4,2,1,70,0,1
102556,-90.9090909090909,4,2,1,70,0,1
103306,-90.9090909090909,4,2,1,70,0,1
104806,-100,4,2,2,60,0,0
104899,-100,4,2,1,60,0,0
116806,-90.9090909090909,4,2,1,60,0,1
121118,-90.9090909090909,4,2,2,40,0,1
121212,-90.9090909090909,4,2,1,60,0,1
122806,-90.9090909090909,4,2,2,40,0,1
122899,-90.9090909090909,4,2,1,60,0,1
125431,-90.9090909090909,4,2,1,50,0,1
125806,-90.9090909090909,4,2,2,50,0,1
125899,-90.9090909090909,4,2,1,35,0,1
126556,-90.9090909090909,4,2,1,30,0,1
127306,-100,4,2,1,50,0,0
128243,-125,4,2,1,50,0,0
128618,-66.6666666666667,4,2,1,50,0,0
128806,-100,4,2,1,40,0,0
129181,-100,4,2,1,50,0,0
129368,-100,4,2,1,30,0,0
129931,-100,4,2,1,40,0,0
130118,-100,4,2,1,25,0,0
134806,-100,4,2,2,40,0,0
136306,-100,4,2,1,30,0,0
137806,-100,4,2,1,20,0,0
139306,-100,4,2,1,10,0,0
140806,-100,4,2,1,5,0,0

[Colours]
Combo1 : 150,115,180
Combo2 : 205,90,110
Combo3 : 95,130,180
Combo4 : 255,200,150

[HitObjects]
314,249,5811,5,2,0:1:0:0:
314,249,8850,5,2,0:1:0:0:
314,249,11806,6,0,L|322:165,1,85,2|0,0:3|0:0,0:0:0:0:
198,135,12181,2,0,L|190:219,1,85,2|0,0:3|0:0,0:0:0:0:
391,214,12556,2,0,L|399:130,1,85,2|0,0:3|0:0,0:0:0:0:
121,170,12931,2,0,L|113:254,1,85,2|0,0:3|0:0,0:0:0:0:
268,336,13306,6,0,P|309:347|351:340,1,85,2|0,0:3|0:0,0:0:0:0:
436,126,13681,2,0,P|394:115|353:122,1,85,2|0,0:3|0:0,0:0:0:0:
190,219,14056,2,0,L|198:135,1,85,2|0,0:3|0:0,0:0:0:0:
315,271,14431,1,2,0:3:0:0:
205,371,14618,1,0,0:0:0:0:
113,254,14806,6,0,L|121:170,1,85,2|0,0:3|0:0,0:0:0:0:
133,42,15181,1,2,0:3:0:0:
236,110,15368,1,2,0:3:0:0:
236,110,15743,1,0,0:0:0:0:
353,122,15931,6,0,L|351:148,8,26.5625,2|2|2|2|2|2|2|2|0,0:3|0:3|0:3|0:3|0:3|0:3|0:3|0:3|0:0,0:0:0:0:
313,18,16493,1,0,0:0:0:0:
313,18,16587,1,0,0:0:0:0:
313,18,16681,1,2,0:3:0:0:
236,110,16868,1,0,0:0:0:0:
133,42,17056,1,2,0:3:0:0:
236,110,17243,1,2,0:3:0:0:
128,160,17431,2,0,L|127:196,7,26.5625,2|2|2|2|2|2|2|2,0:3|0:3|0:3|0:3|0:3|0:3|0:3|0:3,0:0:0:0:
116,210,17806,6,0,P|74:219|32:215,1,85,6|2,0:0|0:0,0:0:0:0:
129,312,18181,1,10,0:0:0:0:
129,312,18368,2,0,P|157:343|175:382,1,85,2|0,0:0|0:0,0:0:0:0:
219,253,18743,2,0,P|232:213|256:178,1,85,2|8,0:0|0:0,0:0:0:0:
116,210,19118,1,2,0:0:0:0:
256,178,19306,6,0,P|263:136|257:94,1,85,0|2,0:0|0:0,0:0:0:0:
133,42,19681,1,10,0:0:0:0:
336,85,19868,1,0,0:0:0:0:
256,178,20056,1,2,0:0:0:0:
336,299,20243,1,2,0:0:0:0:
133,342,20431,1,10,0:0:0:0:
133,342,20806,5,2,0:1:0:0:
336,299,20993,1,2,0:0:0:0:
222,381,21181,1,10,0:0:0:0:
133,342,21368,2,0,L|129:257,1,85,2|0,0:0|0:0,0:0:0:0:
383,257,21743,2,0,L|379:342,1,85,2|8,0:0|0:0,0:0:0:0:
256,263,22118,6,0,L|256:178,1,85,2|0,0:1|0:0,0:0:0:0:
129,257,22493,1,2,0:0:0:0:
256,178,22681,1,10,0:0:0:0:
176,85,22868,1,0,0:0:0:0:
336,85,23056,1,2,0:0:0:0:
256,178,23243,1,0,0:0:0:0:
383,257,23431,1,10,0:0:0:0:
264,186,23618,1,0,0:0:0:0:
264,186,23712,1,0,0:0:0:0:
264,186,23806,6,0,L|264:89,1,85,6|2,0:0|0:0,0:0:0:0:
419,60,24181,1,10,0:0:0:0:
419,60,24368,2,0,L|409:144,1,85,2|0,0:0|0:0,0:0:0:0:
254,270,24743,2,0,L|264:186,1,85,2|8,0:0|0:0,0:0:0:0:
336,85,25118,1,2,0:0:0:0:
410,145,25306,6,0,L|419:229,1,85,0|2,0:0|0:0,0:0:0:0:
298,354,25681,2,0,P|257:364|215:356,1,85,8|2,0:0|0:0,0:0:0:0:
94,237,26056,1,2,0:0:0:0:
147,382,26243,1,2,0:0:0:0:
254,270,26431,1,10,0:0:0:0:
254,270,26806,6,0,L|264:186,1,85,2|2,0:1|0:0,0:0:0:0:
181,43,27181,2,0,L|176:85,3,42.5,8|8|10|8,0:0|0:0|0:0|0:0,0:0:0:0:
173,110,27556,2,0,P|131:119|87:110,1,85,0|2,0:0|0:0,0:0:0:0:
44,244,27931,2,0,L|49:286,3,42.5,8|8|10|8,0:0|0:0|0:0|0:0,0:0:0:0:
52,311,28306,6,0,P|93:320|134:311,1,85,0|2,0:0|0:0,0:0:0:0:
254,270,28681,2,0,L|259:228,3,42.5,10|8|8|8,0:0|0:0|0:0|0:0,0:0:0:0:
262,203,29056,1,2,0:1:0:0:
189,51,29243,1,10,0:0:0:0:
327,128,29431,1,10,0:0:0:0:
145,227,29618,1,10,0:0:0:0:
145,227,29712,1,8,0:0:0:0:
145,227,29806,6,0,L|135:312,1,85,6|2,0:0|0:0,0:0:0:0:
73,177,30181,1,10,0:0:0:0:
217,277,30368,2,0,L|207:362,1,85,2|0,0:0|0:0,0:0:0:0:
63,262,30743,2,0,L|73:177,1,85,2|8,0:0|0:0,0:0:0:0:
135,312,31118,1,2,0:0:0:0:
225,189,31306,6,0,L|310:179,1,85,0|2,0:0|0:0,0:0:0:0:
412,315,31681,2,0,L|327:325,1,85,10|0,0:0|0:0,0:0:0:0:
145,227,32056,1,2,0:0:0:0:
207,361,32243,1,2,0:0:0:0:
309,179,32431,1,10,0:0:0:0:
309,179,32806,6,0,L|317:90,1,85,2|2,0:1|0:0,0:0:0:0:
358,249,33181,1,10,0:0:0:0:
225,189,33368,2,0,L|233:100,1,85,2|0,0:0|0:0,0:0:0:0:
400,84,33743,2,0,L|393:169,1,85,2|8,0:0|0:0,0:0:0:0:
327,325,34118,6,0,L|412:315,1,85,2|0,0:1|0:0,0:0:0:0:
256,279,34493,1,2,0:0:0:0:
393,169,34681,1,10,0:0:0:0:
232,104,34868,1,2,0:0:0:0:
393,169,35056,2,0,P|404:209|396:250,1,85,2|0,0:0|0:0,0:0:0:0:
252,361,35431,2,0,P|244:319|255:279,1,85,10|0,0:0|0:0,0:0:0:0:
271,239,35712,1,0,0:0:0:0:
271,239,35806,6,0,L|187:244,1,85,6|2,0:0|0:0,0:0:0:0:
327,325,36181,1,10,0:0:0:0:
327,325,36368,2,0,L|411:320,1,85,2|0,0:0|0:0,0:0:0:0:
477,164,36743,2,0,L|393:169,1,85,2|8,0:0|0:0,0:0:0:0:
256,239,37118,6,0,P|279:203|287:161,1,85,2|0,0:1|0:0,0:0:0:0:
149,274,37493,2,0,P|168:311|200:339,1,85,2|8,0:0|0:0,0:0:0:0:
172,162,37868,2,0,P|129:160|89:174,1,85,2|0,0:0|0:0,0:0:0:0:
256,239,38243,1,2,0:0:0:0:
200,339,38431,1,10,0:0:0:0:
256,239,38618,6,0,L|343:232,1,85,14|0,0:0|0:0,0:0:0:0:
479,353,38993,1,4,0:3:0:0:
479,353,39181,2,0,L|392:360,1,85,8|0,0:0|0:0,0:0:0:0:
256,239,39556,1,4,0:3:0:0:
323,304,39743,1,4,0:3:0:0:
390,120,39931,1,8,0:0:0:0:
390,120,40493,6,0,L|408:100,4,26.5625,0|0|0|0|8,0:0|0:0|0:0|0:0|0:0,0:0:0:0:
256,239,40868,1,4,0:3:0:0:
105,100,41056,1,4,0:3:0:0:
354,232,41243,1,4,0:3:0:0:
158,232,41431,1,8,0:1:0:0:
158,232,41806,6,0,L|81:232,1,76.4999976654053
42,348,42181,2,0,L|118:348,1,76.4999976654053
256,239,42556,1,0,0:0:0:0:
198,344,42743,1,0,0:0:0:0:
256,239,42931,2,0,P|260:201|256:162,1,76.4999976654053
243,29,43306,6,0,P|275:51|309:68,1,76.4999976654053
430,123,43681,2,0,P|393:138|362:160,1,76.4999976654053
256,239,44056,1,2,0:1:0:0:
430,123,44243,1,0,0:0:0:0:
243,29,44431,1,0,0:0:0:0:
243,29,44524,1,0,0:0:0:0:
243,29,44618,1,0,0:0:0:0:
363,158,44806,5,0,0:0:0:0:
257,162,44993,1,0,0:0:0:0:
310,69,45181,1,0,0:0:0:0:
363,158,45368,2,0,L|367:237,1,76.4999976654053
310,69,45743,1,0,0:0:0:0:
430,123,45931,2,0,L|434:202,1,76.4999976654053
435,237,46212,1,0,0:0:0:0:
435,237,46306,5,0,0:0:0:0:
333,313,46493,1,2,0:0:0:0:
479,353,46681,1,2,0:0:0:0:
332,312,46868,2,0,L|256:310,1,76.4999976654053
77,237,47243,1,2,0:2:0:0:
77,237,47337,1,0,0:0:0:0:
77,237,47431,1,0,0:0:0:0:
165,313,47618,1,2,0:0:0:0:
33,353,47806,5,6,0:0:0:0:
76,237,47993,1,2,0:0:0:0:
256,310,48181,1,10,0:0:0:0:
435,237,48368,1,0,0:0:0:0:
435,237,48462,1,0,0:0:0:0:
435,237,48556,2,0,L|431:153,1,85,2|2,0:0|0:0,0:0:0:0:
256,310,48931,1,10,0:0:0:0:
479,353,49118,1,2,0:0:0:0:
479,353,49493,5,2,0:0:0:0:
256,310,49681,1,10,0:0:0:0:
435,237,49868,2,0,L|439:153,1,85,2|0,0:0|0:0,0:0:0:0:
256,310,50243,1,2,0:0:0:0:
357,171,50431,2,0,L|361:87,1,85,10|0,0:0|0:0,0:0:0:0:
256,20,50806,5,6,0:0:0:0:
361,87,50993,1,2,0:0:0:0:
256,165,51181,1,10,0:0:0:0:
151,87,51368,1,0,0:0:0:0:
151,87,51462,1,0,0:0:0:0:
151,87,51556,2,0,L|155:171,1,85,2|2,0:0|0:0,0:0:0:0:
77,237,51930,1,10,0:0:0:0:
256,165,52118,1,2,0:0:0:0:
256,165,52493,5,2,0:0:0:0:
151,87,52681,1,10,0:0:0:0:
73,153,52868,2,0,L|77:237,1,85,2|0,0:0|0:0,0:0:0:0:
165,313,53243,1,2,0:0:0:0:
256,165,53431,6,0,B|272:126|272:126|231:106|231:106|239:67|217:37,1,159.375,10|0,0:0|0:0,0:0:0:0:
217,37,53806,5,4,0:0:0:0:
151,87,53993,2,0,P|108:89|63:85,1,85
256,165,54368,2,0,P|299:163|344:167,1,85
445,85,54743,1,0,0:0:0:0:
294,37,54931,1,0,0:0:0:0:
341,167,55118,1,0,0:0:0:0:
217,37,55306,5,0,0:0:0:0:
171,167,55493,1,0,0:0:0:0:
66,85,55681,1,0,0:0:0:0:
256,165,55868,1,0,0:0:0:0:
77,237,56056,1,2,0:1:0:0:
171,167,56243,1,0,0:0:0:0:
66,85,56431,1,0,0:0:0:0:
66,85,56524,1,0,0:0:0:0:
66,85,56618,1,0,0:0:0:0:
256,165,56806,5,0,0:0:0:0:
446,85,56993,1,0,0:0:0:0:
435,237,57181,1,0,0:0:0:0:
341,167,57368,2,0,L|335:80,1,85
256,256,57743,1,0,0:0:0:0:
171,167,57931,2,0,L|177:80,1,85
182,39,58212,1,0,0:0:0:0:
182,39,58306,5,0,0:0:0:0:
66,85,58493,1,0,0:0:0:0:
171,167,58681,2,0,L|177:254,1,85,2|0,0:0|0:0,0:0:0:0:
256,364,59056,1,0,0:0:0:0:
435,237,59243,1,2,0:0:0:0:
256,256,59431,1,0,0:0:0:0:
341,167,59618,1,2,0:0:0:0:
435,237,59806,6,0,L|441:324,1,85,6|2,0:0|0:0,0:0:0:0:
256,364,60181,1,10,0:0:0:0:
71,321,60368,1,0,0:0:0:0:
71,321,60462,1,0,0:0:0:0:
71,321,60556,2,0,L|77:237,1,85,2|2,0:0|0:0,0:0:0:0:
256,364,60931,1,10,0:0:0:0:
177,252,61118,1,2,0:0:0:0:
176,251,61493,5,2,0:0:0:0:
71,321,61681,1,10,0:0:0:0:
177,252,61868,2,0,L|183:167,1,85,2|0,0:0|0:0,0:0:0:0:
256,364,62243,1,2,0:0:0:0:
335,252,62431,2,0,L|329:167,1,85,10|0,0:0|0:0,0:0:0:0:
441,321,62806,5,6,0:0:0:0:
256,364,62993,1,2,0:0:0:0:
335,252,63181,1,10,0:0:0:0:
256,165,63368,1,0,0:0:0:0:
256,165,63462,1,0,0:0:0:0:
256,165,63556,1,2,0:0:0:0:
177,252,63743,1,2,0:0:0:0:
256,364,63931,1,10,0:0:0:0:
335,252,64118,1,2,0:0:0:0:
335,252,64493,5,2,0:0:0:0:
418,118,64681,1,8,3:2:0:0:
256,165,64868,1,10,0:0:0:0:
256,165,64962,1,8,0:0:0:0:
256,165,65056,1,2,0:0:0:0:
177,252,65243,1,0,0:0:0:0:
94,118,65431,1,10,0:0:0:0:
94,118,65524,1,8,0:0:0:0:
94,118,65618,1,8,0:0:0:0:
94,118,65712,1,8,0:0:0:0:
94,118,65806,6,0,L|92:45,1,72.2500013780594,6|2,0:0|0:0,0:0:0:0:
254,92,66181,2,0,L|256:165,1,72.2500013780594,2|2,0:0|0:0,0:0:0:0:
15,87,66556,2,0,L|13:14,1,72.2500013780594,0|2,0:0|0:0,0:0:0:0:
173,51,66931,1,0,0:0:0:0:
173,51,67118,6,0,L|175:124,1,72.2500013780594,2|0,0:0|0:0,0:0:0:0:
31,242,67493,1,2,0:0:0:0:
31,242,67681,2,0,L|29:169,2,72.2500013780594,2|0|0,0:0|0:0|0:0,0:0:0:0:
123,345,68243,1,2,0:0:0:0:
200,274,68431,2,0,L|204:201,1,72.2500013780594,4|0,0:0|0:0,0:0:0:0:
389,345,68806,5,2,0:0:0:0:
312,274,68993,1,2,0:0:0:0:
481,242,69181,2,0,L|483:169,1,72.2500013780594,2|2,0:0|0:0,0:0:0:0:
339,51,69556,2,0,L|337:124,1,72.2500013780594,0|2,0:0|0:0,0:0:0:0:
497,87,69931,1,0,0:0:0:0:
379,186,70118,1,2,0:0:0:0:
497,87,70306,6,0,L|499:14,1,72.2500013780594,2|2,0:0|0:0,0:0:0:0:
256,92,70681,2,0,L|256:165,1,72.2500013780594,2|0,0:0|0:0,0:0:0:0:
312,274,71056,1,2,0:0:0:0:
133,186,71243,1,2,0:0:0:0:
200,274,71431,1,2,0:0:0:0:
379,186,71618,1,0,0:0:0:0:
311,274,71806,6,0,P|304:311|310:348,1,76.4999976654053,4|2,0:0|0:0,0:0:0:0:
484,238,72181,1,0,0:0:0:0:
386,313,72368,1,2,0:0:0:0:
256,165,72556,2,0,L|256:86,1,76.4999976654053,0|2,0:0|0:0,0:0:0:0:
312,274,72931,1,8,0:0:0:0:
133,186,73118,1,10,0:0:0:0:
200,274,73306,6,0,P|207:311|201:348,1,76.4999976654053,0|2,0:0|0:0,0:0:0:0:
28,238,73681,1,2,0:0:0:0:
126,313,73868,1,0,0:0:0:0:
256,165,74056,2,0,L|256:88,2,76.4999976654053,2|0|10,0:0|0:0|0:0,0:0:0:0:
256,364,74618,1,8,0:0:0:0:
312,274,74806,5,4,0:0:0:0:
133,186,74993,1,2,0:0:0:0:
200,274,75181,1,0,0:0:0:0:
379,186,75368,1,2,0:0:0:0:
386,313,75556,1,0,0:0:0:0:
256,89,75743,1,2,0:0:0:0:
126,313,75931,1,8,0:0:0:0:
256,165,76118,1,2,0:0:0:0:
160,32,76306,6,0,P|118:24|76:29,1,85,2|0,0:0|0:0,0:0:0:0:
41,54,76587,1,2,0:0:0:0:
41,54,76681,1,0,0:0:0:0:
256,165,76868,1,2,0:0:0:0:
352,32,77056,2,0,P|393:24|435:29,1,85,2|0,0:0|0:0,0:0:0:0:
471,54,77337,1,2,0:0:0:0:
471,54,77431,1,0,0:0:0:0:
256,88,77618,1,2,0:0:0:0:
379,186,77806,5,2,0:0:0:0:
256,364,77993,1,0,0:0:0:0:
133,186,78181,1,2,0:0:0:0:
386,313,78368,1,0,0:0:0:0:
256,88,78556,1,10,0:0:0:0:
126,313,78743,1,0,0:0:0:0:
256,165,78931,1,10,0:0:0:0:
256,165,79118,6,0,L|256:320,1,152.999995330811,2|0,0:0|0:0,0:0:0:0:
256,364,79493,1,2,0:0:0:0:
256,88,79681,1,2,0:0:0:0:
256,88,80056,6,0,L|351:78,1,93.5000028533936
408,212,80431,2,0,L|315:221,1,93.5000028533936
256,165,80712,1,0,0:0:0:0:
256,165,80806,6,0,P|239:251|311:302,1,187.000005706787,6|8,0:0|0:0,0:0:0:0:
408,212,81368,1,0,0:0:0:0:
256,165,81556,2,0,L|247:71,1,93.5000028533936,10|2,0:0|0:0,0:0:0:0:
399,118,81931,1,10,0:0:0:0:
399,118,82118,6,0,L|408:212,1,93.5000028533936,10|0,0:0|0:0,0:0:0:0:
311,302,82493,1,0,0:0:0:0:
197,221,82681,2,0,L|104:212,1,93.5000028533936,8|0,0:0|0:0,0:0:0:0:
311,302,83056,2,0,P|328:259|328:208,1,93.5000028533936,2|0,0:0|0:0,0:0:0:0:
113,118,83431,2,0,P|96:161|96:208,1,93.5000028533936,8|0,0:0|0:0,0:0:0:0:
101,258,83712,1,0,0:0:0:0:
101,258,83806,6,0,L|5:248,1,93.5000028533936,2|0,0:1|0:0,0:0:0:0:
113,118,84181,2,0,L|206:127,1,93.5000028533936,8|0,0:0|0:0,0:0:0:0:
311,302,84556,1,10,0:0:0:0:
197,221,84743,1,2,0:0:0:0:
305,127,84931,1,10,0:0:0:0:
305,127,85118,6,0,L|398:118,1,93.5000028533936,10|0,0:1|0:0,0:0:0:0:
504,248,85493,1,0,0:0:0:0:
504,248,85681,2,0,L|411:257,1,93.5000028533936,8|0,0:0|0:0,0:0:0:0:
197,221,86056,1,2,0:0:0:0:
286,341,86243,1,2,0:0:0:0:
411,258,86431,1,10,0:0:0:0:
411,258,86806,6,0,L|421:165,1,93.5000028533936,2|0,0:1|0:0,0:0:0:0:
475,356,87181,1,8,0:0:0:0:
318,268,87368,2,0,L|328:175,1,93.5000028533936,0|0,0:0|0:0,0:0:0:0:
210,245,87743,1,2,0:0:0:0:
121,304,87931,1,10,0:0:0:0:
256,364,88118,1,2,0:0:0:0:
121,304,88306,6,0,L|110:211,1,93.5000028533936,2|0,0:0|0:0,0:0:0:0:
37,356,88681,1,8,0:0:0:0:
210,246,88868,2,0,L|199:153,1,93.5000028533936
121,304,89243,1,2,0:0:0:0:
35,187,89431,2,0,L|24:94,1,93.5000028533936,10|8,0:0|0:0,0:0:0:0:
45,52,89712,1,8,0:0:0:0:
45,51,89806,6,0,P|91:45|137:51,1,93.5000028533936,2|0,0:1|0:0,0:0:0:0:
256,131,90181,1,8,0:0:0:0:
373,51,90368,1,8,0:0:0:0:
373,51,90462,1,8,0:0:0:0:
373,51,90556,2,0,P|419:45|466:51,1,93.5000028533936,2|0,0:0|0:0,0:0:0:0:
256,131,90931,1,8,0:0:0:0:
401,211,91118,1,8,0:0:0:0:
401,211,91212,1,8,0:0:0:0:
402,211,91306,6,0,L|391:304,1,93.5000028533936,2|2,0:1|0:0,0:0:0:0:
256,364,91681,1,8,0:0:0:0:
121,304,91868,1,8,0:0:0:0:
121,304,91962,1,8,0:0:0:0:
121,304,92056,2,0,L|110:211,1,93.5000028533936,2|0,0:2|0:0,0:0:0:0:
256,131,92431,1,8,0:0:0:0:
256,131,92524,1,8,0:0:0:0:
256,131,92618,1,8,0:0:0:0:
256,131,92712,1,8,0:0:0:0:
256,131,92806,6,0,L|256:229,1,93.5000028533936,2|0,0:1|0:0,0:0:0:0:
210,43,93181,2,0,P|254:30|299:42,1,93.5000028533936,8|0,0:0|0:0,0:0:0:0:
401,211,93556,1,10,0:0:0:0:
256,131,93743,1,2,0:0:0:0:
373,49,93931,1,10,0:0:0:0:
256,224,94118,1,10,0:0:0:0:
137,50,94306,5,0,0:0:0:0:
256,131,94493,1,0,0:0:0:0:
110,211,94681,2,0,L|121:304,1,93.5000028533936,8|0,0:0|0:0,0:0:0:0:
256,224,95056,1,2,0:0:0:0:
37,356,95243,1,0,0:0:0:0:
0,192,95431,1,10,0:0:0:0:
121,304,95618,1,0,0:0:0:0:
256,224,95806,6,0,L|256:131,2,93.5000028533936,6|0|8,0:0|0:0|0:0,0:0:0:0:
210,43,96368,2,0,P|254:30|299:42,1,93.5000028533936,2|0,0:0|0:0,0:0:0:0:
302,314,96743,2,0,P|258:327|213:315,1,93.5000028533936,2|8,0:0|0:0,0:0:0:0:
256,131,97118,6,0,L|256:224,2,93.5000028533936,6|0|0,0:0|0:0|0:0,0:0:0:0:
213,315,97681,2,0,P|257:326|301:314,1,93.5000028533936,8|0,0:0|0:0,0:0:0:0:
402,211,98056,2,0,L|391:304,1,93.5000028533936
256,224,98431,1,8,0:0:0:0:
391,303,98618,1,2,0:0:0:0:
512,192,98806,5,6,0:0:0:0:
301,314,98993,1,0,0:0:0:0:
475,356,99181,2,0,L|470:257,1,93.5000028533936,8|0,0:0|0:0,0:0:0:0:
402,211,99462,1,0,0:0:0:0:
402,211,99556,1,8,0:0:0:0:
301,314,99743,1,0,0:0:0:0:
256,224,99931,2,0,L|256:131,1,93.5000028533936,10|10,0:0|0:1,0:0:0:0:
137,50,100306,6,0,L|129:146,1,93.5000028533936,0|2,0:0|0:0,0:0:0:0:
256,224,100681,1,10,0:0:0:0:
382,143,100868,1,0,0:0:0:0:
301,314,101056,2,0,P|257:326|213:315,1,93.5000028533936,10|0,0:0|0:0,0:0:0:0:
256,224,101431,1,10,0:0:0:0:
374,50,101618,1,8,0:0:0:0:
256,130,101806,5,10,0:0:0:0:
256,130,101899,1,8,0:0:0:0:
256,130,101993,2,0,L|210:139,1,46.7500014266968,8|8,0:0|0:0,0:0:0:0:
383,143,102181,2,0,L|428:133,1,46.7500014266968,8|8,0:0|0:0,0:0:0:0:
375,50,102368,1,8,0:0:0:0:
256,224,102556,1,10,0:0:0:0:
137,50,102743,1,10,0:0:0:0:
256,130,102931,1,10,0:0:0:0:
110,211,103118,1,8,0:0:0:0:
110,211,103212,1,8,0:0:0:0:
110,211,103306,5,2,0:1:0:0:
110,211,103868,1,0,0:0:0:0:
109,210,104243,2,0,P|101:255|108:301,1,93.5000028533936
256,364,104618,1,0,0:0:0:0:
403,301,104806,6,0,L|488:297,1,85,6|0,0:0|0:0,0:0:0:0:
512,192,105181,1,8,0:0:0:0:
403,301,105368,1,2,0:0:0:0:
256,224,105556,2,0,L|256:135,1,85,10|0,0:0|0:0,0:0:0:0:
211,314,105931,1,10,0:0:0:0:
341,197,106118,6,0,L|341:112,1,85,10|0,0:0|0:0,0:0:0:0:
403,301,106493,1,0,0:0:0:0:
256,224,106681,1,8,0:0:0:0:
428,132,106868,1,0,0:0:0:0:
301,314,107056,1,2,0:0:0:0:
171,197,107243,1,0,0:0:0:0:
403,301,107431,1,8,0:0:0:0:
256,224,107618,1,0,0:0:0:0:
256,224,107712,1,0,0:0:0:0:
256,224,107806,6,0,L|256:139,1,85,2|0,0:1|0:0,0:0:0:0:
428,132,108181,1,8,0:0:0:0:
301,314,108368,1,0,0:0:0:0:
171,197,108556,2,0,L|171:102,1,85,10|0,0:0|0:0,0:0:0:0:
109,301,108931,1,10,0:0:0:0:
256,224,109118,1,10,0:0:0:0:
84,132,109306,5,0,0:0:0:0:
211,314,109493,1,0,0:0:0:0:
0,192,109681,1,8,0:0:0:0:
109,301,109868,1,0,0:0:0:0:
171,197,110056,2,0,L|171:108,1,85,2|0,0:0|0:0,0:0:0:0:
341,27,110431,2,0,L|341:112,1,85,8|2,0:0|0:0,0:0:0:0:
256,224,110806,5,2,0:1:0:0:
428,132,110993,1,0,0:0:0:0:
256,20,111181,1,8,0:0:0:0:
323,186,111368,1,0,0:0:0:0:
428,132,111556,2,0,L|433:47,1,85,8|0,0:0|0:0,0:0:0:0:
323,186,111931,1,8,0:0:0:0:
256,105,112118,6,0,L|256:20,2,85,10|0|0,0:0|0:0|0:0,0:0:0:0:
189,184,112681,2,0,P|148:195|107:188,1,85,10|0,0:0|0:0,0:0:0:0:
255,278,113056,2,0,P|285:307|298:348,1,85,2|0,0:0|0:0,0:0:0:0:
322,184,113431,2,0,P|332:143|361:113,1,85,10|8,0:0|0:0,0:0:0:0:
405,184,113712,1,8,0:0:0:0:
405,184,113806,6,0,L|399:268,1,85,2|0,0:1|0:0,0:0:0:0:
189,185,114181,2,0,L|195:101,1,85,8|8,0:0|0:0,0:0:0:0:
201,58,114462,1,8,0:0:0:0:
201,58,114556,1,0,0:0:0:0:
361,113,114743,1,0,0:0:0:0:
256,279,114931,1,8,0:0:0:0:
106,154,115118,1,10,0:0:0:0:
106,154,115212,1,8,0:0:0:0:
106,154,115306,6,0,L|100:238,1,85,0|2,0:0|0:0,0:0:0:0:
45,52,115681,1,10,0:0:0:0:
52,307,115868,1,10,0:0:0:0:
52,307,115962,1,8,0:0:0:0:
52,307,116056,2,0,P|92:319|133:314,1,85
256,279,116431,1,8,0:0:0:0:
285,262,116524,1,8,0:0:0:0:
318,257,116618,1,8,0:0:0:0:
351,264,116712,1,8,0:0:0:0:
380,283,116806,6,0,L|386:189,1,93.5000028533936,2|0,0:1|0:0,0:0:0:0:
236,110,117181,2,0,L|229:205,1,93.5000028533936,8|0,0:0|0:0,0:0:0:0:
316,349,117556,1,10,0:0:0:0:
170,253,117743,1,2,0:0:0:0:
387,190,117931,1,10,0:0:0:0:
256,279,118118,1,10,0:0:0:0:
125,190,118306,5,0,0:0:0:0:
196,349,118493,1,0,0:0:0:0:
380,283,118681,2,0,L|387:188,1,93.5000028533936,8|0,0:0|0:0,0:0:0:0:
315,348,119056,2,0,P|355:372|402:373,1,93.5000028533936,2|0,0:1|0:0,0:0:0:0:
408,99,119431,2,0,P|361:100|322:124,1,93.5000028533936,8|0,0:0|0:0,0:0:0:0:
380,283,119806,6,0,L|387:188,2,93.5000028533936,2|0|8,0:1|0:0|0:0,0:0:0:0:
322,123,120368,2,0,P|361:99|408:99,1,93.5000028533936,2|0,0:0|0:0,0:0:0:0:
400,373,120743,2,0,P|354:371|315:348,1,93.5000028533936,2|8,0:0|0:0,0:0:0:0:
386,189,121118,6,0,L|380:283,2,93.5000028533936,6|0|2,0:0|0:0|0:0,0:0:0:0:
315,348,121681,1,10,0:0:0:0:
468,242,121868,1,2,0:0:0:0:
400,373,122056,2,0,P|354:371|315:348,1,93.5000028533936,0|2,0:0|0:0,0:0:0:0:
256,224,122431,1,10,0:0:0:0:
132,283,122618,1,8,0:0:0:0:
132,283,122712,1,8,0:0:0:0:
132,283,122806,6,0,L|126:189,1,93.5000028533936,6|0,0:0|0:0,0:0:0:0:
197,347,123181,2,0,P|158:370|111:372,1,93.5000028533936,8|0,0:0|0:0,0:0:0:0:
104,98,123556,2,0,P|150:98|190:123,1,93.5000028533936,8|2,0:0|0:0,0:0:0:0:
126,189,123931,1,10,0:0:0:0:
256,224,124118,1,8,0:0:0:0:
256,224,124212,1,0,0:0:0:0:
256,224,124306,6,0,L|256:124,1,93.5000028533936,2|0,0:1|0:0,0:0:0:0:
408,98,124681,1,10,0:0:0:0:
339,173,124868,1,2,0:0:0:0:
468,242,125056,1,0,0:0:0:0:
408,98,125243,1,0,0:0:0:0:
256,224,125431,1,8,0:0:0:0:
256,224,125806,6,0,L|204:231,1,46.7500014266968,10|8,0:1|0:0,0:0:0:0:
349,308,125993,2,0,L|395:301,1,46.7500014266968,8|8,0:0|0:0,0:0:0:0:
345,219,126181,2,0,L|339:173,1,46.7500014266968,8|8,0:0|0:0,0:0:0:0:
260,311,126368,2,0,L|266:357,1,46.7500014266968,10|8,0:0|0:0,0:0:0:0:
174,307,126556,1,8,0:0:0:0:
136,307,126649,1,8,0:0:0:0:
104,286,126743,1,10,0:0:0:0:
94,249,126837,1,8,0:0:0:0:
101,212,126931,2,0,L|97:151,1,46.7500014266968,10|8,0:0|0:0,0:0:0:0:
174,110,127118,2,0,L|186:162,1,46.7500014266968,10|8,0:0|0:0,0:0:0:0:
256,224,127306,5,2,0:1:0:0:
256,224,127868,1,2,0:0:0:0:
256,224,128243,2,0,P|307:264|368:243,1,136,2|0,0:0|0:0,0:0:0:0:
400,225,128665,2,0,L|443:227,3,31.8750012159348
347,384,128993,5,0,0:0:0:0:
275,335,129181,2,0,P|280:289|274:234,1,85,8|0,0:3|0:0,0:0:0:0:
256,224,129462,1,0,0:0:0:0:
256,224,129556,1,0,0:0:0:0:
369,299,129743,1,0,0:0:0:0:
473,211,129931,2,0,P|478:165|472:110,1,85,8|0,0:3|0:0,0:0:0:0:
216,43,130493,6,0,L|260:35,2,42.5,0|0|8,0:0|0:0|0:3,0:0:0:0:
116,102,130868,1,0,0:0:0:0:
116,102,130962,1,0,0:0:0:0:
116,102,131056,2,0,L|73:106,1,42.5
94,188,131243,2,0,L|55:220,1,42.5
82,303,131431,1,8,0:3:0:0:
200,351,131618,1,0,0:0:0:0:
200,351,131712,1,0,0:0:0:0:
200,351,131806,6,0,P|241:358|283:353,1,85
317,256,132181,1,8,0:3:0:0:
419,297,132368,1,0,0:0:0:0:
419,297,132462,1,0,0:0:0:0:
419,297,132556,2,0,L|461:292,1,42.5
441,211,132743,2,0,L|480:179,1,42.5
453,96,132931,1,8,0:3:0:0:
332,160,133118,1,0,0:0:0:0:
85,99,133493,6,0,L|39:101,2,42.5,0|0|8,0:0|0:0|0:3,0:0:0:0:
207,77,133868,1,0,0:0:0:0:
207,77,133962,1,0,0:0:0:0:
207,77,134056,2,0,L|258:83,1,42.5,0|0,0:0|0:0,0:0:0:0:
198,164,134243,2,0,L|155:168,1,42.5
85,99,134431,1,8,0:3:0:0:
294,286,134806,5,6,0:0:0:0:
256,192,134899,12,0,140806,0:0:0:0:
