osu file format v5

[General]
AudioFilename: Kawada-The blue sky sun.mp3
AudioLeadIn: 0
PreviewTime: -1
Countdown: 1
SampleSet: Normal
StackLeniency: 0.7
Mode: 0
LetterboxInBreaks: 1

[Metadata]
Title:The blue sky sun
Artist:Kawada Mami
Creator:KLoveSKY
Version:Exciting
Source:
Tags:

[Difficulty]
HPDrainRate:5
CircleSize:4
OverallDifficulty:5
SliderMultiplier:1.5
SliderTickRate:2

[Events]
//Background and Video events
//Break Periods
2,97804,112198
2,145641,146741
2,167343,188556
2,217794,217978
//Storyboard Layer 0 (Background)
//Storyboard Layer 1 (Failing)
//Storyboard Layer 2 (Passing)
//Storyboard Layer 3 (Foreground)
//Storyboard Sound Samples
//Background Colour Transformations
3,100,163,162,255

[TimingPoints]
15453,454.511021892281,4,1,0,100,1
31588,454.511021892281,4,2,0,100,1
61585,454.511021892281,4,1,0,100,1
93855,454.511021892281,4,2,0,100,1
97945,454.511021892281,4,2,0,100,1
127488,454.511021892281,4,1,0,100,1
147941,454.511021892281,4,1,0,100,1
189756,454.511021892281,4,2,0,100,1
202709,454.511021892281,4,1,0,100,1
219298,454.511021892281,4,2,0,100,1

[HitObjects]
96,192,15452,2,0,C|64:160|96:128|128:160|160:128,1,150
288,64,16362,1,0
384,64,16589,1,0
448,224,17043,6,0,C|448:288|416:256|416:224|384:224,1,150
224,224,17952,1,0
128,192,18180,1,0
192,128,18407,1,2
352,64,18861,6,0,C|384:96|352:128|384:128|352:160,1,150
320,320,19770,1,0
416,320,19998,1,0
368,240,20225,1,0
224,256,20679,6,0,C|160:256|192:224|224:224|224:192,1,150
384,128,21588,1,0
448,64,21816,1,0
480,160,22043,1,2
416,224,22270,1,2
352,288,22497,1,4
256,288,22725,6,0,C|192:288|224:256|160:256,1,150
64,128,23634,1,0
160,128,23861,1,0
320,96,24315,6,0,C|352:96|320:128|352:128|320:160,1,150
448,288,25224,1,0
448,192,25452,1,0
352,192,25679,1,2
192,96,26134,6,0,C|160:128|192:160|160:192|192:224|160:256,1,225
320,352,27270,1,0
384,320,27497,1,0
416,256,27724,1,2
448,192,27952,1,2
320,112,28406,5,2
272,160,28633,1,2
208,192,28861,1,4
144,224,29088,1,4
320,32,29770,5,0
192,160,30224,1,0
320,288,30679,1,0
128,288,31133,1,4
192,320,31360,1,4
256,352,31588,5,0
320,320,31815,1,0
368,272,32042,1,0
400,208,32269,1,0
368,144,32497,2,0,C|288:96,1,75
240,128,32951,1,2
96,176,33406,5,2
96,256,33633,1,0
160,288,33860,1,0
192,224,34087,1,0
224,288,34315,2,0,C|256:320|288:288,1,75
320,256,34769,1,2
448,160,35224,5,0
384,128,35451,1,0
256,192,35905,1,2
192,160,36133,2,2,C|160:192|192:224|160:256|192:288|160:320,1,225
320,320,37269,5,0
384,288,37496,1,0
256,192,37951,1,2
384,160,38405,1,2
256,96,38860,5,0
192,128,39087,1,0
160,192,39314,1,0
160,256,39541,1,0
224,288,39769,1,0
352,224,40223,5,2
416,96,40678,5,0
352,128,40905,1,0
288,160,41132,1,0
288,224,41359,1,0
320,288,41587,1,0
160,256,42041,5,2
64,160,42496,5,0
128,128,42723,2,0,C|224:128,1,75
256,160,43178,1,0
320,128,43405,2,0,C|352:160|384:128|416:160|448:128|480:160,1,225
448,224,44314,5,0
384,256,44541,1,0
256,320,44996,1,2
96,288,45450,1,2
128,224,45677,1,4
224,128,46132,5,0
288,96,46359,1,0
352,128,46586,1,0
384,192,46814,1,0
352,256,47041,1,0
224,192,47495,5,2
96,128,47950,5,0
64,192,48177,1,0
96,256,48404,1,0
160,288,48632,1,0
224,256,48859,1,0
224,128,49200,5,2
416,96,49768,5,0
416,160,49995,1,0
416,320,50450,1,0
352,288,50677,2,4,C|320:256|288:288|256:256|224:288|192:256,1,225
96,160,51813,5,0
160,192,52040,1,0
224,160,52268,1,0
256,96,52495,1,2
416,96,52950,1,0
448,160,53177,1,2
416,224,53404,5,0
352,256,53631,1,0
320,320,53859,1,0
256,288,54086,1,0
256,224,54313,1,0
128,160,54768,5,2
256,96,55222,5,0
320,64,55449,1,0
384,96,55677,1,0
384,160,55904,1,0
352,224,56131,1,0
192,224,56586,5,2
64,128,57040,5,0
128,96,57267,1,2
288,96,57722,1,0
352,64,57949,2,4,C|384:96|416:64|448:96|480:64|512:96,1,225
416,224,59085,5,0
416,224,59199,1,0
416,224,59313,1,0
352,224,59540,1,0
288,256,59767,1,0
224,224,59994,1,0
192,160,60222,5,4
288,96,60449,5,4
416,160,60676,5,4
160,320,61585,5,0
224,288,61812,1,0
352,224,62266,1,0
384,160,62494,2,2,C|384:128|352:128|352:96|320:96|320:64,1,150
160,96,63403,1,0
96,128,63630,1,0
64,192,63857,5,0
96,256,64084,1,0
160,288,64312,1,0
320,288,64766,1,0
384,256,64993,1,0
448,288,65221,1,0
384,320,65448,2,0,C|288:288,1,75
256,256,65902,1,4
224,192,66130,1,4
352,128,66584,5,0
416,256,67039,1,0
352,288,67266,1,2
288,288,67493,5,0
224,288,67720,1,0
160,256,67948,1,2
96,128,68402,1,0
224,32,68857,5,0
288,64,69084,1,0
320,128,69311,1,2
288,192,69538,1,0
224,224,69766,2,0,C|192:192|224:160|192:128|224:96,1,150
320,64,70675,1,0
384,192,71129,5,0
352,256,71356,1,0
288,288,71584,1,2
128,256,72038,1,0
128,192,72266,1,0
192,160,72493,1,0
256,160,72720,1,2
416,160,73175,1,0
480,192,73402,2,4,C|448:224|448:256|416:256|416:224|384:224,1,150
256,224,74311,1,0
96,224,74765,5,0
96,160,74993,1,0
160,128,75220,1,2
288,64,75674,1,0
352,96,75902,1,0
384,160,76129,1,2
320,288,76583,1,4
160,288,77038,1,4
288,224,77492,5,4
128,224,77947,1,4
256,192,78401,12,4,78856
128,128,79310,5,0
192,96,79538,1,0
256,112,79765,1,8
384,192,80219,1,8
256,288,80674,1,2
160,192,81128,1,0
192,128,81356,1,0
256,96,81583,1,4
416,96,82037,6,0,C|416:192,2,75
320,224,82947,2,0,C|320:320,2,75
192,288,83856,2,2,C|192:192,2,75
256,160,84765,1,2
320,128,84992,1,2
384,160,85219,2,4,C|416:192|384:224|416:256|384:288,1,150
256,288,86128,5,0
192,256,86355,1,0
128,224,86583,1,0
192,192,86810,1,0
256,224,87037,1,0
256,160,87264,1,2
320,160,87492,5,2
384,288,87946,5,0
320,320,88173,1,0
256,352,88401,1,0
256,288,88628,1,0
320,256,88855,1,0
288,128,89310,5,2
224,160,89537,1,2
192,224,89764,1,2
320,256,90219,1,2
384,224,90446,1,2
416,160,90673,1,2
384,96,90900,1,2
320,128,91128,1,2
256,96,91355,1,2
224,160,91582,1,0
224,160,91696,1,0
224,160,91809,1,4
256,224,92037,1,0
320,256,92264,5,4
288,320,92491,5,4
352,320,92719,5,4
320,256,92946,5,4
320,192,93173,5,4
320,128,93400,5,4
160,128,93855,5,0
128,192,94082,1,0
160,256,94309,1,0
224,288,94536,1,2
288,256,94764,1,2
320,192,94991,1,2
288,128,95218,2,2,C|256:160|224:128|192:160|160:128|160:96,1,187.5
256,64,96127,5,0
320,64,96354,1,0
352,128,96582,1,0
320,192,96809,1,0
256,192,97036,1,0
224,128,97263,1,0
288,128,97491,5,4
288,128,97604,5,4
288,128,97718,5,4
384,64,113398,5,0
416,128,113625,1,0
384,192,113852,1,0
320,224,114080,1,0
256,192,114307,1,0
160,64,114761,5,2
64,192,115216,5,0
96,256,115443,1,0
128,192,115670,1,0
160,256,115898,1,0
192,192,116125,1,0
352,192,116579,5,2
384,64,117034,5,0
352,128,117261,1,0
384,256,117716,1,0
352,320,117943,2,0,C|320:288|288:320|256:288|224:320|192:288,1,225
160,224,118852,5,0
224,192,119079,1,0
352,224,119534,1,0
416,192,119761,1,0
416,128,119988,1,0
352,96,120216,5,0
288,128,120443,1,0
224,96,120670,1,0
160,128,120897,5,0
128,192,121125,1,0
160,256,121352,1,0
224,288,121579,1,0
320,160,122034,5,2
416,64,122488,5,0
448,128,122715,1,0
416,192,122943,1,0
352,224,123170,1,0
288,192,123397,1,4
224,64,123852,5,2
96,128,124306,5,0
64,192,124533,1,0
160,288,124988,1,0
224,256,125215,2,2,C|256:288|288:256|352:288|384:256|384:224,1,225
416,96,126351,5,0
352,160,126579,1,0
288,96,126806,1,0
224,160,127033,1,0
96,96,127488,5,4
128,160,127715,5,4
160,224,127942,5,4
448,288,128851,5,0
416,224,129078,1,0
288,160,129533,1,0
224,192,129760,2,0,C|64:192,1,150
192,288,130669,1,0
320,256,131124,5,0
352,192,131351,1,0
320,128,131578,1,0
160,96,132033,1,0
96,128,132260,1,0
64,192,132487,1,0
96,256,132714,1,2
224,320,133169,1,4
288,320,133396,2,2,C|320:288|352:320|384:288|416:320|448:288,1,225
448,64,134760,5,0
416,128,134987,1,0
416,192,135214,1,0
128,288,136123,1,0
192,256,136350,1,0
192,192,136578,1,0
256,160,136805,1,0
256,96,137032,2,0,C|288:64|320:96|352:64|384:96|416:64,1,225
416,288,138396,5,0
352,256,138623,1,0
320,192,138850,1,2
192,256,139305,1,0
256,224,139532,1,0
256,160,139759,1,0
192,128,139987,1,0
128,160,140214,1,2
128,224,140441,1,2
192,256,140668,2,2,C|192:320|224:320|192:352|192:384,1,150
416,192,142032,5,0
384,128,142259,1,0
352,192,142486,1,0
192,192,142941,1,0
128,160,143168,1,0
128,224,143395,1,0
256,288,143850,5,4
256,128,144304,2,4,C|224:96|224:128|256:160|288:128|288:96|320:96|352:128|352:96,1,300
416,96,147940,5,4
416,160,148168,1,4
384,224,148395,1,2
320,256,148622,1,2
256,224,148850,1,2
224,96,149304,5,0
192,224,149759,1,2
320,320,150213,1,0
384,288,150440,1,0
416,224,150668,1,4
352,96,151122,5,0
288,64,151349,1,0
224,96,151577,1,0
224,256,152031,1,0
288,224,152258,1,2
352,256,152486,1,2
416,128,152940,5,0
352,96,153167,1,2
288,128,153395,1,2
128,128,153849,1,0
96,192,154076,1,0
128,256,154304,1,4
256,320,154758,1,4
384,256,155213,5,0
416,192,155440,1,0
384,128,155667,1,0
320,96,155894,1,0
256,128,156122,1,0
224,192,156349,1,0
224,256,156576,1,2
96,320,157031,1,0
160,288,157258,1,0
224,256,157485,1,0
288,288,157712,1,2
352,256,157940,1,2
416,128,158394,5,0
352,96,158622,1,0
288,128,158849,1,2
192,224,159303,1,0
256,192,159531,1,0
320,224,159758,1,0
384,192,159985,1,0
448,224,160212,1,2
384,256,160440,1,2
320,224,160667,2,2,C|288:256|256:224|224:256|192:224|192:192,1,187.5
160,128,161576,6,0,C|192:96,2,37.5
224,128,162030,2,0,C|256:96,2,37.5
256,192,162485,1,0
128,96,162939,5,0
96,160,163167,1,0
128,224,163394,1,0
192,256,163621,1,0
256,224,163848,1,0
288,160,164076,1,0
256,96,164303,2,2,C|224:128|192:96|160:128|128:96|128:64,1,187.5
96,192,165212,5,0
160,224,165439,1,0
224,192,165666,1,0
288,224,165894,1,0
352,192,166121,1,0
352,352,166575,5,0
352,352,166689,1,0
352,352,166803,1,4
288,320,167030,1,2
288,256,167257,1,2
96,224,189756,5,0
160,192,189983,1,0
224,224,190210,1,0
288,192,190437,1,0
352,224,190665,1,0
480,160,191119,1,2
320,128,191574,1,2
192,160,192028,1,0
128,128,192255,1,0
96,64,192483,1,2
96,224,192937,5,0
160,192,193164,1,0
224,224,193392,1,2
384,224,193846,1,0
320,192,194073,1,0
256,224,194301,1,2
160,320,194755,5,0
128,256,194982,1,0
160,192,195210,1,0
288,96,195664,1,0
352,128,195891,1,0
384,192,196119,2,0,C|352:224|320:192|256:224|224:192|192:192,1,225
160,128,197028,5,0
224,96,197255,1,4
288,128,197482,1,0
352,96,197709,1,0
416,128,197937,1,0
480,96,198164,1,0
416,128,198391,1,2
320,224,198846,1,2
192,192,199300,1,0
128,160,199527,1,0
64,192,199755,1,2
96,320,200209,5,0
128,256,200437,1,0
160,320,200664,1,2
320,320,201118,1,0
352,256,201346,1,0
384,320,201573,1,2
416,256,201800,1,2
352,192,202027,1,2
288,256,202255,1,2
320,320,202482,1,4
352,256,202709,5,4
352,192,202936,1,4
352,192,203050,1,0
352,192,203163,1,4
352,128,203390,1,2
352,64,203618,1,2
352,128,203845,1,2
288,192,204072,1,2
224,192,204299,5,0
160,160,204527,1,0
96,192,204754,1,0
64,256,204981,1,0
96,320,205208,1,0
224,288,205663,5,2
352,224,206117,5,2
416,96,206572,5,0
352,64,206799,1,0
288,64,207026,1,2
160,128,207481,1,0
224,96,207708,1,0
288,128,207935,1,2
416,192,208390,1,0
352,160,208617,1,0
288,192,208844,1,2
256,320,209299,5,0
224,256,209526,1,0
224,192,209753,1,2
352,128,210208,1,0
384,192,210435,1,0
352,256,210662,1,2
288,224,210890,1,2
224,192,211117,1,2
96,160,211571,5,0
160,128,211799,1,0
224,96,212026,1,0
288,128,212253,1,0
352,96,212480,1,0
416,128,212708,1,0
480,160,212935,1,2
416,192,213162,1,0
352,160,213390,1,0
256,288,213844,5,2
192,256,214071,1,2
128,224,214299,1,2
160,96,214753,5,0
224,128,214980,1,4
288,160,215208,1,0
160,192,215662,5,0
128,256,215889,1,0
160,320,216117,1,0
224,352,216344,1,0
288,320,216571,1,0
320,256,216798,1,0
288,192,217026,2,4,C|256:224|224:192|192:224|160:192|160:160,1,187.5
192,96,219298,5,0
160,160,219525,1,0
192,224,219752,1,0
256,256,219979,1,0
320,224,220207,1,0
352,160,220434,1,0
320,96,220661,2,2,C|288:128|256:96|224:128|192:96|192:64,1,187.5
160,288,221797,6,2,C|224:320,2,37.5
288,224,222479,1,2
416,160,222934,2,2,C|384:128,2,37.5
352,288,223615,2,2,C|320:256,2,37.5
224,224,224297,5,0
352,160,224752,2,2,C|320:128,2,37.5
224,224,225433,1,0
96,288,225888,2,2,C|64:256,2,37.5
320,288,226797,1,0
384,160,227251,5,4
320,128,227479,1,4
256,160,227706,1,4
224,224,227933,1,4
256,288,228160,1,4
