osu file format v10

[General]
AudioFilename: 01 Serment.mp3
AudioLeadIn: 0
PreviewTime: 66840
Countdown: 0
SampleSet: Soft
StackLeniency: 0.7
Mode: 0
LetterboxInBreaks: 1

[Editor]
Bookmarks: 19297,38538,47736,117787,178915,190240
DistanceSpacing: 1
BeatDivisor: 2
GridSize: 4

[Metadata]
Title:Serment
TitleUnicode:
Artist:Kawada Mami
ArtistUnicode:
Creator:f e a r
Version:Normal
Source:Shakugan no Shana III (Final)
Tags:CXu Opening
BeatmapID:163910
BeatmapSetID:53817

[Difficulty]
HPDrainRate:3
CircleSize:3
OverallDifficulty:3
ApproachRate:4
SliderMultiplier:1
SliderTickRate:1

[Events]
//Background and Video events
0,0,"Well Shana.jpg"
//Break Periods
2,29681,37218
2,99870,107407
2,179115,188916
//Storyboard Layer 0 (Background)
//Storyboard Layer 1 (Fail)
//Storyboard Layer 2 (Pass)
//Storyboard Layer 3 (Foreground)
//Storyboard Sound Samples
//Background Colour Transformations
3,100,163,162,255

[TimingPoints]
1180,283.018867924528,4,2,1,70,1,0
19293,-100,4,2,1,20,0,0
20425,-100,4,2,1,70,0,0
28915,-100,4,2,1,40,0,0
29198,-100,4,2,1,90,0,0
29481,-100,4,2,1,80,0,0
46604,-100,4,2,1,80,0,0
47736,-100,4,2,1,70,0,0
56651,-133.333333333333,4,2,1,50,0,0
67972,-100,4,2,1,80,0,1
99670,-100,4,2,1,80,0,0
126840,-133.333333333333,4,2,1,50,0,0
138161,-100,4,2,1,80,0,1
169859,-100,4,2,1,70,0,0
190236,-133.333333333333,4,2,1,30,0,0
199293,-133.333333333333,4,2,1,5,0,0
200142,-133.333333333333,4,2,1,30,0,0
200283,-100,4,2,1,70,0,0
200425,-100,4,2,1,90,0,1
236651,-100,4,2,1,70,0,0

[Colours]
Combo1 : 251,74,74
Combo2 : 163,133,101
Combo3 : 215,92,2

[HitObjects]
96,120,19293,2,0,B|144:92|200:124,1,100,2|2,0:0|0:0,0:0:0
144,220,19859,2,0,B|192:248|240:220,1,100,2|2,0:0|0:0,0:0:0
239,221,20425,1,4,0:0:0
324,168,20708,6,0,B|324:68,1,100,8|0,0:0|0:0,0:0:0
220,60,21274,2,0,B|168:60|124:96,2,100,8|0|8,0:0|0:0|0:0,0:0:0
224,168,22123,2,0,B|272:168|320:204,2,100,0|8|0,0:0|0:0|0:0,0:0:0
224,276,22972,6,0,B|124:276,1,100,8|0,0:0|0:0,0:0:0
124,164,23538,2,0,B|80:132|32:164,2,100,8|0|8,0:0|0:0|0:0,0:0:0
128,64,24387,2,0,B|172:32|220:64,2,100,2|8|10,0:0|0:0|0:0,0:0:0
124,164,25236,6,0,B|180:164|208:216,1,100,8|0,0:0|0:0,0:0:0
116,260,25802,2,0,B|68:280|68:340,2,100,8|0|8,0:0|0:0|0:0,0:0:0
248,208,26651,2,0,B|216:164|160:164,2,100,0|8|0,0:0|0:0|0:0,0:0:0
320,292,27500,6,0,B|400:232,1,100,8|0,0:0|0:0,0:0:0
400,120,28066,2,0,B|392:64|340:44,2,100,8|0|8,0:0|0:0|0:0,0:0:0
292,120,28915,2,0,B|244:152|244:208,2,100,4|4|4,0:0|0:0|0:0,0:0:0
396,244,38538,6,0,B|336:300|244:312,2,150,4|0|8,0:0|0:0|0:0,0:0:0
460,132,39953,6,0,B|360:132,1,100,8|0,0:0|0:0,0:0:0
282,209,40519,2,0,B|176:208,2,100,8|0|8,0:0|0:0|0:0,0:0:0
232,132,41368,1,0,0:0:0
144,92,41651,1,8,0:0:0
144,92,41793,2,0,B|44:92,1,100
44,148,42217,2,0,B|44:204|92:240,2,100,8|0|8,0:0|0:0|0:0,0:0:0
152,176,43066,6,0,B|204:200|248:160,1,100,0|8,0:0|0:0,0:0:0
312,76,43632,1,0,0:0:0
420,92,43915,2,0,B|368:176,1,100,8|0,0:0|0:0,0:0:0
312,272,44481,2,0,B|292:324|232:324,2,100,8|0|8,0:0|0:0|0:0,0:0:0
216,220,45330,6,0,B|164:220|128:260,1,100,0|8,0:0|0:0,0:0:0
80,160,45896,2,0,B|116:120|168:120,2,100,0|8|0,0:0|0:0|0:0,0:0:0
76,208,46604,2,0,B|76:288|156:324,1,150,2|2,0:0|0:0,0:0:0
176,228,47312,2,0,B|212:192|272:184,1,100,10|4,0:0|0:0,0:0:0
424,88,48161,5,0,0:0:0
316,88,48444,2,0,B|216:88,1,100,8|0,0:0|0:0,0:0:0
106,88,49010,6,0,B|58:116|46:172,2,100,8|0|8,0:0|0:0|0:0,0:0:0
144,188,49859,2,0,B|216:260|332:272,1,200
421,270,50708,2,0,B|473:270,2,50,8|0|0,0:0|0:0|0:0,0:0:0
460,176,51274,2,0,B|440:128|384:120,1,100,8|0,0:0|0:0,0:0:0
344,212,51840,5,8,0:0:0
344,212,52123,2,0,B|287:203|267:155,1,100,0|8,0:0|0:0,0:0:0
320,68,52689,1,0,0:0:0
220,56,52972,1,8,0:0:0
120,44,53255,2,0,B|84:140|120:244,2,200,0|8|0,0:0|0:0|0:0,0:0:0
216,108,54670,5,8,0:0:0
384,216,55236,2,0,B|404:264|380:316,1,100,8|0,0:0|0:0,0:0:0
280,312,55802,1,8,0:0:0
180,312,56085,2,0,B|80:312,2,100,0|8|4,0:0|0:0|0:0,0:0:0
188,228,56934,6,0,B|140:216,2,37.5000014305115,8|0|0,0:0|0:0|0:0,0:0:0
256,168,57500,1,8,0:0:0
340,144,57783,2,0,B|340:24,2,112.500004291535,0|0|8,0:0|0:0|0:0,0:0:0
422,144,58915,2,0,B|422:220|374:288|278:308,1,224.999993294478,0|8,0:0|0:0,0:0:0
249,305,59906,1,8,0:0:0
256,144,60613,6,0,B|216:144|196:184,1,74.9999977648259,0|4,0:0|0:0,0:0:0
176,256,61179,2,0,B|152:308|88:328,2,112.499996647239,4|0|8,0:0|0:0|0:0,0:0:0
196,184,62312,2,0,B|220:132|279:113,2,112.499996647239,0|0|8,0:0|0:0|0:0,0:0:0
256,192,63444,12,0,64859,0:0:0
256,80,65425,5,8,0:0:0
344,100,65708,2,0,B|420:120|460:196,1,149.999995529652
457,281,66557,2,0,B|457:317,1,37.4999988824129
192,128,67972,6,0,B|300:128,1,100,4|8,0:0|0:0,0:0:0
244,216,68538,1,0,0:0:0
196,304,68821,2,0,B|304:304,1,100,8|0,0:0|0:0,0:0:0
400,304,69387,2,0,B|456:304|480:252,1,100,8|0,0:0|0:0,0:0:0
480,156,69953,2,0,B|456:104|400:104,2,100,8|0|8,0:0|0:0|0:0,0:0:0
380,204,70802,1,0,0:0:0
316,112,71085,5,8,0:0:0
260,108,71227,2,0,B|180:108|116:168,1,150,0|8,0:0|0:0,0:0:0
116,268,71934,2,0,B|160:304|212:312,1,100,0|8,0:0|0:0,0:0:0
252,312,72359,1,0,0:0:0
305,310,72500,2,0,B|361:310|401:266,1,100,4|8,0:0|0:0,0:0:0
394,172,73066,1,0,0:0:0
394,72,73349,6,0,B|352:40|296:40,2,100,8|0|8,0:0|0:0|0:0,0:0:0
312,128,74198,1,0,0:0:0
212,128,74481,2,0,B|112:128,1,100,8|0,0:0|0:0,0:0:0
168,212,75047,2,0,B|272:212,2,100,8|0|8,0:0|0:0|0:0,0:0:0
88,272,75896,2,0,B|156:344|268:344,1,200
368,344,76746,6,0,B|428:344|448:288,2,100,8|4|8,0:0|0:0|0:0,0:0:0
368,244,77595,1,0,0:0:0
368,144,77878,2,0,B|316:144|284:188,1,100,8|0,0:0|0:0,0:0:0
232,276,78444,1,8,0:0:0
148,224,78727,2,0,B|128:273|148:321,2,100,0|8|0,0:0|0:0|0:0,0:0:0
64,168,79576,1,8,0:0:0
64,168,79717,2,0,B|92:124|148:124,1,100
248,124,80283,6,0,B|336:148|344:240,1,150,4|8,0:0|0:0,0:0:0
244,228,80991,2,0,B|192:228|152:268,1,100,0|8,0:0|0:0,0:0:0
256,192,81557,12,8,82972,0:0:0
160,280,83538,6,0,B|108:280,2,50,8|0|0,0:0|0:0|0:0,0:0:0
260,280,84104,2,0,B|312:280|360:240,1,100,4|0,0:0|0:0,0:0:0
388,152,84670,1,4,0:0:0
388,152,84812,2,0,B|288:152,1,100
240,152,85236,2,0,B|188:152|152:104,2,100,4|0|4,0:0|0:0|0:0,0:0:0
312,224,86085,1,4,0:0:0
312,28,86651,6,0,B|312:128,1,100,0|8,0:0|0:0,0:0:0
404,92,87217,2,0,B|404:192,1,100,0|8,0:0|0:0,0:0:0
488,248,87783,1,0,0:0:0
400,288,88066,2,0,B|376:340|308:352,2,100,8|0|8,0:0|0:0|0:0,0:0:0
308,248,88915,1,0,0:0:0
208,248,89198,6,0,B|104:248,1,100,8|0,0:0|0:0,0:0:0
160,164,89764,1,8,0:0:0
260,164,90047,1,0,0:0:0
360,164,90330,2,0,B|360:112|308:80,2,100,8|4|8,0:0|0:0|0:0,0:0:0
260,164,91179,1,0,0:0:0
224,72,91463,5,8,0:0:0
124,68,91746,2,0,B|80:96|64:152,1,100,0|8,0:0|0:0,0:0:0
40,236,92312,1,0,0:0:0
124,276,92595,2,0,B|176:296|240:272,1,100,8|4,0:0|0:0,0:0:0
416,324,93444,5,0,0:0:0
440,228,93727,2,0,B|480:188,1,50,8|4,0:0|0:0,0:0:0
344,108,94293,1,8,0:0:0
244,120,94576,1,0,0:0:0
184,200,94859,1,8,0:0:0
104,140,95142,2,0,B|68:244|124:356,1,200,4|0,0:0|0:0,0:0:0
214,335,95991,1,8,0:0:0
360,200,96557,6,0,B|420:200,2,50,8|0|0,0:0|0:0|0:0,0:0:0
260,200,97123,1,8,0:0:0
160,200,97406,2,0,B|84:164|56:80,2,150,4|4|4,0:0|0:0|0:0,0:0:0
160,249,98396,2,0,B|315:249,1,150,4|8,0:0|0:0,0:0:0
360,248,98963,2,0,B|412:248,5,50,0|0|0|0|0|4,0:0|0:0|0:0|0:0|0:0|0:0,0:0:0
144,104,108727,6,0,B|248:104,1,100,4|8,0:0|0:0,0:0:0
344,104,109293,2,0,B|392:136|392:212,1,100,0|8,0:0|0:0,0:0:0
390,288,109859,1,0,0:0:0
292,288,110142,2,0,B|232:288|184:240,2,100,8|0|8,0:0|0:0|0:0,0:0:0
276,188,110991,5,0,0:0:0
200,124,111274,2,0,B|232:90|292:90,1,100,8|0,0:0|0:0,0:0:0
392,88,111840,2,0,B|424:188,1,100,8|0,0:0|0:0,0:0:0
388,272,112406,2,0,B|340:272|296:236,2,100,8|0|8,0:0|0:0|0:0,0:0:0
388,172,113255,6,0,B|440:172,2,50,0|0|8,0:0|0:0|0:0,0:0:0
292,152,113821,1,0,0:0:0
188,172,114104,2,0,B|188:120|228:76,2,100,8|0|8,0:0|0:0|0:0,0:0:0
88,160,114953,2,0,B|88:212|116:260,1,100,0|8,0:0|0:0,0:0:0
16,296,115519,2,0,B|88:368|200:360,1,200
292,328,116368,6,0,B|372:256,1,100,8|0,0:0|0:0,0:0:0
388,220,116793,2,8,B|400:164|376:116,1,100
356,76,117217,1,8,0:0:0
260,44,117500,1,8,0:0:0
160,44,117783,6,0,B|60:44,2,100,4|2|0,0:0|0:0|0:0,0:0:0
212,128,118632,1,2,0:0:0
28,208,119198,1,2,0:0:0
64,300,119481,1,0,0:0:0
164,320,119764,1,2,0:0:0
264,328,120047,6,0,B|368:328|440:244,1,200,4|8,0:0|0:0,0:0:0
440,140,120896,2,0,B|368:56|264:56,1,200,8|8,0:0|0:0,0:0:0
156,48,121746,2,0,B|100:48|56:92,1,100,0|8,0:0|0:0,0:0:0
64,183,122312,6,0,B|100:227|156:227,2,100,0|8|0,0:0|0:0|0:0,0:0:0
148,132,123161,1,8,0:0:0
247,132,123444,2,0,B|303:132|344:188,2,100,0|8|0,0:0|0:0|0:0,0:0:0
248,232,124293,1,8,0:0:0
248,332,124576,6,0,B|352:332,2,100,0|8|0,0:0|0:0|0:0,0:0:0
148,332,125425,2,0,B|92:332|56:288,1,100,8|0,0:0|0:0,0:0:0
60,192,125991,1,8,0:0:0
60,192,126274,2,0,B|60:92,2,100,0|8|4,0:0|0:0|0:0,0:0:0
136,192,127123,5,8,0:0:0
204,156,127406,1,0,0:0:0
276,132,127689,1,8,0:0:0
352,124,127972,2,0,B|352:188|296:236,2,112.499996647239,0|0|8,0:0|0:0|0:0,0:0:0
448,112,129104,2,0,B|448:188|416:268|344:320,1,225.000008583069,0|8,0:0|0:0,0:0:0
320,316,130095,1,8,0:0:0
192,288,130802,6,0,B|192:240|156:208,2,74.9999977648259,0|4|4,0:0|0:0|0:0,0:0:0
266,284,131651,1,8,0:0:0
340,288,131934,2,0,B|340:240|376:208,2,74.9999977648259,0|8|0,0:0|0:0|0:0,0:0:0
416,288,132783,1,8,0:0:0
452,220,133066,1,0,0:0:0
416,152,133349,1,8,0:0:0
416,76,133632,6,0,B|344:48|268:76,1,149.999995529652,8|0,0:0|0:0,0:0:0
212,120,134481,2,0,B|184:192|212:268,1,149.999995529652,8|8,0:0|0:0,0:0:0
360,268,135613,6,0,B|360:312,2,37.4999988824129,8|0|0,0:0|0:0|0:0,0:0:0
436,268,136179,2,0,B|472:268,2,37.4999988824129,8|0|0,0:0|0:0|0:0,0:0:0
432,192,136746,1,8,0:0:0
432,192,136887,1,8,0:0:0
272,96,138161,6,0,B|212:96|184:156,2,100,4|8|0,0:0|0:0|0:0,0:0:0
276,200,139010,1,8,0:0:0
276,300,139293,2,0,B|201:329|129:297,2,149.999995529652,0|0|8,0:0|0:0|0:0,0:0:0
376,300,140425,2,0,B|376:200,1,100,0|8,0:0|0:0,0:0:0
376,100,140991,1,0,0:0:0
376,100,141274,6,0,B|276:100,2,100,8|0|8,0:0|0:0|0:0,0:0:0
376,200,142123,1,0,0:0:0
376,300,142406,2,0,B|280:320|176:300,1,200,8|8,0:0|0:0,0:0:0
84,264,143255,1,0,0:0:0
84,164,143538,6,0,B|84:64,2,100,8|0|8,0:0|0:0|0:0,0:0:0
184,164,144387,1,0,0:0:0
284,164,144670,2,0,B|336:164|376:120,2,100,8|0|8,0:0|0:0|0:0,0:0:0
284,264,145519,1,0,0:0:0
384,264,145802,2,0,B|484:264,2,100,8|0|8,0:0|0:0|0:0,0:0:0
392,164,146651,1,0,0:0:0
312,80,146934,6,0,B|312:32,2,50,8|0|4,0:0|0:0|0:0,0:0:0
312,180,147500,2,0,B|280:220|216:220,1,100,8|0,0:0|0:0,0:0:0
120,220,148066,1,8,0:0:0
160,132,148349,2,0,B|236:68,1,100,0|8,0:0|0:0,0:0:0
276,36,148774,1,0,0:0:0
304,132,149057,5,0,0:0:0
304,132,149198,2,0,B|304:184|348:236,1,100,8|0,0:0|0:0,0:0:0
396,308,149764,1,8,0:0:0
296,308,150047,2,0,B|216:308|148:248,2,150,0|4|8,0:0|0:0|0:0,0:0:0
292,208,151179,1,0,0:0:0
392,208,151463,5,8,0:0:0
392,108,151746,2,0,B|292:108,1,100,4|8,0:0|0:0,0:0:0
192,108,152312,2,0,B|192:164,2,50,0|0|8,0:0|0:0|0:0,0:0:0
92,108,152878,2,0,B|92:208,1,100,0|8,0:0|0:0,0:0:0
92,307,153444,2,0,B|40:308,2,50,0|0|8,0:0|0:0|0:0,0:0:0
192,308,154010,6,0,B|252:308|300:272,1,100,0|4,0:0|0:0,0:0:0
372,228,154576,1,0,0:0:0
448,164,154859,2,0,B|408:136|348:120,1,100,4|0,0:0|0:0,0:0:0
256,120,155425,1,8,0:0:0
156,120,155708,2,0,B|56:120,2,100,0|8|4,0:0|0:0|0:0,0:0:0
197,307,156840,6,0,B|156:276|156:220,1,100,0|8,0:0|0:0,0:0:0
256,220,157406,1,0,0:0:0
355,220,157689,2,0,B|355:270,2,50,8|0|0,0:0|0:0|0:0,0:0:0
356,120,158255,1,8,0:0:0
456,124,158538,2,0,B|456:228,1,100,0|8,0:0|0:0,0:0:0
456,320,159104,1,0,0:0:0
456,320,159387,2,0,B|356:320|264:272,1,200,8|8,0:0|0:0,0:0:0
176,220,160236,1,0,0:0:0
88,172,160519,6,0,B|88:272,1,100,8|4,0:0|0:0,0:0:0
180,316,161085,1,8,0:0:0
268,272,161368,2,0,B|268:172,2,100,0|8|0,0:0|0:0|0:0,0:0:0
360,316,162217,2,0,B|360:368,2,50,8|0|0,0:0|0:0|0:0,0:0:0
448,268,162783,2,0,B|448:220|480:176,2,100,8|4|8,0:0|0:0|0:0,0:0:0
384,192,163632,1,0,0:0:0
360,88,163915,6,0,B|264:56,1,100,8|0,0:0|0:0,0:0:0
264,156,164481,2,0,B|168:192,1,100,8|0,0:0|0:0,0:0:0
80,232,165047,1,8,0:0:0
168,280,165330,2,0,B|260:320,1,100,4|8,0:0|0:0,0:0:0
304,236,165896,1,0,0:0:0
304,236,166179,1,8,0:0:0
404,256,166463,1,0,0:0:0
432,156,166746,2,0,B|328:156,1,100,8|0,0:0|0:0,0:0:0
244,112,167312,1,8,0:0:0
332,68,167595,5,0,0:0:0
424,52,167878,2,0,B|472:52,1,50,8|0,0:0|0:0,0:0:0
424,193,168444,2,0,B|424:245,1,50,0|8,0:0|0:0,0:0:0
324,188,169010,1,8,0:0:0
224,188,169293,2,0,B|176:188,4,50,0|0|8|0|4,0:0|0:0|0:0|0:0|0:0,0:0:0
156,264,170142,5,8,0:0:0
252,296,170425,2,0,B|352:296,1,100,0|8,0:0|0:0,0:0:0
400,296,170849,1,0,0:0:0
464,220,171132,1,0,0:0:0
464,220,171274,2,0,B|464:120,2,100,8|8|8,0:0|0:0|0:0,0:0:0
364,220,172123,5,0,0:0:0
312,136,172406,1,8,0:0:0
260,220,172689,1,0,0:0:0
164,220,172972,1,8,0:0:0
164,220,173113,2,0,B|140:176|164:124,1,100,0|0,0:0|0:0,0:0:0
184,76,173538,1,8,0:0:0
264,124,173821,2,0,B|364:124,2,100,0|8|4,0:0|0:0|0:0,0:0:0
264,220,174670,5,8,0:0:0
164,220,174953,2,0,B|64:220,1,100,0|8,0:0|0:0,0:0:0
64,220,175378,1,0,0:0:0
64,120,175661,1,0,0:0:0
64,120,175802,2,0,B|164:120,2,100,8|0|8,0:0|0:0|0:0,0:0:0
132,44,176651,5,0,0:0:0
232,44,176934,2,0,B|352:44,1,100,8|0,0:0|0:0,0:0:0
300,140,177500,1,8,0:0:0
300,140,177642,2,0,B|400:140,1,100
448,140,178066,1,8,0:0:0
468,248,178349,2,0,B|468:308|416:336,2,100,0|4|4,0:0|0:0|0:0,0:0:0
104,88,190236,6,0,B|256:32|408:92,1,300.000011444092,4|0,0:0|0:0,0:0:0
397,296,192500,2,0,B|256:352|104:296,1,300.000011444092
384,192,194764,2,0,B|76:192,2,300.000011444092
256,192,197453,12,0,199293,0:0:0
340,256,200142,5,8,0:0:0
340,256,200283,1,8,0:0:0
340,256,200425,2,0,B|288:276|232:252,1,100,4|8,0:0|0:0,0:0:0
242,156,200991,1,0,0:0:0
242,56,201274,1,8,0:0:0
242,56,201557,2,0,B|194:32|134:60,2,100,0|8|0,0:0|0:0|0:0,0:0:0
340,72,202406,2,0,B|380:28,2,50,8|0|0,0:0|0:0|0:0,0:0:0
388,156,202972,2,0,B|388:308,1,150,8|0,0:0|0:0,0:0:0
256,324,203679,6,0,B|256:172,1,150,4|8,0:0|0:0,0:0:0
148,144,204387,2,0,B|48:144,2,100,0|4|4,0:0|0:0|0:0,0:0:0
148,44,205236,1,8,0:0:0
236,92,205519,6,0,B|292:92,2,50,0|0|8,0:0|0:0|0:0,0:0:0
236,192,206085,1,0,0:0:0
336,192,206368,1,8,0:0:0
436,192,206651,2,0,B|484:192,2,50,0|0|8,0:0|0:0|0:0,0:0:0
388,280,207217,5,0,0:0:0
288,280,207500,2,0,B|236:280,2,50,4|0|4,0:0|0:0|0:0,0:0:0
288,180,208066,1,4,0:0:0
288,128,208208,2,0,B|288:76|236:48,1,100,4|0,0:0|0:0,0:0:0
188,48,208632,2,0,B|188:152,1,100,8|0,0:0|0:0,0:0:0
228,236,209198,1,8,0:0:0
320,260,209481,6,0,B|424:260,1,100,4|8,0:0|0:0,0:0:0
420,160,210047,1,0,0:0:0
420,160,210330,2,0,B|420:60,1,100,8|0,0:0|0:0,0:0:0
324,88,210896,2,0,B|276:88,1,50,8|0,0:0|0:0,0:0:0
188,140,211321,2,0,B|136:140,1,50,0|8,0:0|0:0,0:0:0
172,244,211746,2,0,B|172:344,2,100,0|8|0,0:0|0:0|0:0,0:0:0
272,244,212595,6,0,B|272:292,2,50,8|0|0,0:0|0:0|0:0,0:0:0
272,144,213161,1,8,0:0:0
272,44,213444,2,0,B|376:44,2,100,0|8|4,0:0|0:0|0:0,0:0:0
172,40,214293,1,8,0:0:0
100,108,214576,1,0,0:0:0
100,108,214717,1,0,0:0:0
100,108,214859,2,0,B|100:208,1,100,8|0,0:0|0:0,0:0:0
200,208,215425,5,8,0:0:0
200,208,215566,2,0,B|208:288|288:324,1,150,0|8,0:0|0:0,0:0:0
384,324,216274,2,0,B|384:224,2,100,4|8|0,0:0|0:0|0:0,0:0:0
484,324,217123,1,8,0:0:0
484,324,217264,2,0,B|484:172,1,150,4|8,0:0|0:0,0:0:0
384,152,217972,1,0,0:0:0
284,176,218255,1,8,0:0:0
184,176,218538,6,0,B|72:176,1,100,4|8,0:0|0:0,0:0:0
132,264,219104,2,0,B|32:264,2,100,0|8|0,0:0|0:0|0:0,0:0:0
232,260,219953,1,8,0:0:0
324,216,220236,2,0,B|376:216|416:256,2,100,0|8|4,0:0|0:0|0:0,0:0:0
300,124,221085,1,4,0:0:0
300,124,221227,1,4,0:0:0
256,192,221368,12,4,229859,0:0:0
124,48,232123,5,4,0:0:0
124,248,232689,2,0,B|224:248,1,100,0|8,0:0|0:0,0:0:0
322,248,233255,2,0,B|426:248,1,100,0|8,0:0|0:0,0:0:0
400,152,233821,2,0,B|400:48,2,100,0|8|4,0:0|0:0|0:0,0:0:0
308,92,234670,1,0,0:0:0
308,92,234812,2,0,B|208:92,1,100,4|0,0:0|0:0,0:0:0
160,92,235236,5,4,0:0:0
160,92,235378,2,0,B|160:240,1,150,4|8,0:0|0:0,0:0:0
210,242,235944,2,0,B|258:242,5,50,0|0|0|0|0|4,0:0|0:0|0:0|0:0|0:0|0:0,0:0:0
