osu file format v10

[General]
AudioFilename: 01 Serment.mp3
AudioLeadIn: 0
PreviewTime: 66840
Countdown: 0
SampleSet: Soft
StackLeniency: 0.7
Mode: 0
LetterboxInBreaks: 1

[Editor]
Bookmarks: 19297,38538,47736,117787,178915,190240
DistanceSpacing: 1
BeatDivisor: 2
GridSize: 4

[Metadata]
Title:Serment
TitleUnicode:
Artist:Kawada Mami
ArtistUnicode:
Creator:f e a r
Version:Hard
Source:Shakugan no Shana III (Final)
Tags:CXu Opening
BeatmapID:164172
BeatmapSetID:53817

[Difficulty]
HPDrainRate:6
CircleSize:4
OverallDifficulty:5
ApproachRate:8
SliderMultiplier:1.30000000596046
SliderTickRate:1

[Events]
//Background and Video events
0,0,"Well Shana.jpg"
//Break Periods
2,29681,37788
2,99870,107977
2,179115,189486
//Storyboard Layer 0 (Background)
//Storyboard Layer 1 (Fail)
//Storyboard Layer 2 (Pass)
//Storyboard Layer 3 (Foreground)
//Storyboard Sound Samples
//Background Colour Transformations
3,100,163,162,255

[TimingPoints]
1180,283.018867924528,4,2,1,70,1,0
19293,-100,4,2,1,20,0,0
20708,-100,4,2,1,70,0,0
56651,-133.333333333333,4,2,1,70,0,0
66698,-100,4,2,1,70,0,0
67972,-100,4,2,1,80,0,1
99670,-100,4,2,1,70,0,0
126840,-133.333333333333,4,2,1,70,0,0
138161,-100,4,2,1,80,0,1
169859,-100,4,2,1,70,0,0
190236,-133.333333333333,4,2,1,70,0,0
199293,-133.333333333333,4,2,1,5,0,0
200142,-133.333333333333,4,2,1,30,0,0
200283,-100,4,2,1,70,0,0
200425,-100,4,2,1,90,0,1
236651,-100,4,2,1,70,0,0

[Colours]
Combo1 : 251,74,74
Combo2 : 163,133,101
Combo3 : 215,92,2

[HitObjects]
76,136,19293,2,2,B|208:136,1,130.000000596046,2|2,0:0|0:0,0:0:0
304,240,19859,2,2,B|172:240,1,130.000000596046,2|2,0:0|0:0,0:0:0
104,240,20283,1,8,0:0:0
68,240,20354,1,8,0:0:0
32,240,20425,1,4,0:0:0
144,332,20708,6,0,B|212:332,1,65.000000298023,8|0,0:0|0:0,0:0:0
280,332,20991,1,0,0:0:0
352,332,21132,2,0,B|416:332,2,65.000000298023,0|8|0,0:0|0:0|0:0,0:0:0
352,260,21557,2,0,B|352:192|304:132,1,130.000000596046,0|8,0:0|0:0,0:0:0
168,140,22123,2,0,B|96:140,2,65.000000298023,0|0|8,0:0|0:0|0:0,0:0:0
168,212,22547,2,0,B|300:212,1,130.000000596046
368,212,22972,6,0,B|368:168|336:132,1,65.000000298023,8|0,0:0|0:0,0:0:0
300,100,23255,1,0,0:0:0
240,64,23396,1,0,0:0:0
168,64,23538,1,8,0:0:0
108,100,23679,2,0,B|40:176|40:284,1,195.000000894069,0|8,0:0|0:0,0:0:0
183,278,24387,6,0,B|251:278,1,65.000000298023,2|0,0:0|0:0,0:0:0
248,208,24670,1,8,0:0:0
308,168,24812,2,0,B|376:168,1,65.000000298023,0|2,0:0|0:0,0:0:0
372,240,25095,1,0,0:0:0
372,312,25236,6,0,B|420:312|452:272|444:224,2,130.000000596046,8|0|8,0:0|0:0|0:0,0:0:0
300,312,25944,1,0,0:0:0
228,312,26085,1,0,0:0:0
156,312,26227,2,0,B|88:312,1,65.000000298023,0|8,0:0|0:0,0:0:0
164,168,26651,2,0,B|164:104|96:52,2,130.000000596046,0|8|2,0:0|0:0|0:0,0:0:0
308,168,27500,6,0,B|376:168,2,65.000000298023,8|0|0,0:0|0:0|0:0,0:0:0
236,168,27925,1,0,0:0:0
164,168,28066,1,8,0:0:0
92,168,28208,2,0,B|92:240|136:296|216:296,1,195.000000894069,2|8,0:0|0:0,0:0:0
353,295,28915,1,2,0:0:0
420,264,29057,1,0,0:0:0
420,192,29198,2,0,B|420:120,2,65.000000298023,8|0|4,0:0|0:0|0:0,0:0:0
408,144,38538,5,4,0:0:0
336,144,38679,2,0,B|260:144,2,65.000000298023,0|8|0,0:0|0:0|0:0,0:0:0
408,144,39104,2,0,B|408:208|360:272,1,130.000000596046,0|8,0:0|0:0,0:0:0
365,264,39529,1,0,0:0:0
148,276,39953,6,0,B|84:276,1,65.000000298023,8|0,0:0|0:0,0:0:0
112,208,40236,2,0,B|184:208,1,65.000000298023
252,208,40519,1,8,0:0:0
324,208,40661,1,0,0:0:0
376,140,40802,6,0,B|448:140,2,65.000000298023,0|0|8,0:0|0:0|0:0,0:0:0
304,140,41227,2,0,B|228:140,2,65.000000298023
304,68,41651,1,8,0:0:0
232,68,41793,2,0,B|168:68|100:104|80:176,1,195.000000894069,0|8,0:0|0:0,0:0:0
80,244,42359,1,0,0:0:0
80,316,42500,2,0,B|144:316,1,65.000000298023,2|0,0:0|0:0,0:0:0
216,316,42783,2,0,B|280:316,1,65.000000298023,8|0,0:0|0:0,0:0:0
352,316,43066,5,0,0:0:0
352,316,43208,1,0,0:0:0
352,316,43349,1,8,0:0:0
404,136,43915,1,8,0:0:0
404,136,44057,1,0,0:0:0
212,36,44481,5,8,0:0:0
52,84,44764,1,0,0:0:0
112,124,44906,1,0,0:0:0
52,168,45047,1,8,0:0:0
112,208,45189,1,0,0:0:0
52,248,45330,6,0,B|52:312|52:312|116:364,1,130.000000596046,0|8,0:0|0:0,0:0:0
136,280,45755,2,0,B|272:280,1,130.000000596046
336,280,46179,1,8,0:0:0
408,280,46321,2,0,B|408:216|460:160,2,130.000000596046,0|2|0,0:0|0:0|0:0,0:0:0
408,352,47029,1,2,0:0:0
336,352,47170,2,0,B|268:352,2,65.000000298023,0|10|0,0:0|0:0|0:0,0:0:0
336,280,47595,5,4,0:0:0
336,280,47736,1,0,0:0:0
372,216,47878,1,0,0:0:0
416,112,48444,1,8,0:0:0
344,124,48585,2,0,B|280:136,1,65.000000298023
140,160,49010,5,8,0:0:0
140,302,49293,1,0,0:0:0
282,302,49576,1,8,0:0:0
282,159,49859,1,8,0:0:0
282,159,50000,1,0,0:0:0
116,116,50708,5,8,0:0:0
116,116,50849,1,0,0:0:0
324,68,51274,2,0,B|372:116,1,65.000000298023,2|0,0:0|0:0,0:0:0
412,172,51557,2,0,B|412:240,1,65.000000298023,2|0,0:0|0:0,0:0:0
364,292,51840,2,0,B|308:344,1,65.000000298023,2|0,0:0|0:0,0:0:0
244,336,52123,5,8,0:0:0
172,336,52264,2,0,B|100:328|80:244,2,130.000000596046,8|0|8,0:0|0:0|0:0,0:0:0
172,264,52972,2,0,B|172:132,2,130.000000596046,8|0|8,0:0|0:0|0:0,0:0:0
260,264,53679,2,0,B|368:264|440:196,1,195.000000894069,0|8,0:0|0:0,0:0:0
296,128,54387,5,0,0:0:0
152,128,54670,1,8,0:0:0
216,96,54812,2,0,B|256:28|348:48,1,130.000000596046
376,128,55236,1,8,0:0:0
376,260,55519,1,0,0:0:0
244,316,55802,1,8,0:0:0
101,316,56085,2,0,B|33:316,4,65.000000298023,0|0|8|0|4,0:0|0:0|0:0|0:0|0:0,0:0:0
172,172,57076,5,0,0:0:0
316,100,57500,1,8,0:0:0
424,100,57783,2,0,B|424:196,1,97.4999975413081,0|8,0:0|0:0,0:0:0
424,197,58208,1,0,0:0:0
292,292,58632,1,8,0:0:0
292,292,58774,1,0,0:0:0
292,292,58915,6,0,B|192:292|112:228,1,194.999995082616
188,152,59764,1,8,0:0:0
240,152,59906,2,0,B|344:152,1,97.4999975413081
392,152,60330,1,8,0:0:0
392,260,60613,6,0,B|456:260|484:200,2,97.4999975413081,0|8|4,0:0|0:0|0:0,0:0:0
284,260,61463,1,8,0:0:0
232,260,61604,2,0,B|132:260,1,97.4999975413081
80,260,62029,1,8,0:0:0
148,176,62312,2,0,B|296:176,2,146.249996311962,0|0|8,0:0|0:0|0:0,0:0:0
256,192,63444,12,0,64859,0:0:0
392,176,65425,5,2,0:0:0
352,140,65566,1,0,0:0:0
304,116,65708,2,0,B|256:92|200:120,2,97.4999975413081,0|2|0,0:0|0:0|0:0,0:0:0
304,224,66557,1,2,0:0:0
304,224,66698,1,0,0:0:0
112,123,67972,6,0,B|176:87|252:127,1,130.000000596046,4|8,0:0|0:0,0:0:0
237,262,68538,2,0,B|175:294|111:258,1,130.000000596046,0|8,0:0|0:0,0:0:0
60,192,68963,1,0,0:0:0
136,192,69104,2,0,B|268:192,1,130.000000596046,0|8,0:0|0:0,0:0:0
336,192,69529,1,0,0:0:0
404,172,69670,1,0,0:0:0
404,100,69812,1,0,0:0:0
336,80,69953,2,0,B|268:80,1,65.000000298023,8|0,0:0|0:0,0:0:0
200,80,70236,2,0,B|136:80,2,65.000000298023,0|0|8,0:0|0:0|0:0,0:0:0
200,224,70802,1,0,0:0:0
200,224,70944,1,0,0:0:0
200,224,71085,6,0,B|200:292|260:336,1,130.000000596046,8|0,0:0|0:0,0:0:0
332,336,71510,1,0,0:0:0
404,336,71651,2,0,B|472:336,1,65.000000298023,8|0,0:0|0:0,0:0:0
468,264,71934,2,0,B|468:200,1,65.000000298023
468,128,72217,1,8,0:0:0
436,60,72359,2,0,B|400:36|348:36,1,65.000000298023,0|4,0:0|0:0,0:0:0
302,37,72642,1,0,0:0:0
229,37,72783,1,8,0:0:0
304,236,73349,6,0,B|172:236,1,130.000000596046,8|0,0:0|0:0,0:0:0
176,92,73915,2,0,B|308:92,1,130.000000596046,8|0,0:0|0:0,0:0:0
320,164,74340,1,0,0:0:0
248,164,74481,2,0,B|112:164,2,130.000000596046,8|0|8,0:0|0:0|0:0,0:0:0
248,236,75189,2,0,B|308:268|308:344,1,130.000000596046
236,344,75613,2,0,B|172:344|112:296,2,130.000000596046,8|0|8,0:0|0:0|0:0,0:0:0
324,72,76746,6,0,B|388:72,2,65.000000298023,8|0|4,0:0|0:0|0:0,0:0:0
252,72,77170,1,0,0:0:0
180,72,77312,2,0,B|180:144,1,65.000000298023,8|0,0:0|0:0,0:0:0
180,208,77595,1,0,0:0:0
108,208,77736,6,0,B|44:208,2,65.000000298023,0|8|0,0:0|0:0|0:0,0:0:0
108,280,78161,2,0,B|240:280,1,130.000000596046,0|8,0:0|0:0,0:0:0
308,280,78585,2,0,B|376:280|428:224,1,130.000000596046
424,156,79010,5,8,0:0:0
424,84,79151,2,0,B|360:84,1,65.000000298023
296,120,79434,1,0,0:0:0
224,120,79576,2,0,B|152:120,1,65.000000298023,8|0,0:0|0:0,0:0:0
104,164,79859,1,0,0:0:0
32,164,80000,2,0,B|32:232|80:292,1,130.000000596046,0|4,0:0|0:0,0:0:0
216,284,80566,5,0,0:0:0
288,284,80708,2,0,B|356:284|408:228,2,130.000000596046,8|0|8,0:0|0:0|0:0,0:0:0
256,192,81557,12,8,82972,0:0:0
116,144,83538,6,0,B|184:144,1,65.000000298023,8|0,0:0|0:0,0:0:0
180,216,83821,2,0,B|116:216,1,65.000000298023
112,288,84104,2,0,B|244:288,2,130.000000596046,8|0|8,0:0|0:0|0:0,0:0:0
40,288,84812,2,0,B|20:220|40:152,1,130.000000596046
72,96,85236,2,0,B|120:44|192:28,2,130.000000596046,8|0|8,0:0|0:0|0:0,0:0:0
72,168,85944,1,0,0:0:0
72,240,86085,2,0,B|120:292|192:308,1,130.000000596046,4|8,0:0|0:0,0:0:0
340,264,86651,5,0,0:0:0
412,264,86793,1,0,0:0:0
484,264,86934,2,0,B|504:200|480:128,1,130.000000596046,8|0,0:0|0:0,0:0:0
412,136,87359,1,0,0:0:0
340,136,87500,2,0,B|276:136|216:184,1,130.000000596046,8|0,0:0|0:0,0:0:0
168,232,87925,1,0,0:0:0
116,284,88066,2,0,B|48:284,2,65.000000298023,8|0|0,0:0|0:0|0:0,0:0:0
168,336,88491,1,0,0:0:0
240,336,88632,2,0,B|304:336|364:288,1,130.000000596046,8|0,0:0|0:0,0:0:0
360,148,89198,6,0,B|304:108,2,65.000000298023,8|0|0,0:0|0:0|0:0,0:0:0
412,200,89623,1,0,0:0:0
464,252,89764,2,0,B|444:320|360:340,1,130.000000596046,8|0,0:0|0:0,0:0:0
300,336,90189,1,0,0:0:0
228,336,90330,2,0,B|156:319|136:251,1,130.000000596046,8|4,0:0|0:0,0:0:0
180,192,90755,1,0,0:0:0
180,192,90896,6,0,B|180:56,1,130.000000596046,8|0,0:0|0:0,0:0:0
253,62,91321,1,0,0:0:0
326,62,91463,2,0,B|326:192,2,130.000000596046,8|0|8,0:0|0:0|0:0,0:0:0
400,64,92170,2,0,B|451:112|451:195,1,130.000000596046
496,236,92595,2,0,B|464:296|382:319,1,130.000000596046,8|4,0:0|0:0,0:0:0
350,185,93161,1,8,0:0:0
236,92,93444,1,0,0:0:0
128,196,93727,5,8,0:0:0
128,196,93868,2,0,B|128:268|212:312,1,130.000000596046,4|0,0:0|0:0,0:0:0
264,304,94293,2,0,B|340:304,1,65.000000298023,8|0,0:0|0:0,0:0:0
329,232,94576,2,0,B|257:232,1,65.000000298023
264,160,94859,2,0,B|332:160|392:124,2,130.000000596046,8|4|8,0:0|0:0|0:0,0:0:0
192,160,95566,1,0,0:0:0
192,88,95708,2,0,B|124:88|64:52,2,130.000000596046,0|8|0,0:0|0:0|0:0,0:0:0
336,92,96557,5,8,0:0:0
336,270,96840,1,0,0:0:0
268,292,96981,1,0,0:0:0
196,292,97123,2,0,B|128:292,1,65.000000298023,8|0,0:0|0:0,0:0:0
56,268,97406,2,0,B|56:200|112:152,1,130.000000596046,4|8,0:0|0:0,0:0:0
159,103,97830,1,4,0:0:0
372,104,98255,5,4,0:0:0
444,104,98396,2,0,B|444:172|412:232,1,130.000000596046,4|0,0:0|0:0,0:0:0
341,229,98821,1,8,0:0:0
269,229,98963,2,0,B|200:229|199:229,3,65.000000298023
132,229,99529,2,0,B|67:229,1,65.000000298023,0|4,0:0|0:0,0:0:0
144,104,108727,5,4,0:0:0
216,104,108868,2,0,B|284:116|340:176,1,130.000000596046
180,320,109576,1,8,0:0:0
180,320,109717,1,0,0:0:0
400,324,110142,6,0,B|400:192,1,130.000000596046,8|0,0:0|0:0,0:0:0
323,190,110566,1,0,0:0:0
324,118,110708,2,0,B|195:118,2,130.000000596046,8|0|8,0:0|0:0|0:0,0:0:0
396,120,111415,1,0,0:0:0
396,192,111557,1,0,0:0:0
396,192,111698,1,0,0:0:0
324,190,111840,2,0,B|188:190,1,130.000000596046,8|0,0:0|0:0,0:0:0
194,336,112406,5,8,0:0:0
194,191,112689,1,0,0:0:0
194,46,112972,1,8,0:0:0
304,100,113255,6,0,B|368:100,2,65.000000298023,0|0|8,0:0|0:0|0:0,0:0:0
232,100,113679,1,0,0:0:0
160,100,113821,2,0,B|80:100,1,65.000000298023
64,164,114104,1,8,0:0:0
92,229,114246,1,0,0:0:0
356,260,114670,6,0,B|400:196|352:132,2,130.000000596046,8|0|8,0:0|0:0|0:0,0:0:0
284,260,115378,1,0,0:0:0
212,260,115519,2,0,B|80:260,1,130.000000596046,0|8,0:0|0:0,0:0:0
80,188,115944,1,0,0:0:0
80,116,116085,2,0,B|92:52|92:52|168:24,2,130.000000596046,0|8|0,0:0|0:0|0:0,0:0:0
144,148,116793,5,0,0:0:0
216,148,116934,1,8,0:0:0
216,220,117076,1,0,0:0:0
216,292,117217,2,0,B|140:292,2,65.000000298023,0|0|8,0:0|0:0|0:0,0:0:0
288,292,117642,1,0,0:0:0
360,292,117783,6,0,B|360:364,2,65.000000298023,4|0|2,0:0|0:0|0:0,0:0:0
432,292,118208,2,0,B|432:224|432:224|380:176,1,130.000000596046
386,181,118632,1,2,0:0:0
264,40,119198,5,8,0:0:0
192,164,119481,1,0,0:0:0
336,164,119764,2,0,B|336:232|280:284,1,130.000000596046,8|2,0:0|0:0,0:0:0
212,284,120189,1,2,0:0:0
160,224,120330,2,0,B|116:276|156:344,1,130.000000596046,8|0,0:0|0:0,0:0:0
84,348,120755,1,0,0:0:0
64,276,120896,2,0,B|64:208|112:152,2,130.000000596046,8|0|8,0:0|0:0|0:0,0:0:0
204,268,121746,5,0,0:0:0
348,268,122029,1,8,0:0:0
492,268,122312,2,0,B|492:200|436:152,1,130.000000596046,0|8,0:0|0:0,0:0:0
368,152,122736,2,0,B|296:152,2,65.000000298023
408,92,123161,2,0,B|356:52|272:48,2,130.000000596046,8|0|8,0:0|0:0|0:0,0:0:0
408,92,123868,1,0,0:0:0
364,228,124151,5,0,0:0:0
364,228,124293,2,0,B|232:228,2,130.000000596046,8|0|8,0:0|0:0|0:0,0:0:0
364,156,125000,1,0,0:0:0
296,128,125142,1,0,0:0:0
228,156,125283,1,0,0:0:0
156,156,125425,2,0,B|92:156|44:96,1,130.000000596046,8|0,0:0|0:0,0:0:0
49,244,125991,1,8,0:0:0
192,244,126274,2,0,B|256:244,3,65.000000298023,0|0|8|0,0:0|0:0|0:0|0:0,0:0:0
328,244,126840,6,0,B|384:244|428:196,2,97.4999975413081,4|8|0,0:0|0:0|0:0,0:0:0
288,208,127547,1,0,0:0:0
252,168,127689,1,8,0:0:0
216,128,127830,1,0,0:0:0
177,89,127972,2,0,B|104:88|48:164,1,146.249996311962
52,212,128538,1,0,0:0:0
52,320,128821,6,0,B|156:320,1,97.4999975413081,8|0,0:0|0:0,0:0:0
256,320,129387,2,0,B|308:320|348:280,1,97.4999975413081,8|0,0:0|0:0,0:0:0
419,208,129953,1,8,0:0:0
419,208,130095,1,0,0:0:0
156,256,130802,6,0,B|156:200|108:164,2,97.4999975413081,0|8|4,0:0|0:0|0:0,0:0:0
317,256,131651,1,8,0:0:0
317,256,131793,2,0,B|392:256|452:200,1,146.249996311962,0|8,0:0|0:0,0:0:0
352,156,132500,6,0,B|352:108,2,48.7499987706541,0|0|8,0:0|0:0|0:0,0:0:0
300,156,132925,2,0,B|200:156,1,97.4999975413081
148,156,133349,1,8,0:0:0
256,192,133632,12,0,135047,0:0:0
120,292,135613,5,8,0:0:0
172,292,135755,1,0,0:0:0
224,292,135896,2,0,B|408:296|444:136,1,292.499992623924,0|8,0:0|0:0,0:0:0
412,96,136887,1,0,0:0:0
364,68,137029,1,0,0:0:0
312,52,137170,5,0,0:0:0
257,52,137312,1,8,0:0:0
202,52,137453,1,0,0:0:0
147,52,137595,2,0,B|47:52,2,97.4999975413081,0|8|4,0:0|0:0|0:0,0:0:0
256,148,138444,5,8,0:0:0
113,208,138727,2,0,B|36:208,2,65.000000298023,0|0|8,0:0|0:0|0:0,0:0:0
113,279,139151,1,0,0:0:0
184,279,139293,2,0,B|250:279|328:312,1,130.000000596046,0|8,0:0|0:0,0:0:0
376,328,139717,2,0,B|412:272|480:232,1,130.000000596046
500,172,140142,2,0,B|440:152|404:80,2,130.000000596046,8|0|8,0:0|0:0|0:0,0:0:0
364,228,140991,1,0,0:0:0
228,264,141274,5,8,0:0:0
156,264,141415,2,0,B|92:264,1,65.000000298023
60,200,141698,1,0,0:0:0
92,136,141840,2,0,B|224:136,1,130.000000596046,8|0,0:0|0:0,0:0:0
252,200,142264,1,0,0:0:0
284,264,142406,2,0,B|352:264|400:212,2,130.000000596046,8|4|8,0:0|0:0|0:0,0:0:0
188,156,143255,1,0,0:0:0
72,72,143538,5,8,0:0:0
188,156,143821,1,0,0:0:0
300,68,144104,1,8,0:0:0
408,160,144387,1,0,0:0:0
412,304,144670,6,0,B|352:280|272:308,2,130.000000596046,8|0|8,0:0|0:0|0:0,0:0:0
412,228,145378,2,0,B|348:208|280:232,1,130.000000596046
212,232,145802,2,0,B|160:232|120:180|120:120,2,130.000000596046,8|0|8,0:0|0:0|0:0,0:0:0
348,184,146651,1,0,0:0:0
448,60,146934,5,8,0:0:0
372,60,147076,1,0,0:0:0
300,60,147217,2,0,B|257:108,1,65.000000298023,4|0,0:0|0:0,0:0:0
256,180,147500,1,8,0:0:0
256,252,147642,2,0,B|208:296|136:296,1,130.000000596046
136,224,148066,5,8,0:0:0
136,152,148208,1,0,0:0:0
136,80,148349,2,0,B|204:56|268:84,1,130.000000596046,0|8,0:0|0:0,0:0:0
263,154,148774,2,0,B|392:154,1,130.000000596046,0|0,0:0|0:0,0:0:0
464,156,149198,5,8,0:0:0
464,228,149340,1,0,0:0:0
392,228,149481,2,0,B|328:228|264:268,1,130.000000596046,0|8,0:0|0:0,0:0:0
212,312,149906,2,0,B|120:312|118:313,2,65.000000298023
204,240,150330,1,8,0:0:0
222,167,150472,6,0,B|167:85|56:68,1,195.000000894069,4|8,0:0|0:0,0:0:0
16,208,151179,2,0,B|56:272|144:288,1,130.000000596046,0|8,0:0|0:0,0:0:0
256,192,151746,12,8,153161,0:0:0
356,264,153727,6,0,B|420:264,2,65.000000298023,8|0|0,0:0|0:0|0:0,0:0:0
252,164,154293,2,0,B|120:164,1,130.000000596046,4|0,0:0|0:0,0:0:0
216,60,154859,1,4,0:0:0
216,60,155000,2,0,B|312:60|396:128,1,195.000000894069,0|8,0:0|0:0,0:0:0
394,270,155708,2,0,B|326:270,1,65.000000298023
276,220,155991,2,0,B|200:220,1,65.000000298023,8|0,0:0|0:0,0:0:0
140,220,156274,1,4,0:0:0
140,77,156557,5,8,0:0:0
282,77,156840,2,0,B|352:77|408:128,1,130.000000596046,0|8,0:0|0:0,0:0:0
348,172,157264,1,0,0:0:0
400,224,157406,2,0,B|350:268|280:268,1,130.000000596046,0|8,0:0|0:0,0:0:0
208,264,157830,1,0,0:0:0
132,264,157972,2,0,B|132:200|64:152,2,130.000000596046,0|8|0,0:0|0:0|0:0,0:0:0
204,140,158821,1,8,0:0:0
348,140,159104,5,0,0:0:0
396,192,159246,1,0,0:0:0
396,264,159387,1,8,0:0:0
344,316,159529,2,0,B|212:316,1,130.000000596046
214,316,159953,1,8,0:0:0
144,192,160236,5,0,0:0:0
256,104,160519,1,8,0:0:0
368,192,160802,2,0,B|500:192,1,130.000000596046,4|8,0:0|0:0,0:0:0
472,124,161227,1,0,0:0:0
440,60,161368,2,0,B|308:60,1,130.000000596046,0|8,0:0|0:0,0:0:0
168,60,161934,6,0,B|112:96|112:172,1,130.000000596046,0|8,0:0|0:0,0:0:0
184,172,162359,1,0,0:0:0
184,172,162500,1,0,0:0:0
348,208,162783,1,8,0:0:0
236,300,163066,2,0,B|176:276|104:304,1,130.000000596046,4|8,0:0|0:0,0:0:0
108,160,163632,6,0,B|108:96,1,65.000000298023
180,96,163915,2,0,B|180:32,1,65.000000298023,0|4,0:0|0:0,0:0:0
256,220,164481,1,8,0:0:0
396,192,164764,1,0,0:0:0
300,84,165047,1,8,0:0:0
184,168,165330,6,0,B|148:224|180:296,1,130.000000596046,4|8,0:0|0:0,0:0:0
252,296,165755,1,0,0:0:0
324,296,165896,2,0,B|392:296,1,65.000000298023
460,296,166179,2,0,B|484:264|484:212,1,65.000000298023,8|0,0:0|0:0,0:0:0
412,92,166746,6,0,B|348:92|348:92|280:132,2,130.000000596046,8|0|8,0:0|0:0|0:0,0:0:0
428,160,167453,1,0,0:0:0
408,228,167595,2,0,B|340:228,1,65.000000298023,4|0,0:0|0:0,0:0:0
272,228,167878,1,8,0:0:0
272,228,168019,2,0,B|200:228,1,65.000000298023,4|0,0:0|0:0,0:0:0
180,160,168302,1,0,0:0:0
108,124,168444,6,0,B|156:76,2,65.000000298023,8|0|0,0:0|0:0|0:0,0:0:0
104,196,168868,1,0,0:0:0
148,252,169010,1,8,0:0:0
208,292,169151,1,0,0:0:0
280,304,169293,1,0,0:0:0
352,304,169434,2,0,B|420:304,3,65.000000298023,0|8|0|4,0:0|0:0|0:0|0:0,0:0:0
352,176,170142,5,12,0:0:0
256,68,170425,2,0,B|192:68|136:120,1,130.000000596046,0|8,0:0|0:0,0:0:0
138,117,170849,1,0,0:0:0
140,260,171132,1,0,0:0:0
140,260,171274,2,0,B|192:304|264:304,2,130.000000596046,8|0|8,0:0|0:0|0:0,0:0:0
260,184,172123,5,0,0:0:0
260,184,172264,1,0,0:0:0
260,184,172406,2,0,B|316:148|384:184,1,130.000000596046,8|0,0:0|0:0,0:0:0
384,328,172972,1,8,0:0:0
316,356,173113,1,0,0:0:0
244,356,173255,6,0,B|180:356,1,65.000000298023
208,288,173538,2,0,B|144:288,1,65.000000298023,8|0,0:0|0:0,0:0:0
168,220,173821,2,0,B|92:220,1,65.000000298023
32,220,174104,2,0,B|32:156,1,65.000000298023,8|0,0:0|0:0,0:0:0
82,104,174387,6,0,B|136:64|212:64,2,130.000000596046,4|8|0,0:0|0:0|0:0,0:0:0
196,192,175236,1,8,0:0:0
268,192,175378,1,0,0:0:0
412,192,175661,1,0,0:0:0
412,120,175802,2,0,B|372:64|300:64,1,130.000000596046,8|0,0:0|0:0,0:0:0
228,64,176227,1,0,0:0:0
156,64,176368,2,0,B|88:64,1,65.000000298023
92,136,176651,5,0,0:0:0
96,208,176793,1,0,0:0:0
136,268,176934,2,0,B|268:268,1,130.000000596046,8|0,0:0|0:0,0:0:0
388,192,177500,1,8,0:0:0
388,192,177642,2,0,B|424:136|424:136|372:64,1,130.000000596046
316,84,178066,2,0,B|184:84,1,130.000000596046,8|0,0:0|0:0,0:0:0
184,156,178491,2,0,B|116:156,3,65.000000298023,0|4|0|4,0:0|0:0|0:0|0:0,0:0:0
172,104,190236,6,0,B|276:104,1,97.4999975413081,4|2,0:0|0:0,0:0:0
336,192,190802,2,0,B|260:192|200:252,1,146.249996311962,0|0,0:0|0:0,0:0:0
148,248,191368,2,0,B|92:192|16:192,1,146.249996311962,0|0,0:0|0:0,0:0:0
20,192,191934,1,0,0:0:0
108,124,192217,2,0,B|208:124,1,97.4999975413081,2|2,0:0|0:0,0:0:0
336,132,193349,5,2,0:0:0
336,132,193491,2,0,B|364:176|336:224,1,97.4999975413081
284,224,193915,2,0,B|184:224,1,97.4999975413081,2|0,0:0|0:0,0:0:0
80,224,194481,1,2,0:0:0
80,172,194623,2,0,B|104:104|192:76,1,146.249996311962,0|2,0:0|0:0,0:0:0
399,78,195613,5,2,0:0:0
399,78,195755,2,0,B|399:176,1,97.4999975413081
400,228,196179,2,0,B|372:276|300:288,2,97.4999975413081,2|0|2,0:0|0:0|0:0,0:0:0
300,192,197029,2,0,B|220:204|144:148,2,146.249996311962,2|0|2,0:0|0:0|0:0,0:0:0
256,192,198019,12,0,199293,0:0:0
196,236,200142,5,8,0:0:0
196,164,200283,1,0,0:0:0
248,112,200425,2,0,B|380:112,1,130.000000596046,4|8,0:0|0:0,0:0:0
380,184,200849,1,0,0:0:0
380,256,200991,2,0,B|444:256,1,65.000000298023
445,327,201274,6,0,B|380:328,1,65.000000298023,8|0,0:0|0:0,0:0:0
308,328,201557,2,0,B|244:328|180:276,1,130.000000596046,0|8,0:0|0:0,0:0:0
116,284,201981,2,0,B|52:284,1,65.000000298023
52,212,202264,5,0,0:0:0
100,156,202406,2,0,B|100:92,1,65.000000298023,8|0,0:0|0:0,0:0:0
171,91,202689,2,0,B|300:91,1,130.000000596046,0|8,0:0|0:0,0:0:0
372,92,203113,2,0,B|372:160|420:228,1,130.000000596046
348,252,203538,1,8,0:0:0
276,252,203679,2,0,B|196:192|88:192,1,195.000000894069,4|8,0:0|0:0,0:0:0
188,84,204387,5,0,0:0:0
332,84,204670,2,0,B|352:148|424:192,1,130.000000596046,8|4,0:0|0:0,0:0:0
411,326,205236,1,8,0:0:0
268,326,205519,5,0,0:0:0
268,326,205661,1,0,0:0:0
268,326,205802,1,8,0:0:0
180,212,206085,1,0,0:0:0
180,212,206227,1,0,0:0:0
180,212,206368,1,8,0:0:0
268,100,206651,1,0,0:0:0
268,100,206793,1,0,0:0:0
268,100,206934,2,0,B|336:100,2,65.000000298023,8|0|0,0:0|0:0|0:0,0:0:0
268,242,207500,6,0,B|340:242|392:204,2,130.000000596046,4|0|4,0:0|0:0|0:0,0:0:0
268,242,208208,1,0,0:0:0
124,240,208491,1,0,0:0:0
84,180,208632,1,8,0:0:0
124,120,208774,2,0,B|192:120,1,65.000000298023
260,120,209057,2,0,B|324:120,1,65.000000298023,0|8,0:0|0:0,0:0:0
360,180,209340,1,0,0:0:0
328,244,209481,1,4,0:0:0
224,344,209764,5,8,0:0:0
368,340,210047,1,0,0:0:0
428,300,210189,1,0,0:0:0
428,228,210330,1,8,0:0:0
428,84,210613,2,0,B|372:48|300:48,1,130.000000596046,0|8,0:0|0:0,0:0:0
232,48,211038,2,0,B|156:48|84:100,1,130.000000596046
108,156,211463,2,0,B|108:292,2,130.000000596046,8|0|12,0:0|0:0|0:0,0:0:0
252,184,212312,5,0,0:0:0
324,184,212453,1,0,0:0:0
396,184,212595,2,0,B|396:248,2,65.000000298023,8|0|0,0:0|0:0|0:0,0:0:0
396,112,213019,1,0,0:0:0
332,76,213161,2,0,B|272:44|200:80,1,130.000000596046,8|0,0:0|0:0,0:0:0
124,192,213727,1,8,0:0:0
196,316,214010,6,0,B|328:336|452:292,1,260.000001192092,4|0,0:0|0:0,0:0:0
452,220,214717,1,0,0:0:0
452,148,214859,2,0,B|404:100|328:100,1,130.000000596046,8|0,0:0|0:0,0:0:0
128,136,215566,6,0,B|128:200|176:260,1,130.000000596046
172,255,215991,1,8,0:0:0
315,255,216274,2,0,B|388:255|444:320,1,130.000000596046,4|8,0:0|0:0,0:0:0
430,162,216840,1,0,0:0:0
372,120,216981,1,0,0:0:0
300,120,217123,6,0,B|232:120|164:168,1,130.000000596046,8|0,0:0|0:0,0:0:0
88,272,217689,2,0,B|88:200,1,65.000000298023,8|0,0:0|0:0,0:0:0
88,136,217972,2,0,B|144:88,1,65.000000298023
208,96,218255,2,0,B|264:136,1,65.000000298023,8|0,0:0|0:0,0:0:0
260,204,218538,2,0,B|260:272,2,65.000000298023,4|0|8,0:0|0:0|0:0,0:0:0
387,267,219104,6,0,B|387:135|388:136,2,130.000000596046,0|8|0,0:0|0:0|0:0,0:0:0
328,308,219812,1,0,0:0:0
256,308,219953,2,0,B|208:260|136:260,1,130.000000596046,8|0,0:0|0:0,0:0:0
138,188,220378,1,0,0:0:0
138,188,220519,1,8,0:0:0
138,188,220661,1,0,0:0:0
136,116,220802,6,0,B|204:116,1,65.000000298023,4|0,0:0|0:0,0:0:0
272,116,221085,1,8,0:0:0
272,116,221227,2,0,B|344:116,1,65.000000298023,4|0,0:0|0:0,0:0:0
336,188,221510,5,0,0:0:0
336,188,221651,1,8,0:0:0
336,188,221793,2,0,B|268:188|216:240,1,130.000000596046
172,292,222217,1,8,0:0:0
100,292,222359,6,0,B|32:292,5,65.000000298023,0|0|0|8|0|4,0:0|0:0|0:0|0:0|0:0|0:0,0:0:0
256,192,223208,12,0,229859,0:0:0
120,128,231274,6,0,B|252:128,1,130.000000596046,8|0,0:0|0:0,0:0:0
250,199,231698,1,0,0:0:0
250,272,231840,2,0,B|380:272,1,130.000000596046,8|4,0:0|0:0,0:0:0
380,128,232406,1,8,0:0:0
256,56,232689,1,0,0:0:0
192,88,232830,2,0,B|112:132,1,65.000000298023,0|8,0:0|0:0,0:0:0
136,264,233255,5,0,0:0:0
188,316,233396,1,0,0:0:0
260,316,233538,1,8,0:0:0
404,312,233821,2,0,B|476:312,2,65.000000298023,0|0|8,0:0|0:0|0:0,0:0:0
404,168,234387,6,0,B|404:104,1,65.000000298023,4|0,0:0|0:0,0:0:0
332,104,234670,1,8,0:0:0
332,104,234812,2,0,B|264:104,1,65.000000298023,4|0,0:0|0:0,0:0:0
122,104,235236,1,8,0:0:0
122,104,235378,2,0,B|96:164|124:236,1,130.000000596046
176,280,235802,1,8,0:0:0
248,280,235944,2,0,B|248:352,2,65.000000298023
320,280,236368,2,0,B|388:280,2,65.000000298023,8|0|4,0:0|0:0|0:0,0:0:0
