osu file format v9

[General]
AudioFilename: 01 Serment.mp3
AudioLeadIn: 0
PreviewTime: 66840
Countdown: 0
SampleSet: Soft
StackLeniency: 0.7
Mode: 0
LetterboxInBreaks: 1

[Editor]
Bookmarks: 20425,34010,38538,56651,67972,99670,108727,126840,138161,149198,169859,178915,189104,200425,223066,236651
DistanceSpacing: 1
BeatDivisor: 4
GridSize: 4

[Metadata]
Title:Serment
Artist:Kawada Mami
Creator:f e a r
Version:EaCXy
Source:Shakugan no Shana III (Final)
Tags:CXu Opening

[Difficulty]
HPDrainRate:2
CircleSize:3
OverallDifficulty:2
ApproachRate:3
SliderMultiplier:0.799999999999999
SliderTickRate:1

[Events]
//Background and Video events
0,0,"Well Shana.jpg"
//Break Periods
2,29681,37098
2,99870,107287
2,179115,188796
//Storyboard Layer 0 (Background)
//Storyboard Layer 1 (Fail)
//Storyboard Layer 2 (Pass)
//Storyboard Layer 3 (Foreground)
//Storyboard Sound Samples
//Background Colour Transformations
3,100,163,162,255

[TimingPoints]
1180,283.018867924528,4,2,1,60,1,0
56651,-133.333333333333,4,2,1,60,0,0
67972,-100,4,2,1,80,0,1
99670,-100,4,2,1,80,0,0
108727,-100,4,2,1,60,0,0
126840,-133.333333333333,4,2,1,60,0,0
138161,-100,4,2,1,80,0,1
169859,-100,4,2,1,70,0,0
190236,-133.333333333333,4,2,1,40,0,0
197170,-133.333333333333,4,2,1,5,0,0
199576,-100,4,2,1,60,0,0
200425,-100,4,2,1,90,0,1
223066,-100,4,2,1,80,0,1
236651,-100,4,2,1,80,0,0

[Colours]
Combo1 : 251,74,74
Combo2 : 163,133,101
Combo3 : 215,92,2

[HitObjects]
68,64,20425,1,4
68,143,20708,1,8
68,222,20991,2,0,B|68:304|68:304|108:320|144:304,1,160
220,276,21840,1,8
284,228,22123,1,0
280,68,22689,5,0
356,44,22972,1,8
436,56,23255,2,0,B|476:84|464:148|464:148|484:216,1,160,0|0
444,276,24104,1,8
380,328,24387,6,0,B|304:356|216:328,1,160,2|2
124,264,25378,2,0,B|124:144,1,120,2|2
160,72,26085,5,0
256,200,26651,1,2
352,72,27217,6,0,B|408:112|368:180|368:180|340:236|364:292|364:292|412:292,2,280,2|2|8
276,48,29481,1,4
136,116,38538,6,0,B|92:156|92:224|128:260,1,160,8|0
192,308,39387,1,8
348,268,39953,5,8
384,196,40236,2,8,B|396:160|392:116,1,79.9999999999999,0|8
332,64,40802,2,0,B|272:128|205:89|136:48|64:108,1,280,8|8
120,216,42217,2,0,B|72:288,2,79.9999999999999,2|2|2
192,184,43066,6,0,B|280:168|324:256,1,160,8|0
292,328,43915,1,8
132,328,44481,5,8
68,280,44764,1,0
56,200,45047,1,8
256,192,45330,12,12,47595
348,276,48444,5,8
212,192,49010,1,8
132,200,49293,2,0,B|96:180|92:128,1,79.9999999999999,0|8
144,72,49859,2,0,B|204:40|284:64|272:148|336:180|400:156,1,280,8|8
388,280,51274,5,2
312,304,51557,1,2
236,324,51840,1,2
156,328,52123,6,0,B|92:312|72:248,2,120,4|2|8
184,252,53255,2,0,B|248:236|268:172,2,120,2|2|8
132,192,54387,1,8
172,124,54670,1,8
256,192,54953,12,4,56651
183,192,57783,6,0,B|173:240|218:288|293:288|338:240|328:192,2,239.999992847443,8|8|8
256,68,60613,5,8
256,148,60896,1,8
296,216,61179,2,0,B|320:264|380:280,2,89.999997317791,4|2|0
218,216,62312,2,0,B|194:264|134:280,2,89.999997317791,4|2|0
256,192,63444,12,2,65708
404,64,66840,6,0,B|284:64,1,119.999996423721,2|8
200,64,67689,1,8
120,96,67972,1,4
56,284,68538,6,0,B|136:316|212:280,2,160,8|2|8
28,208,69953,1,8
60,136,70236,1,4
288,60,71085,6,0,B|404:180,1,160,8|8
428,248,71934,1,0
396,320,72217,1,8
320,292,72500,1,4
104,356,73349,6,0,B|60:192,1,160,8|8
132,164,74198,1,0
208,192,74481,1,8
284,220,74764,5,4
372,140,75189,1,2
464,216,75613,2,0,B|516:152|492:60|436:24|388:24,1,240,8|0
320,32,76746,5,8
248,68,77029,2,0,B|148:132,1,120,4|2
36,180,77878,5,8
104,220,78161,2,2,B|212:280,1,120,8|2
325,294,79010,5,8
393,254,79293,2,0,B|501:194,1,120,8|2
497,115,80000,1,8
432,68,80283,6,0,B|376:48|312:68,1,120,4|8
256,124,80991,1,0
197,67,81274,1,8
116,60,81557,2,0,B|12:136|16:308|124:388|284:336,1,479.999999999999,4|0
412,260,83821,5,8
328,256,84104,1,8
256,220,84387,2,0,B|220:168|228:104,2,120,8|8|8
180,248,85519,5,0
104,224,85802,1,8
40,272,86085,1,4
188,324,86651,6,0,B|268:356|344:324,2,160,8|2|0
148,256,88066,1,8
148,176,88349,1,4
364,76,89198,6,0,B|304:144|356:224,1,160,8|8
424,268,90047,1,0
396,344,90330,1,8
320,304,90613,6,0,B|272:264|224:292|164:304|112:232|140:160,1,240,4|8
136,116,91746,1,0
288,72,92312,1,0
368,60,92595,1,8
400,132,92878,1,4
256,308,93727,6,0,B|204:332|144:288|144:288|80:288,1,160,8|8
108,208,94576,2,0,B|162:208|162:208|192:224,1,79.9999999999999,0|8
268,208,95142,2,0,B|321:164|393:204|409:108,2,160,4|2|0
272,288,96557,5,8
212,340,96840,1,0
160,276,97123,1,8
128,204,97406,6,0,B|92:144|128:88,2,120,8|8|8
256,192,98538,12,4,99670
64,64,108727,6,0,B|224:64,1,160,8|0
276,124,109576,1,8
164,240,110142,5,8
200,312,110425,2,0,B|272:352,1,79.9999999999999,0|8
352,328,110991,2,0,B|416:328|424:276|424:276|452:88,1,280,8|8
348,156,112406,2,0,B|336:236,2,79.9999999999999,2|2|2
308,88,113255,6,0,B|288:40|288:40|176:24,1,160,8|0
120,76,114104,1,8
240,180,114670,5,8
304,228,114953,1,0
368,276,115236,1,8
256,192,115519,12,12,117784
420,68,119198,6,0,B|372:68|348:104,1,79.9999999999999,8|0
352,180,119765,1,8
352,260,120048,2,0,B|288:257|264:205|268:173|280:141|280:141|168:97,1,280,12|8
92,184,121463,5,2
68,260,121746,1,2
92,336,122029,1,2
171,336,122312,6,0,B|291:336,2,120,4|2|8
171,256,123444,2,0,B|291:256,2,120,2|2|8
171,176,124576,1,8
171,96,124859,1,8
256,192,125000,12,4,126840
352,264,127972,6,0,B|400:274|448:229|448:154|400:109|352:119,2,239.999992847443,8|8|8
228,192,130802,5,8
308,192,131085,1,8
376,232,131368,2,0,B|424:256|440:316,2,89.999997317791,4|2|0
376,154,132501,2,0,B|424:130|440:70,2,89.999997317791,4|2|0
256,192,133633,12,2,135897
168,92,137029,6,0,B|192:132|144:172|168:208,1,119.999996423721,2|8
220,268,137878,1,8
296,288,138161,1,4
356,140,138727,6,0,B|392:56|488:48,2,160,8|2|8
364,220,140142,2,0,B|388:300,1,79.9999999999999,8|4
148,308,141274,6,0,B|96:152,1,160,8|8
132,84,142123,1,0
208,64,142406,1,8
280,100,142689,1,4
456,264,143538,6,0,B|440:300|440:300|392:336|324:304,1,160,8|8
256,264,144387,1,0
176,276,144670,1,8
124,336,144953,5,4
64,232,145378,1,2
128,132,145802,2,0,B|196:64|288:176|360:112,1,240,8|0
412,60,146935,5,8
460,124,147218,2,0,B|460:248,1,120,4|2
392,344,148066,5,8
344,280,148349,2,0,B|344:156,1,120,8|2
280,56,149198,5,8
232,120,149481,2,0,B|232:244,1,120,8|2
180,300,150189,1,8
108,336,150472,6,0,B|80:320|80:320|60:264|60:264|32:252,1,120,4|8
34,172,151179,1,0
84,108,151463,1,8
160,80,151746,1,4
256,192,151887,12,8,153161
296,40,154010,5,8
216,40,154293,1,8
256,112,154576,2,0,B|256:240,2,120,8|8|8
336,112,155708,1,8
176,112,156274,1,4
56,216,156840,6,0,B|48:280|136:280|148:352,2,160,8|2|0
100,148,158255,2,0,B|136:116|184:136,1,79.9999999999999,8|4
284,344,159387,6,0,B|284:292|284:292|348:272|352:208,1,160,8|8
272,212,160236,1,0
312,144,160519,1,8
392,140,160802,6,0,B|456:180|444:264|396:324|364:340|364:340|364:364,1,240,4|8
284,344,161935,1,0
128,312,162500,2,0,B|48:292,2,79.9999999999999,0|8|4
240,100,163915,6,0,B|316:56|396:116,1,160,8|8
436,176,164764,1,0
420,256,165047,1,8
364,312,165330,2,0,B|288:356|208:296,2,160,4|2|0
320,244,166746,5,8
268,184,167029,1,0
212,124,167312,1,8
152,64,167595,6,0,B|97:39|97:39|41:63,2,120,8|8|8
256,192,168727,12,4,169859
180,264,170425,6,0,B|256:312|332:264,1,160,8|0
376,200,171274,2,0,B|408:164|452:168,2,79.9999999999999,0|8|0
304,160,172123,6,0,B|288:184|256:196|256:196|208:184|184:124,2,160,0|8|0
336,88,173538,2,0,B|368:8,2,79.9999999999999,0|8|0
268,44,174387,6,0,B|104:44,1,160,4|8
36,188,175519,1,0
108,224,175802,2,0,B|144:256|136:308,2,79.9999999999999,0|8|0
136,148,176651,6,0,B|208:100|292:140,2,160,0|8|0
192,208,178066,2,0,B|260:264,1,79.9999999999999,0|8
316,308,178632,1,0
395,308,178915,1,4
256,316,190236,5,4
256,68,192500,1,2
132,192,194764,1,2
380,192,197029,1,2
256,192,197170,12,0,199293
212,328,200142,5,8
136,308,200425,2,0,B|84:280|84:200,1,120,4|0
96,88,201274,5,8
172,68,201557,2,0,B|236:48|300:84,1,120,8|0
356,176,202406,5,8
280,196,202689,2,0,B|216:216|152:180,1,120,8|0
108,128,203396,1,8
76,200,203679,6,0,B|64:264|112:312,1,120,4|8
184,336,204387,1,0
256,300,204670,1,8
324,340,204953,2,0,B|396:312|392:196|300:176|300:176|348:124|304:56|304:56|380:56|380:56|416:56|400:120,1,479.999999999999,4|0
244,116,207217,5,8
164,104,207500,1,8
96,148,207783,2,0,B|56:204|88:264,2,120,8|8|8
156,212,208915,1,0
220,260,209198,1,8
284,212,209481,1,4
440,160,210047,6,0,B|440:100|380:80|380:80|348:24,2,160,8|2|0
356,160,211462,2,0,B|320:192|272:172,1,79.9999999999999,8|4
80,56,212594,6,0,B|80:108|80:108|148:192,1,160,8|8
204,248,213443,1,0
156,312,213726,1,8
236,320,214009,6,0,B|332:324|296:240|432:244|460:288,1,240,4|8
492,356,215142,1,0
492,196,215707,2,0,B|492:112,1,79.9999999999999,0|8
492,36,216274,1,4
252,32,217122,6,0,B|196:105|240:181,1,160,8|8
308,140,217971,1,0
364,196,218254,1,8
312,256,218537,2,0,B|236:300|156:240,2,160,4|2|0
344,332,219953,5,8
268,356,220236,1,0
188,348,220519,1,8
112,320,220802,2,0,B|64:280|60:216,1,120,8|8
104,104,221651,2,0,B|182:163|254:104|329:44|408:104,1,320,8|8
256,192,223066,12,4,227595
108,324,228727,6,0,B|192:356|192:356|256:324|256:324|320:292|320:292|404:324,2,320,8|8|8
0,216,231557,1,8
132,124,232123,6,0,B|212:96|288:124,1,160,4|8
376,260,233255,2,0,B|295:288|219:259,1,160,2|8
60,260,234387,5,8
160,192,234812,1,8
60,124,235236,2,0,B|16:124,1,40,8|8
140,104,235802,6,0,B|256:48|372:104,1,240,2|4
