osu file format v12

[General]
AudioFilename: Serment.mp3
AudioLeadIn: 2000
PreviewTime: 49802
Countdown: 0
SampleSet: Normal
StackLeniency: 0.7
Mode: 0
LetterboxInBreaks: 0
WidescreenStoryboard: 0

[Editor]
DistanceSpacing: 1
BeatDivisor: 2
GridSize: 4

[Metadata]
Title:Serment (TV Size)
TitleUnicode:Serment (TV Size)
Artist:Kawada Mami
ArtistUnicode:川田まみ
Creator:meetmeetdee
Version:Easy
Source:Shakugan no Shana III (Final)
Tags:opening LunaticP
BeatmapID:186899
BeatmapSetID:63202

[Difficulty]
HPDrainRate:2
CircleSize:3
OverallDifficulty:2
ApproachRate:3
SliderMultiplier:0.8
SliderTickRate:1

[Events]
//Background and Video events
Video,0,"movie 1.avi"
0,0,"BG.png",0,0
//Break Periods
//Storyboard Layer 0 (Background)
//Storyboard Layer 1 (Fail)
//Storyboard Layer 2 (Pass)
//Storyboard Layer 3 (Foreground)
//Storyboard Sound Samples
//Background Colour Transformations
3,100,163,162,255

[TimingPoints]
580,283.018867924528,4,1,1,60,1,0
11051,-100,4,1,1,50,0,0
19825,-100,4,1,1,40,0,0
49259,-100,4,1,1,60,0,1
80957,-100,4,1,1,60,0,0

[Colours]
Combo1 : 238,32,52
Combo2 : 106,145,81
Combo3 : 211,217,102
Combo4 : 0,255,255

[HitObjects]
256,192,580,1,0,0:0:0:0:
440,128,2844,6,0,B|448:272|320:312,1,240,0|0,0:0|0:0,0:0:0:0:
240,308,3976,1,0,0:0:0:0:
124,196,4542,1,8,0:0:0:0:
180,48,5108,6,0,P|256:24|336:48,1,160,0|8,0:0|0:0,0:0:0:0:
256,188,6240,2,0,L|256:276,2,80,0|0|8,0:0|0:0|0:0,0:0:0:0:
400,120,7372,6,0,B|496:120,2,80,0|0|8,0:0|0:0|0:0,0:0:0:0:
256,52,8504,2,0,P|220:120|256:192,1,160,0|8,0:0|0:0,0:0:0:0:
116,272,9636,6,0,P|256:340|392:268,1,320,0|4,2:0|0:0,0:0:0:0:
452,120,11334,1,0,0:0:0:0:
312,44,11900,6,0,P|264:32|224:40,1,80,0|8,0:0|0:0,0:0:0:0:
172,88,12466,2,0,P|208:160|280:200,1,160
432,172,13598,6,0,P|464:200|464:248,1,80,0|8,0:0|0:0,0:0:0:0:
484,312,14164,2,0,P|408:332|336:300,1,160
180,336,15296,6,0,P|176:296|156:260,1,80,0|8,0:0|0:0,0:0:0:0:
108,200,15863,2,0,P|96:120|128:48,2,160,0|0|8,0:0|0:0|0:0,0:0:0:0:
252,128,17561,6,0,P|296:128|332:144,1,80,0|8,0:0|0:0,0:0:0:0:
408,148,18127,2,0,P|452:100|448:8,2,160,0|0|8,0:0|0:0|0:0,0:0:0:0:
256,204,19825,6,0,B|136:204,2,120,4|0|0,0:0|0:0|0:0,0:0:0:0:
312,56,21240,2,0,L|416:56,2,80,8|0|8,0:0|0:0|0:0,0:0:0:0:
232,64,22089,6,0,P|184:112|96:112,1,160,0|8,0:0|0:0,0:0:0:0:
96,272,23221,2,0,P|144:320|232:320,1,160,0|8,0:0|0:0,0:0:0:0:
324,192,24353,6,0,L|444:192,2,120,0|0|8,0:0|0:0|0:0,0:0:0:0:
228,64,25768,2,0,B|124:64|104:168,1,160,8|8,0:0|0:0,0:0:0:0:
104,232,26617,6,0,B|124:320|252:320,1,160,0|0,0:0|0:0,0:0:0:0:
300,292,27466,2,0,P|364:192|312:92,1,240,8|0,0:0|0:0,0:0:0:0:
192,200,28881,6,0,P|160:244|96:256,2,120,4|0|8,0:0|0:0|0:0,0:0:0:0:
140,48,30296,2,0,P|96:40|60:56,2,80,8|0|8,0:0|0:0|0:0,0:0:0:0:
108,124,31146,6,0,B|200:160|264:104,1,160
272,28,31995,2,0,B|316:28|360:56,1,80,8|0,0:0|0:0,0:0:0:0:
420,88,32561,2,0,P|436:52|428:12,2,80,8|0|8,0:0|0:0|0:0,0:0:0:0:
350,135,33410,6,0,B|388:184|456:183|490:133,1,160,4|0,0:0|0:0,0:0:0:0:
480,296,34542,2,0,B|448:249|380:248|342:297,1,160
212,208,35674,2,0,P|180:248|148:268,1,80,0|8,0:0|0:0,0:0:0:0:
92,308,36240,2,0,B|127:358|195:358|232:304,2,160
144,156,37938,6,0,B|216:100|296:156,1,160,4|8,0:0|0:0,0:0:0:0:
240,304,39070,2,0,B|312:352|392:304,1,160,0|8,0:0|0:0,0:0:0:0:
328,156,40202,2,0,P|392:92|476:68,2,160,0|8|0,0:0|0:0|0:0,0:0:0:0:
280,220,41617,5,0,0:0:0:0:
256,296,41900,2,0,B|320:348|408:324,1,160,8|4,0:0|0:0,0:0:0:0:
472,176,43032,1,8,0:0:0:0:
384,40,43598,2,0,B|296:24|240:88,1,160,0|8,0:0|0:0,0:0:0:0:
256,192,44730,12,0,46995,0:0:0:0:
152,256,48127,6,0,L|312:256,2,160,0|0|4,0:0|0:0|0:0,0:0:0:0:
24,160,49825,5,8,0:0:0:0:
152,64,50391,2,0,B|312:64,1,160,0|8,0:0|0:0,0:0:0:0:
452,144,51523,1,0,0:0:0:0:
332,252,52089,6,0,P|388:308|472:316,2,160,8|0|8,0:0|0:0|0:0,0:0:0:0:
268,300,53504,1,0,0:0:0:0:
204,348,53787,2,0,P|124:352|56:308,1,160,0|8,0:0|0:0,0:0:0:0:
180,208,54919,6,0,P|260:204|328:248,1,160,0|8,0:0|0:0,0:0:0:0:
380,96,56051,2,0,P|300:100|232:56,1,160,0|8,0:0|0:0,0:0:0:0:
88,120,57183,1,0,0:0:0:0:
244,164,57749,1,8,0:0:0:0:
272,320,58315,6,0,P|168:320|136:264,1,160,0|8,0:0|0:0,0:0:0:0:
116,204,59164,1,0,0:0:0:0:
136,124,59447,2,0,P|168:76|264:76,1,160,0|8,0:0|0:0,0:0:0:0:
408,144,60579,6,0,P|444:212|408:280,1,160,0|8,0:0|0:0,0:0:0:0:
248,280,61712,2,0,P|212:208|248:144,1,160,0|8,0:0|0:0,0:0:0:0:
392,212,62844,6,0,L|392:48,2,160,0|8|0,0:0|0:0|0:0,0:0:0:0:
300,344,64542,1,8,0:0:0:0:
256,192,65108,6,0,P|212:116|132:124,1,160,0|8,0:0|0:0,0:0:0:0:
176,192,65957,1,0,0:0:0:0:
96,172,66240,2,0,B|48:284|124:388|256:376,1,320,0|4,0:0|0:0,0:0:0:0:
360,256,67938,6,0,B|408:208|408:136|360:88,1,160,8|0,0:0|0:0,0:0:0:0:
232,176,69070,1,8,0:0:0:0:
96,256,69636,2,0,B|48:208|48:136|96:88,1,160,0|8,0:0|0:0,0:0:0:0:
224,40,70768,1,0,0:0:0:0:
224,200,71334,1,8,0:0:0:0:
77,264,71900,6,0,B|24:192|80:116,1,160,0|8,0:0|0:0,0:0:0:0:
238,119,73032,2,0,B|292:192|236:268,1,160,0|8,0:0|0:0,0:0:0:0:
360,168,74164,1,0,0:0:0:0:
412,320,74730,1,8,0:0:0:0:
252,328,75296,6,0,B|180:276|100:328,2,160,0|8|4,0:0|0:0|0:0,0:0:0:0:
376,228,76995,2,0,B|420:148|376:68,1,160,8|0,0:0|0:0,0:0:0:0:
224,56,78127,1,8,0:0:0:0:
72,112,78693,6,0,P|24:136|8:208,2,120,0|0|0,0:0|0:0|0:0,0:0:0:0:
288,216,80391,2,0,L|376:216,2,80,8|0|4,0:0|0:0|0:0,0:0:0:0:
188,340,81523,5,8,0:0:0:0:
128,192,82089,2,0,P|156:112|224:96,1,160,0|8,0:0|0:0,0:0:0:0:
208,176,82938,2,0,L|272:232,1,80
428,252,83787,1,8,0:0:0:0:
456,96,84353,6,0,P|384:56|312:96,1,160,0|8,0:0|0:0,0:0:0:0:
384,136,85202,2,0,L|384:232,1,80
256,312,86051,1,8,0:0:0:0:
96,312,86617,6,0,L|-16:312,2,80,0|0|8,0:0|0:0|0:0,0:0:0:0:
176,312,87466,2,0,L|260:312,1,80
408,256,88315,2,0,P|452:184|412:116,1,160,8|0,0:0|0:0,0:0:0:0:
368,184,89164,1,0,0:0:0:0:
288,184,89447,6,0,L|164:184,1,120,8|8,0:0|0:0,0:0:0:0:
