osu file format v9

[General]
AudioFilename: See_visionS.mp3
AudioLeadIn: 0
PreviewTime: 60993
Countdown: 0
SampleSet: Normal
StackLeniency: 0.7
Mode: 0
LetterboxInBreaks: 1

[Editor]
Bookmarks: 12695
DistanceSpacing: 0.8
BeatDivisor: 4
GridSize: 32

[Metadata]
Title:See visionS (TV Size)
Artist:Kawada Mami
Creator:ignorethis
Version:Normal
Source:To Aru Majutsu no Index II
Tags:climbb65588 raildex rondo robe geneon universal toaru

[Difficulty]
HPDrainRate:3
CircleSize:4
OverallDifficulty:5
ApproachRate:5
SliderMultiplier:0.639999999999999
SliderTickRate:1

[Events]
//Background and Video events
0,0,"lolbg.png"
Video,0,"see_visions.avi"
//Break Periods
2,23687,31983
//Storyboard Layer 0 (Background)
//Storyboard Layer 1 (Fail)
//Storyboard Layer 2 (Pass)
//Storyboard Layer 3 (Foreground)
Sprite,Foreground,Centre,"SB\lyric1.png",320,240 F,0,13061,14158,0,1 M,0,13061,23670,398,134,263,134 F,0,14158,22573,1 F,0,22573,23670,1,0
Sprite,Foreground,Centre,"SB\lyric2.png",320,240 F,0,18548,19646,0,1 M,0,18548,23670,247,311,327,311 F,0,19646,22573,1 F,0,22573,23670,1,0
Sprite,Foreground,Centre,"SB\lyric3.png",320,240 F,0,24036,25134,0,1 M,0,24036,32817,176,103,392,102 F,0,25134,31719,1 F,0,31719,32817,1,0
Sprite,Foreground,Centre,"SB\lyric4.png",320,240 F,0,26963,28061,0,1 M,0,26963,32817,249,168,523,168 F,0,28061,31719,1 F,0,31719,32817,1,0
Sprite,Foreground,Centre,"SB\lyric5.png",320,240 F,0,29890,30987,0,1 M,0,29890,32817,488,360,220,359 F,0,30987,31719,1 F,0,31719,32817,1,0
Sprite,Foreground,Centre,"SB\lyric6.png",320,240 F,0,32817,33914,0,1 M,0,32817,36109,320,240,134,200 S,0,32817,36109,3.85696,1 F,0,33914,36109,1 F,0,36109,40866,1 M,0,36109,41963,134,200,222,200 F,0,40866,41963,1,0 M,0,41963,,222,200
Sprite,Foreground,Centre,"SB\lyric7.png",320,240 F,0,36109,37207,0,1 M,0,36109,41963,285,200,374,200 F,0,37207,40866,1 F,0,40866,41963,1,0
Sprite,Foreground,Centre,"SB\lyric8.png",320,240 F,0,41963,43061,0,1 M,0,41963,47451,469,92,267,90 F,0,43061,46353,1 F,0,46353,47451,1,0
Sprite,Foreground,Centre,"SB\lyric9.png",320,240 F,0,44524,45622,0,1 M,0,44524,47451,132,136,314,136 F,0,45622,46353,1 F,0,46353,47451,1,0
Sprite,Foreground,Centre,"SB\lyric11.png",320,240 M,0,47451,52939,182,232,209,231 F,0,51841,52939,1,0
Sprite,Foreground,Centre,"SB\lyric11.png",320,240 M,0,47451,,181,232 F,0,47451,47817,1,0 S,0,47451,47817,1,1.39936
Sprite,Foreground,Centre,"SB\lyric12.png",320,240 M,0,50378,52939,239,283,267,284 F,0,51841,52939,1,0
Sprite,Foreground,Centre,"SB\lyric12.png",320,240 M,0,50378,,239,281 F,0,50378,50744,1,0 S,0,50378,50744,1,1.36864
Sprite,Foreground,Centre,"SB\lyric13.png",320,240 F,0,53305,54402,0,1 M,0,53305,59524,382,340,322,343 F,0,54402,59524,1 F,0,59524,59890,1,0 S,0,59524,59890,1,1.54272
Sprite,Foreground,Centre,"SB\lyric14.png",320,240 F,0,59524,59890,0,1 S,0,59524,59890,2.34144,1 M,0,59524,66109,392,103,185,102 F,0,59890,65012,1 S,0,59890,66109,1 F,0,65012,66109,1 F,0,66109,66475,1,0 S,0,66109,66475,1,1.7168
Sprite,Foreground,Centre,"SB\lyric15.png",320,240 F,0,66475,66841,0,1 S,0,66475,66841,2.00352,1 M,0,66475,72695,268,360,387,359 F,0,66841,72329,1 S,0,66841,72329,1 F,0,72329,72695,1,0 S,0,72329,72695,1,1.32768
Sprite,Foreground,Centre,"SB\lyric16.png",320,240 F,0,72695,73792,0,1 M,0,72695,77817,320,174,404,172 F,0,73792,76719,1 F,0,76719,77817,1,0
Sprite,Foreground,Centre,"SB\lyric16.png",320,240 M,0,73792,,337,173 F,0,73792,74158,1,0 S,0,73792,74158,1,1.57344
Sprite,Foreground,Centre,"SB\lyric17.png",320,240 F,0,78183,88792,1 S,0,78183,88792,1 M,0,78183,89890,332,304,344,204 F,0,88792,89887,1,0 S,0,88792,89887,1,1.48128
Sprite,Foreground,Centre,"SB\lyric18.png",320,240 M,0,82573,89890,320,380,316,303 F,0,88792,89887,1,0 S,0,88792,89887,1,1.70656
Sprite,Foreground,Centre,"SB\lyric17.png",320,240 M,0,78183,,332,304 F,0,78183,78548,1,0 S,0,78183,78548,1,1.60416
Sprite,Foreground,Centre,"SB\lyric18.png",320,240 M,0,82573,,320,380 F,0,82573,82939,1,0 S,0,82573,82939,1,1.53248
Sprite,Foreground,Centre,"SB\sp1.PNG",320,240 F,0,6109,6841,0,1 M,0,6841,,320,240 F,0,6841,7573,1,0.01092899 S,0,6841,7573,1,1.53248
Sprite,Foreground,Centre,"SB\light.png",320,240 F,0,58792,59158,0,1 M,0,59158,,320,240 S,0,59158,59524,1 F,0,59158,60987,1 S,0,59524,60987,1,2.46432 F,0,60987,61353,1,0 S,0,60987,61353,2.46432,5
//Storyboard Sound Samples
//Background Colour Transformations
3,100,163,162,255

[TimingPoints]
988,365.853658536585,4,2,0,40,1,0
36109,-66.6666666666667,4,1,1,40,0,0
59433,-66.6666666666667,4,2,1,50,0,0
60987,-50,4,1,1,30,0,1
87237,-50,4,1,1,0,0,0

[Colours]
Combo1 : 255,128,192
Combo2 : 128,255,128
Combo3 : 0,128,255
Combo4 : 255,128,128
Combo5 : 255,255,128

[HitObjects]
64,99,13061,2,0,B|107:119|151:163,1,95.9999999999999
173,194,13975,2,0,B|218:174|276:164,1,95.9999999999999
314,155,14890,2,0,B|346:160|383:179,2,63.9999999999999,0|0|0
267,134,15987,1,0
218,119,16353,2,0,B|177:100|128:90,1,95.9999999999999
45,332,18731,5,0
45,332,18914,2,0,B|96:320|129:283,1,95.9999999999999
164,249,19829,2,0,B|210:275|250:315,1,95.9999999999999
279,340,20744,2,0,B|310:345|353:340,1,63.9999999999999
392,352,21475,6,0,B|408:290|447:224,1,128
455,184,22573,2,0,B|380:141|308:125,1,160,0|0
256,192,33183,12,4,36109
171,99,36475,6,0,B|130:66|65:81,2,95.999997138977,8|0|8
233,144,37573,2,0,B|292:158|346:138,1,95.999997138977,0|8
397,110,38305,2,0,B|426:159|400:204,1,95.999997138977,0|8
364,268,39036,6,0,B|436:293|502:352,2,143.999995708465,4|0|0
286,268,40500,2,0,B|214:293|148:352,2,143.999995708465,4|0|0
257,196,41963,6,0,B|263:146|223:92,1,95.999997138977,4|8
175,49,42695,2,0,B|125:58|69:91,1,95.999997138977,0|8
60,154,43427,2,0,B|66:206|104:260,3,95.999997138977,0|8|0|8
156,286,44890,6,0,B|88:326|32:369,2,143.999995708465,4|0|0
220,244,46353,2,0,B|293:243|368:246,2,143.999995708465,4|0|0
162,192,47817,6,0,B|131:161|98:107,2,95.999997138977,4|8|0
211,251,48914,1,8
161,192,49280,2,0,B|130:223|97:277,2,95.999997138977,0|8|0
210,133,50377,1,8
258,192,50744,6,0,B|289:223|322:277,2,95.999997138977,4|8|0
209,133,51841,1,8
259,192,52207,2,0,B|290:161|323:107,2,95.999997138977,4|8|0
210,251,53304,1,8
164,313,53670,6,0,B|107:282|67:341|20:310,2,143.999995708465,4|0|0
234,344,55134,2,0,B|291:375|331:316|378:347,2,143.999995708465,4|0|0
161,318,56597,2,8,B|118:300|67:296,1,95.999997138977
48,221,57329,2,8,B|101:200|152:201,1,95.999997138977
141,201,57878,1,8
256,192,58061,12,4,59524
132,76,60987,6,0,B|79:108|49:139|27:166,2,128,4|8|0
230,106,62085,1,8
329,128,62451,2,0,B|382:96|412:65|434:38,2,128,0|8|0
419,175,63548,1,8
474,261,63914,6,0,B|434:315|353:334,1,128,4|8
281,276,64646,2,0,B|240:237|205:217|150:204,1,128,0|8
71,228,65378,2,0,B|24:128|77:32,2,192
112,321,66841,5,4
112,321,67207,1,8
112,321,67573,2,0,B|171:284|257:306,1,128,0|8
330,340,68305,5,0
330,340,68670,1,8
330,340,69036,2,0,B|389:377|475:355,1,128,0|8
459,252,69768,6,0,B|491:191|452:116,2,128,4|8|0
424,290,70683,2,0,B|397:276|347:259,1,63.9999999999999,0|8
316,249,71048,1,0
316,249,71231,2,0,B|280:300|214:328,2,128,0|8|0
286,206,72146,1,8
286,206,72329,2,0,B|273:166|275:127,1,63.9999999999999,8|0
265,92,72695,6,0,B|197:73|129:90,2,128,4|8|0
363,64,73792,1,8
436,135,74158,2,0,B|465:90|508:11,2,128,0|8|0
401,231,75256,1,8
364,326,75622,6,0,B|436:346|508:367,2,128,4|8|0
263,304,76719,1,8
263,304,76902,2,0,B|215:321|188:324|127:298,1,128
93,326,77451,2,0,B|66:197,2,128,8|0|8
177,268,78548,5,4
247,194,78914,1,8
318,120,79280,2,0,B|358:56|417:22,1,128,0|8
473,106,80012,5,0
403,180,80378,1,8
332,254,80744,2,0,B|292:318|233:352,1,128,0|8
152,299,81475,6,0,B|174:197|90:114,2,192,4|0|0
239,353,82939,2,0,B|304:350|383:354,1,128,4|8
366,353,83487,1,0
438,280,83853,1,0
458,233,84036,1,8
442,184,84219,6,4,B|304:56|146:305|4:174,1,447.999999999999
131,81,86048,1,0
174,54,86231,2,0,B|217:52|249:52,1,63.9999999999999,8|0
288,63,86597,2,0,B|335:125|284:186,1,128,0|8
288,180,87146,1,4
256,192,87329,12,0,89524
