osu file format v9

[General]
AudioFilename: See visionS.mp3
AudioLeadIn: 0
PreviewTime: 82242
Countdown: 0
SampleSet: Normal
StackLeniency: 0.7
Mode: 0
LetterboxInBreaks: 0
StoryFireInFront: 0

[Editor]
DistanceSpacing: 1
BeatDivisor: 4
GridSize: 4

[Metadata]
Title:See visionS
Artist:Kawada Mami
Creator:KanaRin
Version:Fantasy
Source:Toaru Majutsu no Index II
Tags:Clare Saten ruiko Alace ignorethis to aru

[Difficulty]
HPDrainRate:8
CircleSize:4
OverallDifficulty:7
ApproachRate:7
SliderMultiplier:1.6
SliderTickRate:1

[Events]
//Background and Video events
0,0,"bg.jpg"
//Break Periods
2,112625,124147
2,179027,189269
2,240308,242317
2,295003,296647
//Storyboard Layer 0 (Background)
//Storyboard Layer 1 (Fail)
//Storyboard Layer 2 (Pass)
//Storyboard Layer 3 (Foreground)
//Storyboard Sound Samples
//Background Colour Transformations
3,100,163,162,255

[TimingPoints]
35413,365.853658536585,4,2,1,80,1,0
35778,-166.666666666667,4,2,1,60,0,0
40992,-166.666666666667,4,2,1,0,0,0
41175,-166.666666666667,4,2,1,60,0,0
59193,-100,4,1,1,60,0,0
82150,-100,4,1,1,0,0,0
82333,-100,4,1,1,60,0,0
82425,-100,4,2,1,60,0,0
82973,-200,4,2,1,60,0,0
83339,-100,4,2,1,60,0,0
83705,-100,4,1,1,75,0,1
110047,-100,4,1,1,39,0,1
110412,-100,4,1,1,24,0,1
110778,-100,4,1,1,13,0,1
111144,-100,4,1,1,0,0,1
112425,-100,4,1,1,0,0,0
125047,-100,4,2,1,70,0,0
135656,-100,4,1,1,70,0,0
149559,-100,4,1,1,76,0,1
178736,-100,4,1,1,0,0,0
189803,-100,4,1,1,75,0,0
225656,-100,4,1,1,55,0,0
240016,-100,4,1,1,0,0,0
243217,-100,4,2,1,60,0,0
246327,-100,4,2,1,70,0,0
254925,-100,4,1,1,75,0,0
266632,-100,4,1,1,70,0,1
294803,-100,4,1,1,70,0,0
304406,-100,4,1,1,0,0,0
304589,-100,4,1,1,72,0,0

[Colours]
Combo1 : 0,128,255
Combo2 : 128,255,255
Combo3 : 255,255,255

[HitObjects]
116,108,35778,1,0
116,108,35961,1,0
116,108,36144,2,0,B|116:160,1,48.0000011444092
72,292,36693,6,0,B|120:308|172:292,1,96.0000022888184
248,276,37242,2,0,B|272:324,2,48.0000011444092
196,212,37791,1,0
220,136,37973,1,0
368,252,38339,6,0,B|396:208|392:160,1,96.0000022888184
144,132,39071,2,0,B|116:176|120:224,1,96.0000022888184
119,223,39620,1,2
256,192,39803,12,0,41083
60,96,41449,6,0,B|60:156,1,48.0000011444092
136,176,41815,2,0,B|136:112,1,48.0000011444092
136,128,42181,1,0
256,268,42547,6,0,B|256:168,1,96.0000022888184
328,136,43095,1,0
296,60,43278,1,0
216,60,43461,1,0
184,136,43644,1,0
256,268,44010,5,0
256,268,44102,1,0
256,268,44193,2,0,B|360:268,1,96.0000022888184,2|0
208,192,44925,2,0,B|104:192,1,96.0000022888184
44,236,45473,2,2,B|16:188|52:136,2,96.0000022888184
208,80,46937,5,0
288,80,47120,1,4
248,152,47303,2,0,B|248:220,2,48.0000011444092
248,316,48034,5,0
168,316,48217,1,0
208,244,48400,2,0,B|208:148,1,96.0000022888184
208,148,48949,1,0
424,60,49864,5,0
344,60,50047,1,4
384,132,50230,2,0,B|384:200,2,48.0000011444092
256,256,50961,6,0,B|208:256,2,48.0000011444092
256,256,51693,1,0
324,300,51876,2,0,B|352:252|316:200,1,96.0000022888184
212,40,52791,6,0,B|260:39,4,48.0000011444092,0|4|0|0|0
212,40,53888,1,0
212,119,54071,1,0
139,79,54254,2,0,B|39:79,1,96.0000022888184
43,79,54803,1,0
256,192,55534,5,4
256,192,55900,12,4,58827
104,64,59193,6,0,B|144:44|208:68,1,80,8|0
160,136,59559,2,0,B|200:156|264:132,1,80
264,64,59925,1,8
316,128,60108,2,0,B|368:206|296:290,1,160
380,312,60656,1,0
312,356,60839,1,0
240,320,61022,1,0
236,240,61205,1,0
308,276,61388,1,8
368,60,61754,6,0,B|292:22|216:66,2,160,0|8|0
292,144,62669,1,0
228,236,62852,1,8
228,236,63034,2,0,B|304:274|380:230,1,160
440,136,63583,5,8
376,64,63766,1,0
376,64,63858,1,0
376,64,63949,1,0
316,140,64132,2,0,B|221:141,2,80,0|8|0
376,216,64681,5,0
304,280,64864,2,0,B|320:320|300:368,2,80,0|8|0
236,212,65413,1,0
308,148,65595,2,0,B|228:106|153:146,2,160
376,216,66510,2,0,B|416:112,2,80,8|0|0
264,260,67059,2,0,B|224:364,2,80,8|8|0
264,260,67516,5,0
264,260,67608,2,0,B|88:260,1,160,0|8
288,152,68156,1,0
288,152,68339,2,0,B|460:153,1,160,0|8
264,40,68888,2,0,B|92:40,2,160
264,296,69986,5,0
168,296,70169,1,8
264,296,70352,1,0
264,296,70534,6,0,B|359:156,2,160,4|8|0
196,224,71449,1,0
132,296,71632,1,8
72,220,71815,2,0,B|20:192|19:112|76:88,1,160
140,160,72364,2,0,B|219:161|292:108,2,160,8|0|8
140,256,73278,1,0
140,352,73461,6,0,B|40:352,2,80,4|0|8
236,352,74010,2,0,B|288:324|288:244|232:220,1,160
140,220,74559,1,8
44,216,74742,2,0,B|-8:188|-8:108|48:84,1,160
112,156,75291,2,0,B|292:156,1,160,8|0
368,152,75839,6,0,B|393:112,2,40,0|0|8
440,216,76205,1,0
368,280,76388,2,0,B|360:324|372:368,2,80,0|0|8
292,220,76937,2,0,B|104:221,2,160,0|0|4
140,296,78034,5,0
80,224,78217,1,8
140,296,78400,2,0,B|224:328|312:288,2,160,4|0|0
140,296,79315,1,8
336,84,79681,6,0,B|164:84,2,160,8|0|8
256,192,80595,12,0,82242
260,72,82425,5,0
308,156,82608,1,0
212,156,82791,1,0
260,240,82973,2,0,B|258:335,1,80
176,60,83705,6,0,B|96:23|12:87,2,160,4|8|0
116,136,84620,2,0,B|136:236,1,80,0|8
76,292,84986,1,0
168,316,85169,2,0,B|226:312|261:240|220:194,2,160,0|8|0
136,224,86083,5,0
136,224,86175,1,0
136,224,86266,2,0,B|52:180,1,80,8|0
148,140,86632,2,0,B|112:52,1,80,0|0
212,92,86998,2,0,B|208:4,1,80,8|0
288,68,87364,2,0,B|336:0,1,80
368,92,87730,2,0,B|421:70|480:124|458:182,2,160,8|0|8
356,188,88644,2,0,B|324:224,2,40
420,260,89010,2,0,B|420:320,2,40,0|0|8
256,328,89376,6,0,B|256:240,2,80,0|0|0
168,288,89925,1,8
80,328,90108,2,0,B|80:144,1,160
216,48,90839,5,0
216,48,91022,2,0,B|321:48,1,80
360,120,91388,1,8
296,192,91571,2,0,B|99:193,2,160
416,312,92486,6,0,B|360:256,1,80
128,312,92852,1,8
128,312,93034,2,0,B|200:240,1,80
268,52,93400,1,0
268,52,93583,1,8
268,52,93766,2,0,B|268:224,1,160
132,236,94315,6,0,B|132:136,1,80,8|0
208,64,94681,2,0,B|208:115,2,40
304,136,95047,2,0,B|307:74,2,40,8|0|0
248,276,95412,6,0,B|149:291|114:195,2,160,4|8|0
308,200,96327,1,0
400,228,96510,2,0,B|434:190|430:149,1,80,8|0
396,68,96876,2,0,B|437:28|512:57|512:119,2,160,0|8|8
316,120,97791,1,0
240,60,97973,1,8
220,156,98156,1,0
316,120,98339,1,0
252,280,98705,6,0,B|154:284|106:208,2,160,8|0|8
308,204,99620,2,0,B|406:200|454:276,1,160
447,266,100169,2,0,B|480:176|456:84,1,160,8|0
388,48,100717,1,0
360,140,100900,2,0,B|260:164,1,80,8|0
136,132,101266,6,0,B|108:92|144:40,2,80,0|0|8
228,100,101815,2,0,B|420:100,2,160
292,188,102730,6,0,B|320:228|284:280,2,80,0|0|8
204,228,103278,2,0,B|36:228,2,160
280,168,104193,6,0,B|325:163|377:193,1,80
384,92,104559,1,0
456,156,104742,2,0,B|508:184|509:264|452:288,2,160
368,224,105656,6,0,B|348:320,2,80,0|0|8
388,128,106205,2,0,B|332:100|280:152|224:116,1,160
148,68,106754,1,0
140,164,106937,1,0
92,276,107120,6,0,B|-12:276,2,80,0|0|8
180,196,107669,1,0
268,276,107852,2,0,B|372:276,2,80,0|0|8
180,356,108400,2,0,B|180:184,1,160
164,100,108949,6,0,B|64:100,2,80,8|0|0
356,100,109681,1,8
356,100,109864,1,4
256,192,110047,12,0,112425
244,112,125047,5,0
300,168,125230,1,0
224,192,125412,1,0
300,168,125595,1,0
388,300,125961,1,0
228,304,126327,5,0
152,324,126510,1,0
172,248,126693,1,0
228,304,126876,1,0
252,232,127059,2,0,B|304:228|328:192,2,80
248,152,127608,6,0,B|216:104|108:60,1,160,0|0
100,224,128339,2,0,B|132:272|240:316,1,160,0|0
312,296,128888,1,0
160,104,130717,5,0
108,164,130900,1,0
160,104,131083,1,0
184,180,131266,2,0,B|248:232,1,80
368,336,131815,5,0
364,176,132181,1,0
316,240,132364,1,0
284,168,132547,1,0
364,176,132730,2,0,B|364:88,1,80
204,80,133278,5,0
204,80,133370,1,0
204,80,133461,2,0,B|164:104|140:144,1,80
140,216,133827,2,0,B|172:240|189:278,1,80
260,320,134193,2,0,B|344:324|412:272,1,160
424,196,134742,1,0
284,116,135108,1,0
128,140,135473,1,0
128,140,135656,2,0,B|112:224|128:324,1,160
204,288,136205,5,0
264,236,136388,1,0
268,156,136571,1,0
336,116,136754,1,8
316,40,136937,1,0
160,68,137303,6,0,B|126:34|84:40,2,80,0|8|0
188,224,138034,2,0,B|181:261|200:336,1,80,0|8
308,288,139132,5,0
248,236,139315,1,0
244,156,139498,1,0
176,116,139681,1,8
196,40,139864,1,0
352,68,140230,6,0,B|385:34|428:40,2,80,0|8|0
324,224,140961,2,0,B|330:261|312:336,1,80,0|8
88,300,141876,5,8
52,228,142059,1,0
92,160,142242,2,0,B|132:72|212:36,1,160,0|8
252,104,142791,1,0
384,192,143156,5,0
304,180,143339,1,8
252,240,143522,2,0,B|227:274|180:272,1,80
112,232,143888,1,0
160,168,144071,1,8
140,92,144254,1,0
300,68,144620,6,0,B|339:45|389:53,1,80,0|8
404,128,144986,2,0,B|363:148|324:212,1,80
184,172,145534,2,0,B|181:252|216:328,1,160,8|0
376,348,146266,2,0,B|388:308|379:268,1,80,8|0
300,276,146632,2,0,B|288:236|296:196,1,80,8|0
376,180,146998,2,0,B|388:140|379:100,1,80,8|0
300,104,147364,2,0,B|288:64|296:24,1,80,8|0
224,64,147730,2,0,B|144:60,1,80,8|0
256,192,148278,12,0,149193
304,288,149559,5,4
272,216,149742,1,0
224,152,149925,1,8
224,152,150016,1,0
224,152,150108,1,0
152,116,150291,1,0
116,44,150473,1,0
48,88,150656,1,8
48,88,150748,1,0
48,88,150839,1,0
32,168,151022,5,0
76,236,151205,1,0
152,264,151388,2,0,B|152:324,2,40,8|0|0
224,224,151754,1,0
276,164,151937,1,0
332,104,152120,2,0,B|292:40,2,40,8|0|0
276,164,152486,1,0
176,288,152852,5,8
256,276,153034,2,0,B|308:267|328:220,1,80
248,200,153400,1,0
172,176,153583,2,0,B|153:136|156:80,1,80,8|0
236,96,153949,2,0,B|280:96|314:110,1,80
376,164,154315,2,0,B|392:208,2,40,8|0|0
396,88,154681,2,0,B|472:140,2,80,0|0|8
320,64,155230,5,0
244,40,155412,1,0
176,84,155595,1,0
100,56,155778,1,8
52,120,155961,1,0
52,120,156327,1,0
108,272,156693,2,0,B|188:312,1,80
188,228,157059,2,0,B|265:207,1,80,0|8
316,272,157425,1,0
316,272,157791,1,0
412,164,158156,5,0
356,100,158339,1,0
280,128,158522,1,0
208,96,158705,1,8
156,156,158888,1,0
76,176,159071,2,0,B|4:112,2,80,0|0|8
136,228,159620,2,0,B|92:312|4:372,2,160
256,192,160717,5,0
256,192,160900,1,8
112,104,161266,6,0,B|272:104,1,160,4|8
316,172,161815,1,0
236,176,161998,2,0,B|72:176,1,160,0|8
36,244,162547,1,0
116,248,162730,2,0,B|280:248,1,160,0|8
316,172,163278,1,0
236,176,163461,2,0,B|72:176,1,160,0|8
196,72,164193,5,0
328,164,164559,2,0,B|328:272,1,80,8|0
248,264,164925,2,0,B|248:356,1,80
172,320,165291,1,8
172,240,165473,1,0
172,79,165839,1,0
172,159,166022,1,8
388,108,166937,5,0
316,140,167120,1,0
236,132,167303,1,0
168,172,167486,1,8
88,156,167669,1,0
88,156,168034,1,0
160,300,168400,5,0
232,332,168583,1,0
312,324,168766,1,0
380,364,168949,1,8
460,348,169132,1,0
460,348,169497,1,0
360,220,169864,6,0,B|316:184|312:128,1,80
312,76,170230,2,0,B|271:58|220:64,1,80,0|8
192,132,170595,2,0,B|162:183|52:248,1,160
56,316,171144,1,8
136,324,171327,2,0,B|184:328|216:352,2,80
148,244,171876,1,8
224,220,172059,2,0,B|232:172|284:140,1,80
316,92,172425,2,0,B|368:120|368:200|312:228,1,160
256,192,172973,12,8,174071
152,152,174620,5,0
232,96,174803,1,8
236,192,174986,1,0
320,148,175169,2,0,B|372:144|412:224|352:276,1,160,0|8
361,267,175717,1,0
256,192,175900,12,0,178827
440,228,190169,5,8
372,268,190352,1,0
296,240,190534,2,0,B|204:240,1,80
152,192,190900,1,8
104,128,191083,2,0,B|48:56,2,80
176,88,191632,1,8
252,116,191815,6,0,B|336:100,1,80
408,124,192180,2,0,B|336:156,1,80,0|8
268,200,192546,1,0
340,236,192729,2,0,B|452:252,2,80,0|0|8
272,280,193278,6,0,B|184:244,1,80
228,176,193643,2,0,B|132:168,1,80,0|8
92,112,194009,1,0
68,188,194192,2,0,B|8:264,2,80,0|0|8
92,112,194742,6,0,B|132:40,1,80
184,104,195108,2,0,B|260:68,1,80,0|8
328,108,195473,1,0
408,92,195656,1,0
412,172,195839,2,0,B|452:252,1,80,0|8
368,244,196205,6,0,B|324:316,1,80
248,296,196571,1,0
188,240,196754,1,8
108,256,196937,1,0
84,180,197120,1,0
20,132,197303,1,0
92,100,197486,1,8
160,144,197669,6,0,B|239:131,1,80
272,204,198034,2,0,B|328:132,1,80,0|8
288,68,198400,2,0,B|456:56,1,160
432,136,198949,1,8
352,148,199132,1,0
324,224,199315,6,0,B|256:292,1,80
192,252,199681,2,0,B|168:352,1,80,8|0
100,300,200047,1,0
52,236,200230,1,0
124,200,200412,1,8
64,144,200595,6,0,B|64:40,1,80
136,104,200961,2,0,B|224:104,1,80,0|8
292,76,201327,2,0,B|360:164,1,80
288,200,201693,2,0,B|308:280,1,80,0|8
228,284,202059,1,0
208,208,202242,6,0,B|104:84,1,160,0|8
104,244,202973,2,0,B|-16:104,1,160,0|8
304,208,203705,6,0,B|408:84,1,160,0|8
408,244,204436,2,0,B|528:104,1,160,0|8
332,332,205169,6,0,B|152:332,1,160,0|8
172,171,205900,2,0,B|344:171,1,160,0|8
172,171,206632,6,0,B|172:0,1,160,0|8
41,152,207364,1,0
76,320,207730,1,8
236,296,208095,6,0,B|404:316,1,160,0|8
268,216,208827,2,0,B|136:116,1,160,0|8
300,104,209559,6,0,B|472:104,1,160,0|8
356,228,210291,2,0,B|196:228,1,160,0|8
64,140,211022,6,0,B|228:141,1,160,0|8
364,60,211754,2,0,B|192:60,1,160,0|8
332,156,212486,6,0,B|332:316,3,160,0|8|0|8
163,259,213949,5,0
64,136,214315,1,8
224,116,214681,1,0
164,260,215047,1,8
224,116,215412,5,0
372,52,215778,1,8
368,212,216144,1,0
224,116,216510,1,8
312,236,216876,5,0
312,236,217059,1,0
236,264,217242,2,0,B|196:276|156:260,1,80,8|0
100,208,217608,1,0
100,208,217791,1,0
140,140,217974,2,0,B|180:128|224:140,1,80,8|0
292,104,218339,5,0
292,104,218522,1,0
368,136,218705,2,0,B|408:152|448:136,1,80,8|0
452,216,219071,1,0
452,216,219254,1,0
376,240,219437,2,0,B|340:228|296:240,1,80,8|0
264,164,219803,6,0,B|188:212|114:221,1,160,0|8
216,96,220534,2,0,B|140:72|28:76,1,160,0|8
72,236,221266,6,0,B|228:280,1,160,0|8
312,144,221998,2,0,B|468:188,1,160,0|8
46,187,222730,6,0,B|200:144,1,160,0|8
286,279,223462,2,0,B|440:236,1,160,0|8
324,56,224193,6,0,B|324:228,1,160,0|8
164,268,224925,2,0,B|164:96,1,160,0|8
256,192,225656,5,0
256,192,225839,1,0
220,104,226022,2,0,B|202:57|156:28,2,80,8|0|0
112,120,226571,1,0
64,204,226754,1,8
128,276,226937,2,0,B|156:300|216:296,1,80
292,260,227303,2,0,B|327:230|388:240,1,80,0|8
168,88,228400,6,0,B|180:192,1,80
260,116,228766,2,0,B|300:200,1,80,0|8
368,124,229132,2,0,B|432:176,1,80
444,268,229498,1,0
372,328,229681,1,8
288,284,229864,2,0,B|248:276|208:291,1,80
124,248,230230,2,0,B|104:288|48:316,1,80,0|8
404,116,231144,5,8
320,72,231327,1,0
244,128,231510,1,0
160,80,231693,1,0
112,164,231876,2,0,B|69:249|12:292,1,160,8|0
112,284,232425,1,0
200,248,232608,1,8
296,248,232791,2,0,B|384:272|484:256,2,160
128,180,234071,5,8
128,180,234254,1,0
116,84,234437,2,0,B|71:92|36:72,2,80,0|0|8
208,112,234986,2,0,B|248:112|292:148,1,80
336,220,235352,1,0
393,144,235534,6,0,B|310:82|250:74,1,160,8|0
195,153,236083,2,0,B|119:141|55:65,1,160
157,66,236632,2,0,B|133:142|72:201,1,160,0|8
105,291,237181,1,0
256,192,237364,12,0,240108
176,48,243217,6,0,B|348:48,1,160
204,140,243949,2,0,B|12:140,1,160
168,240,244681,2,0,B|348:240,1,160
196,332,245412,2,0,B|12:332,1,160
288,104,246510,6,0,B|320:192,1,80
220,184,246876,2,0,B|220:272,1,80
136,216,247242,2,0,B|32:364,1,160
20,252,247791,1,0
76,176,247973,1,0
48,84,248156,1,0
128,28,248339,1,0
368,188,248888,5,0
272,204,249071,1,0
132,336,249437,1,0
68,268,249620,1,0
104,180,249803,2,0,B|68:92,1,80
104,180,250352,5,0
200,196,250535,1,0
340,328,250901,1,0
404,260,251084,1,0
368,172,251267,2,0,B|404:84,1,80
224,152,251815,5,0
176,72,251998,1,0
272,68,252181,1,0
224,152,252364,1,0
180,240,252547,1,0
276,240,252730,2,0,B|280:348,2,80
352,200,253278,6,0,B|440:200,1,80
468,288,253644,2,0,B|398:326,1,80
316,272,254010,2,0,B|242:240,1,80
164,300,254376,2,0,B|76:340,1,80
256,192,254925,6,0,B|340:176|372:76,2,160,4|8|0
184,260,255840,2,0,B|120:168,1,80,0|8
192,112,256206,1,0
96,92,256389,2,0,B|91:34|158:-10|209:23,2,160,0|8|0
128,240,257303,5,0
128,240,257395,1,0
128,240,257486,2,0,B|168:256|220:236,1,80
300,152,257852,2,0,B|260:136|208:156,1,80
68,324,258217,2,0,B|108:340|160:320,1,80
284,240,258583,2,0,B|244:224|200:244,1,80
80,236,258949,5,8
80,236,259132,2,0,B|40:72,1,160
42,80,259681,1,8
164,76,259864,2,0,B|156:20,2,40
232,148,260230,2,0,B|240:200,2,40
340,68,260596,6,0,B|452:68,2,80,0|0|0
256,156,261145,1,8
176,68,261328,2,0,B|-4:68,1,160
172,316,262059,6,0,B|60:316,2,80,0|0|0
256,228,262608,1,8
336,316,262791,2,0,B|516:316,2,160
220,276,263706,6,0,B|116:260,1,80
204,192,264071,2,0,B|128:140,1,80,8|0
228,112,264437,2,0,B|208:20,1,80
308,40,264803,1,8
308,40,264986,2,0,B|308:212,1,160
216,296,265535,6,0,B|132:296,1,80,8|0
124,200,265901,2,0,B|72:200,2,40
196,136,266267,2,0,B|264:136,2,40,8|0|0
280,48,266632,6,0,B|228:28|184:72|100:36,2,160,4|8|0
364,100,267547,2,0,B|448:76,2,80,0|8|0
308,180,268096,2,0,B|251:165|229:89|277:50,2,160,0|8|0
424,256,269010,5,0
424,256,269102,1,0
424,256,269193,2,0,B|332:256,1,80,8|0
316,348,269559,2,0,B|232:348,1,80,0|0
108,220,269925,2,0,B|224:220,1,80,8|0
336,96,270291,2,0,B|256:96,1,80
184,32,270657,6,0,B|131:10|72:64|94:122,2,160,8|0|8
204,124,271571,2,0,B|264:140,2,40
196,220,271937,2,0,B|232:272,2,40,0|0|8
136,152,272303,6,0,B|88:225,2,80,0|0|0
252,116,272852,1,8
280,232,273034,2,0,B|333:254|392:200|370:142,1,160
252,116,273583,1,0
172,60,273766,6,0,B|67:60,2,80
256,148,274315,1,8
172,232,274498,2,0,B|172:404,2,160
336,148,275413,6,0,B|256:148,1,80
152,60,275779,1,8
152,60,275961,1,0
152,60,276144,1,0
336,148,276327,1,0
336,148,276510,1,8
336,148,276693,2,0,B|164:148,1,160
76,232,277242,6,0,B|76:132,1,80,8|0
152,60,277608,2,0,B|152:111,2,40
248,132,277974,2,0,B|251:70,2,40,8|0|0
320,224,278339,6,0,B|419:239|460:148,2,160,4|8|0
256,296,279254,1,0
192,224,279437,1,8
128,296,279620,1,0
192,224,279803,6,0,B|192:56,2,160,0|8|0
256,296,280718,1,0
324,228,280900,1,8
348,320,281083,1,0
436,280,281266,1,0
332,116,281632,6,0,B|430:112|478:188,2,160
272,192,282547,2,0,B|174:196|126:120,1,160
228,108,283096,2,0,B|195:198|219:290,1,160,8|0
276,340,283644,1,0
336,264,283827,1,8
396,340,284010,1,0
448,208,284193,6,0,B|476:168|440:116,2,80,0|0|8
356,176,284742,2,0,B|164:176,2,160
260,268,285656,6,0,B|232:308|268:360,2,80,0|0|8
352,300,286205,2,0,B|544:300,2,160
260,268,287120,5,0
228,176,287303,1,0
156,240,287486,1,0
128,148,287669,2,0,B|70:136|17:196|46:251,2,160
156,240,288583,6,0,B|160:344,2,80,0|0|8
128,148,289132,2,0,B|184:120|236:172|292:136,1,160
308,48,289681,1,0
384,108,289864,1,0
432,232,290047,6,0,B|432:328,2,80,0|0|8
356,172,290596,1,0
292,100,290779,2,0,B|292:16,2,80,0|0|8
232,172,291327,2,0,B|72:172,1,160
116,260,291876,2,0,B|116:348,2,80,8|0|0
256,196,292608,5,8
256,196,292791,1,4
256,192,292973,12,8,294803
256,192,297547,12,8,301388
256,192,301754,12,0,304498
