osu file format v9

[General]
AudioFilename: 02 - SATANIC.mp3
AudioLeadIn: 1500
PreviewTime: 51711
Countdown: 0
SampleSet: Normal
StackLeniency: 0.7
Mode: 0
LetterboxInBreaks: 1

[Editor]
Bookmarks: 52373,111874,120026
DistanceSpacing: 0.8
BeatDivisor: 4
GridSize: 8

[Metadata]
Title:SATANIC
Artist:Kawada Mami
Creator:[MiSaKa] MiKoTo
Version:Hard
Source:to aru majutsu no index
Tags:Mami Kawada to aru kagaku no railgun

[Difficulty]
HPDrainRate:6
CircleSize:4
OverallDifficulty:8
ApproachRate:7
SliderMultiplier:2
SliderTickRate:1

[Events]
//Background and Video events
0,0,"bg.jpg"
//Break Periods
2,49955,51463
2,112563,119289
//Storyboard Layer 0 (Background)
//Storyboard Layer 1 (Fail)
//Storyboard Layer 2 (Pass)
//Storyboard Layer 3 (Foreground)
//Storyboard Sound Samples
//Background Colour Transformations
3,100,163,162,255

[TimingPoints]
190,652.173913043478,4,1,0,100,1,0
31920,-100,4,2,0,100,0,0
52363,-66.6666666666667,4,1,0,100,0,1
61494,-100,4,1,0,100,0,0
72255,-66.6666666666667,4,1,0,100,0,1
82689,-66.6666666666667,4,1,0,100,0,0

[Colours]
Combo1 : 0,0,128
Combo2 : 62,62,255
Combo3 : 0,128,255

[HitObjects]
144,48,842,1,0
104,48,1005,1,0
64,48,1168,1,0
16,48,1331,1,0
32,88,1494,2,0,B|184:88,1,150
224,88,2146,1,8
296,48,2472,5,0
328,72,2635,1,0
368,72,2798,1,0
408,64,2961,1,0
440,40,3124,1,0
464,112,3450,2,8,B|464:248,1,100
440,248,3939,1,0
408,232,4103,1,8
376,256,4266,1,0
296,256,4592,1,0
264,280,4755,1,0
104,288,5407,5,8
104,248,5570,1,0
104,208,5733,1,0
104,168,5896,1,0
176,168,6059,2,0,B|176:256,1,50
216,216,6385,1,0
256,216,6548,1,0
376,112,7200,1,0
336,112,7363,1,8
176,80,8016,5,0
136,80,8179,1,0
96,80,8342,1,0
56,80,8505,1,0
56,120,8668,1,8
96,192,8994,2,0,B|96:352,1,150
176,328,9809,1,0
176,288,9972,1,8
200,256,10135,1,0
176,224,10298,1,0
176,184,10461,1,0
176,128,10624,1,4
336,128,11276,5,8
376,128,11440,1,0
416,128,11603,1,0
432,168,11766,1,0
472,168,11929,2,8,B|472:48|336:24,1,200
288,48,12907,1,0
264,80,13070,1,0
288,112,13233,1,0
288,152,13396,1,0
256,136,13559,1,0
216,136,13722,1,0
176,136,13885,1,12
80,144,14211,6,0,B|-16:144,3,50
24,224,15026,1,0
24,264,15190,1,8
40,304,15353,1,0
80,320,15516,1,0
160,320,15842,2,8,B|224:320,4,50
184,248,16820,1,0
184,248,16983,1,0
136,120,17798,5,8
136,120,17961,1,0
136,120,18124,1,0
288,120,18450,5,0
320,96,18613,1,0
352,120,18776,1,0
384,96,18940,1,0
416,120,19103,1,8
464,184,19429,1,0
464,224,19592,1,0
424,208,19755,2,0,B|264:208,1,150
232,208,20407,1,8
232,48,21059,1,4
72,48,21711,5,8
72,88,21874,1,0
72,128,22037,1,0
112,128,22200,1,0
112,168,22363,1,0
72,240,22689,6,8,B|72:336|256:320,1,200
232,280,23505,1,0
272,280,23668,1,4
432,312,24320,5,8
432,272,24483,1,0
392,272,24646,1,0
392,232,24809,1,0
392,192,24972,2,8,B|288:192,1,100
216,184,25624,2,0,B|216:72,1,100
176,80,26113,1,0
136,80,26276,1,12
56,216,26929,5,0
80,248,27092,1,0
112,272,27255,1,0
152,280,27418,1,0
144,200,27744,2,8,B|312:200,1,150
296,240,28396,1,0
296,280,28559,1,0
336,280,28722,1,0
336,240,28885,1,12
72,56,30189,5,0
112,56,30353,1,0
112,96,30516,1,0
112,136,30679,1,0
152,136,30842,1,8
152,176,31005,1,0
192,176,31168,1,0
192,216,31331,1,0
192,256,31494,1,4
352,256,32146,6,8,B|352:144,1,84.9999964535238
352,80,32798,1,0
392,80,32961,1,0
392,120,33124,1,4
352,120,33287,1,0
432,240,33776,6,0,B|432:336,1,50
392,288,34103,1,8
352,288,34266,1,0
352,328,34429,1,0
312,328,34592,1,0
272,328,34755,1,0
240,304,34918,1,0
192,264,35081,2,8,B|48:264,1,100
136,200,35733,1,4
56,56,36385,5,0
96,56,36548,1,0
96,96,36711,1,8
136,96,36874,1,0
176,96,37037,1,0
176,56,37200,1,0
216,56,37363,1,0
288,16,37689,2,8,B|288:232,1,200
208,216,38668,1,0
368,216,39320,1,12
0,376,40950,6,0,B|0:264,1,100
0,192,41603,1,0
40,192,41766,1,0
72,168,41929,1,12
152,168,42255,1,0
192,168,42418,2,0,B|192:248,1,50
248,272,42907,1,0
280,248,43070,1,0
312,272,43233,1,8
392,280,43559,6,0,B|392:352,2,50
392,200,44211,1,0
472,200,44537,1,8
472,160,44700,1,0
472,120,44863,2,0,B|352:120,1,100
312,176,45516,1,0
280,152,45679,1,0
248,176,45842,1,12
48,40,46820,5,0
80,64,46983,1,0
112,40,47146,1,0
152,112,47472,2,8,B|152:248,1,100
192,208,47961,1,0
192,248,48124,1,0
192,288,48287,1,0
232,272,48450,1,0
280,208,48776,6,0,B|280:280,1,50
280,296,49103,1,8
280,336,49266,2,0,B|408:336,1,100
368,296,49755,1,4
360,312,52363,5,8
320,264,52526,1,0
280,312,52690,1,0
224,312,52853,2,0,B|120:312,1,74.9999977648259
104,272,53179,1,0
144,224,53342,1,0
192,184,53505,2,8,B|296:184,1,74.9999977648259
272,64,53994,5,0
328,64,54157,1,0
304,120,54320,2,0,B|384:120,3,74.9999977648259
440,120,54972,1,8
440,240,55298,1,0
392,280,55461,1,0
352,232,55624,1,0
232,240,55950,6,0,B|232:336,1,74.9999977648259
184,344,56276,1,8
128,376,56440,1,0
80,336,56603,1,0
56,280,56766,1,0
56,224,56929,1,4
208,40,57581,6,8,B|304:40,1,74.9999977648259
320,88,57907,1,0
288,136,58070,2,0,B|192:136,1,74.9999977648259
216,192,58396,1,0
256,232,58559,1,0
440,64,59211,5,0
480,112,59374,1,0
440,160,59537,1,8
400,112,59700,2,0,B|248:112,1,149.999995529652
216,160,60190,1,0
96,160,60516,1,4
312,64,61168,5,0
344,88,61331,1,0
376,64,61494,1,8
376,224,62146,5,0
400,256,62309,1,0
424,288,62472,1,0
344,288,62798,2,12,B|296:288,3,50
296,328,63450,1,4
136,352,64103,5,8
112,320,64266,1,0
112,280,64429,1,0
112,240,64592,1,0
144,216,64755,2,0,B|208:216,1,50
232,216,65081,1,0
264,192,65244,1,0
240,160,65407,2,8,B|128:160,1,100
136,120,65896,1,0
160,88,66059,1,0
232,48,66385,1,0
264,72,66548,1,0
296,48,66711,1,12
424,144,67363,6,0,B|264:144,1,150
272,184,68016,1,8
272,224,68179,1,0
304,248,68342,1,0
336,224,68505,1,0
376,224,68668,1,4
448,80,69320,6,8,B|360:80,1,50
408,120,69646,2,0,B|526:120,1,100
504,160,70135,2,8,B|504:320,1,150
464,312,70787,1,4
432,288,70950,1,0
400,312,71113,1,4
360,312,71276,1,0
336,280,71439,2,8,B|368:376|216:352,1,150
144,296,72255,5,0
184,256,72418,1,0
152,208,72581,1,0
120,152,72744,2,0,B|208:152,2,74.9999977648259
160,104,73233,1,12
192,0,73396,6,0,B|288:0,1,74.9999977648259
312,40,73722,1,0
360,72,73885,1,0
408,104,74048,2,0,B|408:16,1,74.9999977648259
464,48,74374,1,0
464,104,74537,1,12
256,216,75190,6,0,B|432:216,1,149.999995529652
440,264,75679,1,0
408,320,75842,1,8
352,320,76005,1,0
296,352,76168,1,0
240,352,76331,2,0,B|128:296|128:176,1,149.999995529652
136,184,76820,1,0
176,136,76983,1,0
208,184,77146,2,8,B|416:184,1,149.999995529652
456,120,77798,5,0
408,88,77961,1,0
360,48,78124,1,0
304,48,78287,2,8,B|224:48,1,74.9999977648259
168,48,78613,1,0
168,104,78776,1,0
168,160,78939,2,0,B|344:160,1,149.999995529652
320,224,79429,1,0
360,272,79592,1,0
320,320,79755,1,12
0,0,81059,6,0,B|128:0,1,74.9999977648259
112,48,81385,1,0
80,96,81548,2,8,B|240:96,1,149.999995529652
264,144,82037,2,0,B|184:144,1,74.9999977648259
184,200,82363,1,0
424,224,83016,5,8
424,280,83179,1,0
368,280,83342,2,0,B|368:128,1,149.999995529652
424,128,83831,1,0
464,80,83994,1,0
408,80,84157,2,8,B|304:80,1,74.9999977648259
216,80,84646,1,0
216,136,84809,1,0
216,192,84972,2,0,B|296:192,1,74.9999977648259
291,192,85298,1,0
360,360,85624,6,8,B|360:280,1,74.9999977648259
416,280,85950,1,0
416,160,86276,1,4
344,64,86603,5,0
288,64,86766,1,0
328,112,86929,2,8,B|240:112,1,74.9999977648259
136,112,87418,1,0
80,112,87581,1,0
200,320,88233,5,8
248,280,88396,1,0
296,320,88559,1,0
296,264,88722,2,0,B|296:176,1,74.9999977648259
352,184,89048,1,0
392,136,89211,1,0
352,88,89374,1,0
312,40,89537,2,8,B|464:40,1,149.999995529652
472,96,90026,5,0
472,152,90189,1,0
472,216,90353,1,0
472,272,90516,1,0
416,272,90679,1,0
416,328,90842,1,8
208,208,91494,6,0,B|32:208|48:80|256:72,1,299.999991059304
312,136,92472,2,8,B|488:136|472:264|264:272,1,299.999991059304
264,304,93287,1,0
208,304,93450,1,4
48,128,94103,5,8
96,88,94266,1,0
96,144,94429,2,0,B|176:144,2,74.9999977648259
96,200,94918,1,0
152,200,95081,1,0
192,248,95244,2,8,B|112:248,1,74.9999977648259
112,304,95570,1,0
160,336,95733,1,0
208,304,95896,1,0
264,304,96059,1,0
448,152,96711,6,8,B|296:152,1,149.999995529652
296,96,97200,1,0
240,96,97363,2,0,B|240:176,1,74.9999977648259
280,216,97689,2,0,B|360:216,1,74.9999977648259
416,216,98016,1,8
416,96,98342,5,0
416,40,98505,1,0
360,40,98668,1,0
360,96,98831,2,0,B|400:192|496:160,1,149.999995529652
480,104,99320,1,8
480,224,99646,5,0
480,280,99809,1,0
424,256,99972,1,0
376,360,100298,2,0,B|296:360,1,74.9999977648259
304,304,100624,1,8
360,304,100787,1,0
328,256,100950,2,0,B|248:256,1,74.9999977648259
192,256,101276,1,0
224,208,101439,2,0,B|224:16,1,149.999995529652
288,56,101929,1,12
96,32,103233,6,0,B|-48:32,1,74.9999977648259
8,88,103559,2,8,B|176:88,1,149.999995529652
152,208,104211,1,0
200,240,104374,1,0
248,208,104537,1,0
448,72,105189,6,8,B|280:72,1,149.999995529652
184,32,105842,1,0
128,32,106005,1,0
128,88,106168,1,0
184,88,106331,1,0
56,216,106820,6,0,B|136:216,1,74.9999977648259
168,264,107146,1,8
216,296,107309,1,0
216,240,107472,2,0,B|216:160,1,74.9999977648259
272,168,107798,1,0
328,168,107961,1,0
360,120,108124,1,0
416,96,108287,1,0
472,96,108450,1,12
408,328,109103,6,0,B|328:328,1,74.9999977648259
272,328,109429,1,0
304,280,109592,2,8,B|392:280,1,74.9999977648259
376,224,109918,1,0
336,184,110081,1,0
280,184,110244,1,0
248,232,110407,2,0,B|88:232,1,149.999995529652
128,176,110896,1,0
128,56,111222,1,0
248,56,111548,1,0
304,56,111711,1,8
304,296,112363,1,4
48,72,120189,5,0
96,112,120353,1,0
144,72,120516,1,0
176,24,120679,2,8,B|256:24,1,74.9999977648259
288,72,121005,1,0
336,112,121168,1,0
392,112,121331,1,0
216,112,121820,1,0
192,168,121983,1,0
168,224,122146,1,8
264,296,122472,2,0,B|112:296,1,149.999995529652
464,120,124103,5,8
344,120,124429,2,0,B|344:272,1,149.999995529652
312,320,124918,1,0
280,272,125081,1,0
248,160,125407,2,8,B|272:128|256:-24|120:72,1,224.999993294478
128,128,126059,1,0
48,216,126385,1,0
80,264,126548,1,0
256,272,127037,5,0
256,216,127200,1,0
312,216,127363,1,8
368,216,127526,2,0,B|480:280|448:344,1,149.999995529652
392,328,128016,1,0
272,328,128342,2,8,B|120:328,1,149.999995529652
144,272,128831,1,0
184,224,128994,1,0
224,176,129157,1,0
256,224,129320,1,0
400,112,129809,5,0
352,80,129972,1,8
312,40,130135,2,0,B|216:40,1,74.9999977648259
120,40,130624,5,8
96,96,130787,2,0,B|8:96,3,74.9999977648259
24,152,131439,1,0
24,216,131603,1,0
128,280,131929,5,8
176,312,132092,1,0
176,256,132255,2,0,B|328:256,1,149.999995529652
368,296,132744,1,0
424,296,132907,2,8,B|472:200|400:104,1,149.999995529652
312,152,133559,1,0
248,256,133885,6,0,B|96:256,1,149.999995529652
40,152,134537,2,8,B|192:152,1,149.999995529652
192,32,135189,1,0
312,24,135516,5,0
280,72,135679,1,0
312,120,135842,1,8
352,72,136005,2,0,B|448:72,1,74.9999977648259
424,128,136331,1,0
424,184,136494,1,0
360,352,136983,6,8,B|280:352,1,74.9999977648259
224,352,137309,1,0
264,304,137472,2,0,B|344:304,1,74.9999977648259
312,248,137798,1,0
192,248,138124,1,0
192,192,138287,1,0
136,208,138450,2,0,B|136:48,1,149.999995529652,8|0
192,56,138939,1,0
240,88,139103,1,0
336,168,139429,1,0
304,216,139592,6,8,B|224:216,3,74.9999977648259
224,336,140407,1,0
464,336,141059,2,8,B|464:256,1,74.9999977648259
424,216,141385,1,0
400,272,141548,2,0,B|320:272,3,74.9999977648259
208,272,142363,1,8
208,216,142526,1,0
152,240,142689,1,0
32,240,143016,1,0
256,192,143668,12,0,144972
456,64,146276,6,8,B|304:64,1,149.999995529652
320,120,146766,2,0,B|400:120,1,74.9999977648259
480,208,147255,2,8,B|216:208,1,224.999993294478
144,168,148070,1,0
144,224,148233,1,4
360,328,148885,5,8
360,272,149048,2,0,B|440:272,1,74.9999977648259
496,272,149374,1,0
464,224,149537,1,8
464,48,150026,1,0
408,48,150189,1,4
168,80,150842,5,8
208,120,151005,1,0
152,120,151168,2,0,B|64:120,1,74.9999977648259
72,176,151494,1,0
72,232,151657,1,0
128,216,151820,2,8,B|296:216,1,149.999995529652
312,264,152309,1,0
360,224,152472,1,0
360,104,152798,2,0,B|200:104,1,149.999995529652
160,144,153287,1,0
112,104,153450,1,12
256,192,154103,12,0,156059
56,80,156711,5,0
96,120,156874,2,0,B|176:120,3,74.9999977648259
232,120,157526,1,0
280,80,157689,1,0
320,120,157853,1,0
440,328,158505,5,0
400,288,158668,1,8
400,344,158831,1,0
344,320,158994,2,0,B|184:320,1,149.999995529652
72,320,159646,1,0
104,272,159809,1,0
104,216,159972,2,8,B|104:128,1,74.9999977648259
160,136,160298,1,0
160,80,160461,1,0
264,224,160950,5,0
320,224,161113,1,0
320,168,161276,1,8
320,112,161439,1,0
384,112,161603,2,0,B|464:112,1,74.9999977648259
456,56,161929,1,0
400,56,162092,1,0
344,56,162255,2,0,B|264:56,1,74.9999977648259
232,104,162581,1,8
256,192,163070,12,4,167146
