osu file format v6

[General]
AudioFilename: Prophecy (TV Size).mp3
AudioLeadIn: 0
PreviewTime: 56673
Countdown: 0
SampleSet: Normal
StackLeniency: 0.4
Mode: 0
LetterboxInBreaks: 1

[Editor]
Bookmarks: 8522,16589,24656,32723,40791,48858,51757,58186,67009,75076,83144,91211
DistanceSpacing: 0.899999976158142
BeatDivisor: 4
GridSize: 8

[Metadata]
Title:Prophecy (TV Size)
Artist:Kawada Mami
Creator:DJPop
Version:orion is Mystes
Source:Shakugan no Shana S
Tags:OVA orioncomet

[Difficulty]
HPDrainRate:4
CircleSize:5
OverallDifficulty:8
SliderMultiplier:1.9
SliderTickRate:1

[Events]
//Background and Video events
0,0,"Prophecy (TV Size).png"
Video,-50,"Prophecy (TV Size).avi"
//Break Periods
//Storyboard Layer 0 (Background)
//Storyboard Layer 1 (Fail)
//Storyboard Layer 2 (Pass)
//Storyboard Layer 3 (Foreground)
//Storyboard Sound Samples
//Background Colour Transformations
3,100,0,0,0

[TimingPoints]
455,504.201680672269,4,1,1,75,1,0
19236,-200,4,1,1,75,0,0
19992,-100,4,1,1,75,0,0
55412,-200,4,1,1,75,0,0
56925,-200,4,1,0,0,0,0
57933,-100,4,1,1,0,0,0
58060,-100,4,1,1,75,0,0
58942,-100,4,1,1,75,0,1
64866,-200,4,1,1,75,0,1
65623,-100,4,1,1,75,0,1
77849,-200,4,1,1,75,0,1
80244,-100,4,1,1,75,0,1
82639,-200,4,1,1,75,0,1
84530,-100,4,1,1,75,0,1
91337,-100,4,1,1,0,0,1
95497,-100,4,1,1,0,0,0

[Colours]
Combo1 : 255,192,128
Combo2 : 255,128,128
Combo3 : 255,0,0
Combo4 : 255,128,0

[HitObjects]
352,120,7261,1,0
440,120,7513,1,0
440,120,7639,1,0
440,120,7765,1,0
440,120,7891,1,0
440,120,8144,1,0
440,208,8396,5,0
440,208,8522,1,4
488,280,8774,1,0
400,280,9026,1,8
232,280,9530,1,0
200,312,9656,1,8
168,336,9782,1,0
104,280,10034,1,8
96,112,10539,5,0
112,72,10665,1,0
144,48,10791,1,0
232,48,11043,1,8
320,48,11295,1,0
360,64,11421,1,0
384,96,11547,1,0
432,168,11799,1,0
432,168,11925,1,0
432,168,12051,1,8
344,312,12555,5,4
256,312,12807,1,0
256,312,13060,1,8
168,312,13312,1,0
80,312,13564,1,0
40,304,13690,1,8
24,264,13816,1,0
24,176,14068,1,8
152,56,14572,5,0
152,144,14824,1,0
192,152,14950,1,0
232,144,15076,1,8
320,144,15328,1,0
320,144,15454,1,0
320,144,15581,1,0
408,144,15833,5,0
464,208,16085,1,8
424,224,16211,1,8
384,208,16337,1,0
304,232,16589,1,4
304,320,16841,6,0,B|256:352|208:312,1,95,0|8
128,320,17345,1,0
88,312,17471,1,0
56,288,17597,1,0
24,208,17849,1,0
40,168,17976,1,0
80,152,18102,1,8
144,208,18354,5,0
144,208,18480,1,0
144,208,18606,1,0
200,144,18858,1,0
232,120,18984,1,0
272,120,19110,1,8
360,120,19362,2,0,B|416:120|416:184,1,95,0|0
336,208,20118,1,8
256,248,20370,1,0
256,248,20497,1,8
336,288,20749,5,0
336,288,20875,1,0
408,248,21127,1,8
456,176,21379,1,0
456,136,21505,1,0
448,96,21631,1,0
432,56,21757,1,8
400,32,21883,1,0
312,32,22135,5,8
224,32,22387,1,0
144,64,22639,2,0,B|176:96|144:160,1,95,0|0
72,112,23144,1,8
32,112,23270,1,0
32,200,23522,1,0
64,224,23648,1,0
24,296,23900,1,0
96,344,24152,1,8
168,296,24404,1,0
168,208,24656,6,0,B|168:160,1,47.5,0|0
168,120,24908,1,0
208,104,25034,1,0
248,96,25160,2,0,B|312:96|312:40,1,95,8|0
311,42,25665,1,0
400,32,25917,1,0
440,40,26043,1,0
472,72,26169,1,8
400,112,26421,5,0
424,144,26547,1,0
464,152,26673,1,0
496,232,26925,1,0
448,304,27177,1,8
360,304,27429,5,0
360,304,27555,1,0
272,304,27807,1,0
232,304,27933,1,0
152,344,28186,1,8
112,328,28312,1,0
80,304,28438,1,0
80,304,28690,1,0
32,232,28942,6,0,B|96:232|112:184,1,95,0|8
168,120,29446,1,0
256,120,29698,1,0
296,120,29824,1,8
256,192,30076,1,0
296,192,30202,1,8
384,192,30454,1,0
384,280,30707,1,0
344,288,30833,1,0
264,288,31085,5,0
224,280,31211,1,8
136,280,31463,1,8
48,280,31715,2,0,B|-8:272|0:208,1,95
32,128,32219,1,8
80,56,32471,1,0
80,56,32597,1,0
80,56,32723,1,4
168,56,32976,5,0
216,128,33228,1,8
304,128,33480,1,0
344,128,33606,1,0
384,128,33732,1,0
384,216,33984,1,0
296,216,34236,5,8
256,216,34362,1,0
168,216,34614,1,0
128,216,34740,1,0
64,272,34992,1,0
80,312,35118,1,0
120,312,35244,1,8
208,312,35497,5,0
248,312,35623,1,0
288,312,35749,1,0
376,312,36001,1,0
448,264,36253,1,8
376,216,36505,1,0
376,176,36631,1,0
376,136,36757,1,4
288,136,37009,5,0
200,136,37261,1,8
112,136,37513,1,0
72,136,37639,1,0
48,168,37765,1,0
80,248,38018,1,0
168,256,38270,5,8
200,280,38396,1,0
240,288,38522,1,0
280,288,38648,1,0
320,288,38774,1,8
360,280,38900,1,0
392,256,39026,1,8
424,176,39278,5,8
424,88,39530,1,8
344,64,39782,1,8
304,56,39908,1,8
264,56,40034,1,0
176,56,40286,1,8
136,56,40412,1,8
96,64,40539,1,0
56,80,40665,1,8
40,120,40791,6,0,B|88:152|32:216,1,95,4|0
43,202,41295,1,8
112,152,41547,2,0,B|160:168|208:152,1,95,0|0
288,152,42051,1,0
328,152,42177,1,0
368,152,42303,1,8
432,216,42555,1,0
368,272,42807,5,0
328,272,42933,1,0
288,272,43060,1,0
200,272,43312,1,8
160,272,43438,1,0
120,272,43564,1,0
32,272,43816,1,0
16,184,44068,1,0
16,184,44194,1,0
16,184,44320,1,8
104,144,44572,5,0
104,104,44698,1,8
104,64,44824,1,4
192,64,45076,2,0,B|160:104|200:160,1,95,0|8
264,200,45581,1,0
304,216,45707,1,0
344,224,45833,1,0
432,224,46085,2,0,B|464:176|424:128,1,95,0|8
368,80,46589,5,0
288,48,46841,1,0
200,48,47093,1,0
160,48,47219,1,0
88,88,47471,1,0
64,128,47597,1,0
104,208,47849,1,0
144,208,47976,1,0
184,208,48102,1,0
272,208,48354,1,8
344,160,48606,5,0
416,208,48858,2,0,B|456:256|400:312,1,95,4|0
376,296,49236,1,0
336,296,49362,2,0,B|288:264|240:304,1,95,8|0
296,224,49866,1,0
296,224,50118,1,0
248,152,50370,1,8
208,160,50497,1,0
168,176,50623,6,0,B|168:224|112:224|112:160,1,95,0|0
104,96,51127,1,0
144,88,51253,1,0
184,72,51379,2,0,B|184:24|240:24|240:88,1,95,8|0
320,72,51883,5,0
336,72,52009,1,0
352,72,52135,1,0
368,72,52261,1,0
384,72,52387,1,8
472,72,52639,5,0
472,112,52765,1,8
472,152,52891,1,4
416,224,53144,1,0
376,224,53270,1,0
336,224,53396,1,8
248,224,53648,1,0
208,224,53774,1,0
168,224,53900,1,0
88,272,54152,5,0
88,272,54404,1,8
160,312,54656,1,0
248,312,54908,1,4
248,312,55034,1,0
248,312,55160,1,0
248,312,55286,1,0
248,312,55412,2,0,B|312:312|312:240,1,95,8|0
312,184,56169,2,0,B|248:184|248:112,1,95,0|8
288,112,56799,1,8
328,112,56925,6,0,B|392:112,2,47.5
328,112,57681,2,0,B|328:160,1,47.5
344,240,58186,5,0
264,256,58438,1,0
176,256,58690,1,0
136,240,58816,1,0
112,208,58942,1,4
32,176,59194,6,0,B|0:128|40:80,1,95,0|8
64,56,59572,1,0
104,56,59698,1,0
144,56,59824,1,8
184,56,59950,2,0,B|224:96|176:160,1,95
187,143,60455,1,8
272,144,60707,5,0
232,216,60959,1,0
144,216,61211,1,0
56,216,61463,1,8
56,216,61589,1,0
56,304,61841,1,8
96,304,61967,1,0
184,304,62219,1,0
184,304,62345,1,0
224,304,62471,1,8
304,272,62723,5,0
304,272,62849,1,0
304,272,62976,1,0
352,344,63228,2,0,B|416:352|432:288,1,95,0|8
432,216,63732,1,0
432,176,63858,1,8
320,120,64236,5,0
280,120,64362,1,0
240,120,64488,1,8
176,176,64740,1,0
88,184,64992,2,0,B|48:216|-8:176,1,95,0|8
48,112,65749,1,0
48,112,66001,1,0
120,64,66253,6,0,B|120:112,2,47.5,0|0|8
120,64,66757,2,0,B|120:16,2,47.5,8|0|4
192,112,67261,1,0
120,152,67513,1,8
120,240,67765,1,0
160,240,67891,1,8
288,240,68270,1,0
200,240,68522,1,8
248,168,68774,5,0
336,168,69026,1,0
336,168,69278,1,0
424,168,69530,1,8
424,128,69656,1,0
424,88,69782,1,0
360,32,70034,1,0
320,16,70160,1,8
240,40,70412,1,0
200,48,70539,1,8
120,80,70791,6,0,B|80:112,2,47.5,0|0|0
176,144,71295,1,0
176,144,71547,1,8
96,168,71799,1,0
96,168,71925,1,8
96,168,72051,1,0
168,216,72303,2,0,B|216:216|216:272|144:272,1,95,0|8
80,272,72807,5,0
72,312,72933,1,0
104,336,73060,1,0
192,336,73312,1,8
280,336,73564,1,8
368,336,73816,1,0
424,272,74068,5,0
440,232,74194,1,8
368,192,74446,1,0
328,184,74572,1,8
240,184,74824,1,0
208,216,74950,1,0
176,184,75076,1,4
120,120,75328,5,0
200,80,75581,1,8
120,48,75833,1,0
48,96,76085,1,0
48,96,76337,1,0
48,184,76589,1,8
48,224,76715,1,0
48,264,76841,1,0
128,224,77093,5,0
216,224,77345,1,0
216,312,77597,1,8
256,312,77723,1,0
296,312,77849,2,0,B|344:312,1,47.5,0|0
344,224,78354,6,0,B|344:176,1,47.5,0|8
264,176,78858,2,0,B|264:232,1,47.5,0|4
184,224,79362,2,0,B|184:176,1,47.5,0|8
104,176,79866,2,0,B|104:232,1,47.5,0|0
40,272,80370,1,0
40,272,80623,1,8
112,320,80875,5,0
112,320,81001,1,0
112,320,81127,1,0
200,320,81379,1,0
240,320,81505,1,0
280,320,81631,1,8
280,320,81883,1,0
256,176,82135,5,0
184,56,82387,5,0
144,56,82513,1,0
104,56,82639,2,0,B|56:56,1,47.5,8|0
56,144,83144,2,0,B|56:192,1,47.5,4|0
136,192,83648,2,0,B|136:136,1,47.5,8|0
216,144,84152,2,0,B|216:192,1,47.5,0|0
216,280,84656,1,8
128,280,84908,5,0
168,352,85160,1,0
168,352,85286,1,0
168,352,85412,1,0
256,352,85665,1,8
296,352,85791,1,0
336,352,85917,2,0,B|392:352|392:288,1,95
480,288,86421,2,0,B|480:216|432:200,1,95,0|8
360,208,86925,5,0
320,216,87051,1,0
280,200,87177,1,4
208,160,87429,1,0
120,168,87681,1,8
120,168,87933,1,0
80,184,88060,1,0
48,208,88186,1,0
120,248,88438,2,0,B|104:320|192:320,2,95,0|8|0
160,248,89068,1,0
200,248,89194,1,4
248,320,89446,5,0
296,248,89698,1,8
248,176,89950,1,0
248,176,90076,1,0
248,176,90202,1,0
176,120,90455,1,0
136,112,90581,1,0
112,80,90707,1,8
168,16,90959,1,8
208,24,91085,1,0
232,56,91211,1,4
256,192,91274,12,4,95244
