osu file format v6

[General]
AudioFilename: Prophecy (TV Size).mp3
AudioLeadIn: 0
PreviewTime: 56673
Countdown: 0
SampleSet: Normal
StackLeniency: 0.4
Mode: 0
LetterboxInBreaks: 1

[Editor]
Bookmarks: 8522,16589,24656,32723,40791,58186,67009,75076,83144,91211
DistanceSpacing: 0.800000011920929
BeatDivisor: 4
GridSize: 32

[Metadata]
Title:Prophecy (TV Size)
Artist:Kawada Mami
Creator:DJPop
Version:Normal
Source:Shakugan no Shana S
Tags:OVA

[Difficulty]
HPDrainRate:3
CircleSize:4
OverallDifficulty:4
SliderMultiplier:1.28
SliderTickRate:2

[Events]
//Background and Video events
0,0,"Prophecy (TV Size).png"
Video,-50,"Prophecy (TV Size).avi"
//Break Periods
//Storyboard Layer 0 (Background)
//Storyboard Layer 1 (Fail)
//Storyboard Layer 2 (Pass)
//Storyboard Layer 3 (Foreground)
//Storyboard Sound Samples
//Background Colour Transformations
3,100,0,0,0

[TimingPoints]
455,504.201680672269,4,1,1,75,1,0
19992,-100,4,1,2,75,0,0
20244,-100,4,1,1,75,0,0
22009,-100,4,1,2,75,0,0
22261,-100,4,1,1,75,0,0
23018,-100,4,1,2,75,0,0
23270,-100,4,1,1,75,0,0
28060,-100,4,1,2,75,0,0
28312,-100,4,1,1,75,0,0
30076,-100,4,1,2,75,0,0
30328,-100,4,1,1,75,0,0
32093,-100,4,1,2,75,0,0
32345,-100,4,1,1,75,0,0
42177,-100,4,1,2,75,0,0
42429,-100,4,1,1,75,0,0
44194,-100,4,1,2,75,0,0
44446,-100,4,1,1,75,0,0
48228,-100,4,1,2,75,0,0
48480,-100,4,1,1,75,0,0
50244,-100,4,1,2,75,0,0
50497,-100,4,1,1,75,0,0
52261,-100,4,1,2,75,0,0
52513,-100,4,1,1,75,0,0
56295,-100,4,1,2,75,0,0
57681,-100,4,1,1,75,0,0
58942,-100,4,1,1,75,0,1
62345,-100,4,1,2,75,0,1
62597,-100,4,1,1,75,0,1
66379,-100,4,1,2,75,0,1
66883,-100,4,1,1,75,0,1
74446,-100,4,1,2,75,0,1
74698,-100,4,1,1,75,0,1
77471,-100,4,1,2,75,0,1
77723,-100,4,1,1,75,0,1
78480,-100,4,1,2,75,0,1
78732,-100,4,1,1,75,0,1
81505,-100,4,1,2,75,0,1
81757,-100,4,1,1,75,0,1
85539,-100,4,1,2,75,0,1
85791,-100,4,1,1,75,0,1
88564,-100,4,1,2,75,0,1
88816,-100,4,1,1,75,0,1
91463,-100,4,1,1,75,0,0

[Colours]
Combo1 : 255,192,128
Combo2 : 255,128,128
Combo3 : 255,0,0
Combo4 : 255,128,0

[HitObjects]
256,32,8522,5,4
256,128,9026,1,8
256,256,9656,2,0,C|256:352,1,96,8|8
352,352,10539,5,0
448,352,11043,2,0,C|448:256,1,96,8|0
448,128,12051,1,8
448,32,12555,5,4
352,32,13060,1,8
224,32,13690,2,0,C|128:32,1,96,8|8
32,32,14572,5,0
32,128,15076,1,8
32,256,15707,2,0,C|32:351,1,96,8|8
128,352,16589,5,4
224,352,17093,1,8
320,352,17597,2,0,C|448:352,1,128,0|8
448,256,18606,5,0
352,256,19110,1,8
352,256,19362,2,0,C|224:256,2,128
352,160,20875,5,0
352,160,21127,1,8
352,64,21631,2,0,C|448:64,2,96
352,64,22639,2,0,C|256:64,2,96
352,160,23900,2,0,C|416:160,2,64,0|8|0
256,160,24908,5,0
256,160,25160,1,8
160,160,25665,2,0,C|160:32,1,128,0|8
64,32,26673,5,0
64,128,27177,1,8
64,128,27429,2,0,C|64:256,2,128
160,128,28942,5,0
160,128,29194,1,8
160,224,29698,2,0,B|215:204|240:256,2,96
160,224,30707,2,0,B|105:204|80:256,1,96
80,336,31463,2,0,C|336:336,1,256,0|0
336,336,32723,5,4
432,336,33228,1,8
384,224,33858,2,0,C|384:128,1,96,8|8
384,32,34740,5,0
288,32,35244,2,0,C|192:32,1,96,8|0
192,160,36253,1,8
96,160,36757,5,4
96,256,37261,1,8
224,256,37891,2,0,C|224:352,1,96,8|8
128,352,38774,6,0,C|64:352,4,64,8|8|8|8|8
160,288,40160,1,8
128,160,40791,5,4
88,96,41169,1,0
128,32,41547,2,0,C|384:32,1,256
384,32,42807,5,0
424,96,43186,1,0
384,160,43564,2,0,C|128:160,1,256
128,160,44824,5,4
128,256,45328,2,0,C|32:256,2,96,8|0|0
128,256,46337,1,8
128,352,46841,5,0
192,312,47219,1,0
256,352,47597,2,0,L|328:352|328:336|408:336|408:320|480:320,1,256
480,320,48858,5,4
480,240,49236,1,0
480,160,49614,2,0,L|408:160|408:144|328:144|328:128|256:128,1,256
256,128,50875,5,0
256,32,51253,1,0
160,32,51631,2,0,L|32:32|32:160,1,256
32,160,52891,5,4
32,256,53396,1,8
32,256,53648,1,0
32,352,54152,1,0
32,352,54404,1,8
128,352,54908,5,4
208,352,55286,1,0
288,352,55665,2,0,B|358:352|480:352|480:192,1,288,0|8
32,192,58186,6,0,B|0:65|96:32,1,192,0|4
192,32,59446,2,0,C|288:32,2,96,8|0|0
192,128,60707,5,0
192,128,60959,1,0
144,192,61337,1,0
192,256,61715,2,0,B|192:368|288:391|384:368|384:256,1,320
288,256,63480,6,0,C|288:160,2,96,8|0|0
288,352,64740,1,0
288,352,64992,5,0
192,352,65497,1,8
192,352,65749,1,0
96,352,66253,6,0,B|48:320|36:272|48:224|96:192,1,192,0|4
192,192,67513,2,0,C|288:192,2,96,8|0|0
192,96,68774,1,0
192,96,69026,5,0
264,64,69404,1,0
336,32,69782,2,0,B|471:32|480:128,1,192,0|8
480,224,71043,5,0
384,224,71547,2,0,C|384:320,2,96,8|0|0
384,128,72807,1,0
384,128,73060,5,0
288,128,73564,1,8
288,128,73816,1,0
288,32,74320,2,0,C|96:32,1,192,0|4
32,32,75328,6,0,C|32:96,2,64,0|8|0
112,96,76337,1,0
112,96,76589,1,8
32,160,77093,6,0,C|32:256,2,96
128,160,78354,2,0,C|320:160,1,192,0|4
384,160,79362,6,0,C|448:160,2,64,0|8|0
384,256,80370,1,0
384,256,80623,1,8
384,352,81127,6,0,C|480:352,2,96
288,352,82387,1,0
288,352,82639,1,8
192,352,83144,6,0,C|192:288,3,64,4|0|8|0
192,192,84404,1,0
192,192,84656,1,8
96,192,85160,6,0,C|96:288,2,96
96,96,86421,1,0
96,96,86673,1,8
192,96,87177,5,0
288,96,87681,1,8
288,192,88186,2,0,C|384:192,2,96
256,192,89194,5,4
256,192,89446,12,4,91211
