osu file format v6

[General]
AudioFilename: Prophecy (TV Size).mp3
AudioLeadIn: 0
PreviewTime: 56673
Countdown: 0
SampleSet: Normal
StackLeniency: 0.4
Mode: 0
LetterboxInBreaks: 1

[Editor]
Bookmarks: 8522,16589,24656,32723,40791,48858,58186,67009,75076,83144,91211
DistanceSpacing: 0.800000011920929
BeatDivisor: 4
GridSize: 32

[Metadata]
Title:Prophecy (TV Size)
Artist:Kawada Mami
Creator:DJPop
Version:Insane
Source:Shakugan no Shana S
Tags:OVA

[Difficulty]
HPDrainRate:6
CircleSize:5
OverallDifficulty:8
SliderMultiplier:1.9
SliderTickRate:1

[Events]
//Background and Video events
0,0,"Prophecy (TV Size).png"
Video,-50,"Prophecy (TV Size).avi"
//Break Periods
//Storyboard Layer 0 (Background)
//Storyboard Layer 1 (Fail)
//Storyboard Layer 2 (Pass)
//Storyboard Layer 3 (Foreground)
//Storyboard Sound Samples
//Background Colour Transformations
3,100,0,0,0

[TimingPoints]
455,504.201680672269,4,1,1,75,1,0
56925,-200,4,1,1,0,0,0
57933,-100,4,1,1,0,0,0
58060,-100,4,1,1,75,0,0
58942,-100,4,1,1,75,0,1
91337,-100,4,1,1,0,0,1
95497,-100,4,1,1,0,0,0

[Colours]
Combo1 : 255,192,128
Combo2 : 255,128,128
Combo3 : 255,0,0
Combo4 : 255,128,0

[HitObjects]
256,32,8522,5,4
256,96,8774,1,0
256,160,9026,1,8
256,256,9404,1,0
256,352,9656,1,8
256,320,9782,1,0
256,256,10034,1,8
96,256,10539,5,0
64,320,10791,1,0
32,256,11043,1,8
32,160,11421,1,0
64,96,11673,1,0
96,160,11925,1,0
96,160,12051,1,8
128,96,12303,1,0
160,32,12555,5,4
224,32,12807,1,0
288,32,13060,1,8
384,32,13438,1,0
416,96,13690,1,8
448,96,13816,1,0
480,160,14068,1,8
480,320,14572,5,0
416,352,14824,1,0
384,336,14950,1,0
352,320,15076,1,8
320,336,15202,1,0
288,352,15328,1,0
256,336,15454,1,0
224,320,15581,1,0
192,336,15707,1,8
160,352,15833,1,0
96,352,16085,1,8
64,336,16211,1,8
32,320,16337,1,0
32,256,16589,5,4
32,192,16841,1,0
32,128,17093,1,8
64,64,17345,1,0
128,32,17597,1,0
192,32,17849,1,0
208,32,17976,2,0,B|256:32,1,47.5,0|8
320,64,18354,1,0
336,96,18480,1,0
320,128,18606,1,0
256,160,18858,5,0
192,160,19110,1,8
128,160,19362,2,0,B|128:208,1,47.5
128,272,19740,2,0,B|128:320,2,47.5
128,256,20118,1,8
192,224,20370,1,0
224,224,20497,1,8
256,224,20623,1,0
320,256,20875,5,0
352,320,21127,1,8
416,352,21379,1,0
480,320,21631,2,0,B|480:272,1,47.5,0|8
480,208,22009,2,0,B|480:160,1,47.5,0|8
480,96,22387,1,0
448,32,22639,5,0
416,96,22891,1,0
416,128,23018,1,0
416,160,23144,1,8
352,192,23396,2,0,B|304:192,1,47.5
304,128,23774,2,0,B|352:128,2,47.5
288,128,24152,1,8
256,64,24404,2,0,B|160:64,1,95
96,32,24908,5,0
32,64,25160,1,8
96,96,25412,1,0
32,128,25665,1,0
96,160,25917,1,0
96,192,26043,1,0
96,224,26169,1,8
32,256,26421,2,0,B|32:208,2,47.5
96,288,26925,5,0
32,320,27177,1,8
96,352,27429,2,0,B|144:352,1,47.5
208,352,27807,1,0
240,336,27933,1,0
256,304,28060,1,0
272,272,28186,1,8
336,240,28438,1,0
368,256,28564,1,8
384,288,28690,1,0
416,352,28942,5,0
448,288,29194,1,8
480,224,29446,1,0
448,160,29698,2,0,B|448:112,1,47.5,0|8
384,80,30076,2,0,B|384:128,1,47.5,0|8
320,96,30455,1,0
256,64,30707,5,0
192,32,30959,1,8
160,48,31085,1,0
128,64,31211,1,8
96,128,31463,1,8
80,160,31589,1,8
64,192,31715,2,0,B|40:240,2,47.5
128,224,32219,1,8
192,192,32471,1,0
256,160,32723,5,4
256,96,32976,1,0
256,32,33228,1,8
352,32,33606,1,0
352,96,33858,1,8
352,96,33984,1,0
352,160,34236,1,8
480,224,34740,5,0
480,288,34992,1,0
480,352,35244,1,8
384,352,35623,1,0
384,288,35875,1,0
384,224,36127,1,0
384,224,36253,1,8
320,192,36505,1,0
256,160,36757,5,4
192,192,37009,1,0
128,224,37261,1,8
32,224,37639,1,0
32,288,37891,1,8
32,288,38018,1,0
32,352,38270,1,8
192,352,38774,5,8
224,336,38900,1,0
256,320,39026,1,8
320,288,39278,1,8
256,256,39530,1,8
224,240,39656,1,0
192,224,39782,1,8
224,208,39908,1,8
256,192,40034,1,0
288,176,40160,1,8
320,160,40286,1,8
288,144,40412,1,8
256,128,40539,1,0
224,112,40665,1,8
192,96,40791,6,0,B|96:96,1,95,4|0
64,96,41169,1,0
32,96,41295,1,8
32,32,41547,1,0
64,32,41673,1,0
160,32,42051,1,0
224,32,42303,1,8
288,32,42555,1,0
352,32,42807,6,0,B|406:47|416:96,1,95
416,128,43186,1,0
416,160,43312,1,8
480,192,43564,2,0,B|480:240,1,47.5
416,272,43942,1,0
480,304,44194,1,0
480,304,44320,1,8
416,336,44572,1,0
384,344,44698,1,8
352,352,44824,1,4
288,352,45076,5,0
224,352,45328,1,8
192,288,45581,1,0
192,256,45707,1,0
256,224,45959,2,0,B|256:176,1,47.5,8|0
320,144,46337,1,8
256,112,46589,1,0
248,48,46841,6,0,B|212:11|160:32,1,95
128,48,47219,1,0
96,64,47345,1,8
32,96,47597,2,0,B|32:144,1,47.5
96,176,47976,1,0
64,240,48228,1,0
48,272,48354,1,8
80,336,48606,1,0
152,352,48858,6,0,B|224:288,1,95,4|0
248,264,49236,1,0
272,240,49362,1,8
336,272,49614,1,0
352,304,49740,2,0,B|392:352|451:344|480:320,1,142.5
480,256,50370,1,8
480,192,50623,1,0
480,128,50875,6,0,B|467:76|416:64,1,95
384,64,51253,1,0
352,64,51379,1,8
288,32,51631,1,0
256,32,51757,1,0
192,64,52009,1,0
256,96,52261,1,0
288,96,52387,1,8
352,128,52639,5,0
368,160,52765,1,8
384,192,52891,2,0,B|384:288,1,95,4|0
352,352,53396,1,8
320,288,53648,2,0,B|272:288,1,47.5
256,352,54026,1,8
224,352,54152,1,0
160,320,54404,1,8
96,288,54656,1,0
32,256,54908,5,4
32,192,55160,2,0,B|72:152,1,47.5,8|0
88,136,55412,2,0,B|128:96,1,47.5,8|0
144,80,55665,1,8
176,64,55791,1,8
208,48,55917,2,0,B|304:48,1,95
336,64,56295,1,0
368,80,56421,1,8
400,144,56673,1,8
432,128,56799,1,8
448,96,56925,6,0,B|448:48,4,47.5
480,160,58186,1,0
448,224,58438,1,0
480,288,58690,1,0
464,320,58816,1,0
448,352,58942,5,4
384,352,59194,1,0
352,288,59446,1,8
288,320,59698,1,0
256,320,59824,2,0,B|160:320,1,95,8|8
128,320,60202,2,0,B|32:320,1,95,0|8
32,256,60707,1,0
32,192,60959,6,0,B|128:192,1,95
160,192,61337,1,0
192,192,61463,1,8
256,192,61715,2,0,B|296:232,1,47.5,0|8
352,224,62093,2,0,B|392:184,1,47.5,8|0
448,192,62471,1,8
480,128,62723,1,0
480,96,62849,1,0
480,64,62976,5,0
416,32,63228,1,0
352,32,63480,1,8
320,96,63732,1,0
288,96,63858,2,0,B|192:96,1,95,8|8
160,96,64236,2,0,B|64:96,1,95,0|8
32,160,64740,1,0
64,224,64992,6,0,B|160:224,1,95
192,160,65497,1,8
224,224,65749,2,0,B|272:224,1,47.5,0|8
336,224,66127,1,8
368,208,66253,1,0
400,192,66379,1,0
416,160,66505,1,8
480,160,66757,1,8
480,192,66883,1,0
480,224,67009,5,4
448,288,67261,1,0
416,352,67513,1,8
384,288,67765,1,0
384,288,67891,1,8
352,352,68144,1,8
352,352,68270,1,0
320,288,68522,1,8
288,352,68774,1,0
224,352,69026,5,0
160,320,69278,1,0
128,304,69404,1,0
96,288,69530,1,8
32,256,69782,1,0
48,224,69908,1,8
80,160,70160,1,8
96,128,70286,1,0
32,96,70539,1,8
64,32,70791,1,0
96,32,70917,1,0
128,32,71043,5,0
192,64,71295,1,0
256,32,71547,1,8
320,64,71799,1,0
352,64,71925,1,8
416,32,72177,1,8
448,32,72303,1,0
480,96,72555,1,8
448,160,72807,1,0
384,192,73060,5,0
320,224,73312,1,8
256,192,73564,1,8
192,160,73816,1,0
192,160,73942,1,8
128,192,74194,1,8
128,192,74320,1,0
64,224,74572,1,8
32,288,74824,1,0
96,288,75076,6,0,B|84:339|32:352,2,95,4|0|8
160,288,75833,2,0,B|208:288,1,47.5
240,352,76211,2,0,B|288:352,1,47.5,8|0
320,288,76589,1,8
352,352,76841,1,0
416,352,77093,6,0,B|468:339|480:288,1,95
480,256,77471,1,0
480,224,77597,1,8
448,160,77849,1,0
416,144,77976,2,0,B|416:48,2,95
384,160,78606,1,8
320,192,78858,1,0
256,224,79110,5,4
224,160,79362,1,0
160,192,79614,1,8
128,128,79866,1,0
96,128,79992,2,0,B|45:116|32:64,1,95,0|8
32,32,80370,1,0
96,32,80623,1,8
160,64,80875,5,0
192,48,81001,1,0
224,32,81127,1,0
288,32,81379,2,0,C|336:32,2,47.5,0|0|8
256,96,81883,2,0,B|256:144,1,47.5
320,176,82261,1,8
384,144,82513,1,0
400,112,82639,1,8
416,80,82765,1,8
448,64,82891,1,0
480,128,83144,5,4
448,192,83396,1,0
416,256,83648,1,8
480,288,83900,1,0
464,320,84026,1,0
400,352,84278,1,8
384,320,84404,1,0
320,352,84656,1,8
256,352,84908,1,0
256,288,85160,5,0
256,224,85412,1,0
256,192,85539,1,0
256,160,85665,1,8
304,112,85917,1,0
304,80,86043,1,0
256,32,86295,1,0
208,80,86547,1,0
208,112,86673,1,8
256,160,86925,5,0
256,192,87051,1,0
256,224,87177,1,4
256,288,87429,1,0
256,352,87681,1,8
160,320,88060,5,0
128,336,88186,1,0
96,320,88312,1,8
96,288,88438,1,0
128,272,88564,1,0
160,288,88690,1,8
192,224,88942,5,0
160,160,89194,1,4
96,160,89446,1,0
64,224,89698,1,8
32,128,90076,5,0
64,64,90328,1,8
128,64,90581,1,0
160,75,90707,1,8
192,85,90833,1,8
224,96,90959,1,0
256,32,91211,5,4
256,192,91274,12,4,95244
