osu file format v6

[General]
AudioFilename: Prophecy (TV Size).mp3
AudioLeadIn: 0
PreviewTime: 56673
Countdown: 0
SampleSet: Normal
StackLeniency: 0.4
Mode: 0
LetterboxInBreaks: 1

[Editor]
Bookmarks: 8522,16589,24656,32723,40791,48858,58186,67009,75076,83144,91211
DistanceSpacing: 0.800000011920929
BeatDivisor: 4
GridSize: 32

[Metadata]
Title:Prophecy (TV Size)
Artist:Kawada Mami
Creator:DJPop
Version:Hard
Source:Shakugan no Shana S
Tags:OVA

[Difficulty]
HPDrainRate:5
CircleSize:4
OverallDifficulty:6
SliderMultiplier:1.6
SliderTickRate:2

[Events]
//Background and Video events
0,0,"Prophecy (TV Size).png"
Video,-50,"Prophecy (TV Size).avi"
//Break Periods
//Storyboard Layer 0 (Background)
//Storyboard Layer 1 (Fail)
//Storyboard Layer 2 (Pass)
//Storyboard Layer 3 (Foreground)
//Storyboard Sound Samples
//Background Colour Transformations
3,100,0,0,0

[TimingPoints]
455,504.201680672269,4,1,1,75,1,0
19992,-100,4,1,2,75,0,0
20244,-100,4,1,1,75,0,0
22009,-100,4,1,2,75,0,0
22261,-100,4,1,1,75,0,0
23018,-100,4,1,2,75,0,0
23270,-100,4,1,1,75,0,0
28060,-100,4,1,2,75,0,0
28312,-100,4,1,1,75,0,0
58942,-100,4,1,1,75,0,1
91337,-100,4,1,1,0,0,1
95497,-100,4,1,1,0,0,0

[Colours]
Combo1 : 255,192,128
Combo2 : 255,128,128
Combo3 : 255,0,0
Combo4 : 255,128,0

[HitObjects]
256,352,8522,5,4
256,288,8774,1,0
256,224,9026,1,8
224,128,9404,1,0
240,64,9656,2,0,B|256:41|272:64,1,40,8|0
288,128,10034,1,8
416,128,10539,5,0
448,64,10791,1,0
480,128,11043,1,8
480,224,11421,1,0
448,288,11673,1,0
416,224,11925,2,0,B|401:201|384:224,1,40,0|8
352,288,12303,1,0
320,352,12555,5,4
256,352,12807,1,0
192,352,13060,1,8
192,256,13438,1,0
224,192,13690,2,0,B|239:169|256:192,1,40,8|0
288,256,14068,1,8
384,160,14572,5,0
352,96,14824,1,0
288,64,15076,1,8
224,64,15328,2,0,C|224:24,4,40,0|0|0|8|0
160,64,16085,2,0,C|160:104,2,40,8|8|0
96,64,16589,5,4
32,96,16841,1,0
64,160,17093,1,8
96,224,17345,1,0
32,256,17597,1,0
64,320,17849,2,0,C|64:360,1,40
160,320,18354,6,0,C|160:360,2,40
224,288,18858,1,0
288,320,19110,1,8
352,352,19362,1,0
480,352,19866,2,0,B|496:224|400:256|416:128,1,240
416,64,20875,5,0
352,32,21127,1,8
288,64,21379,1,0
256,128,21631,2,0,B|256:210|312:224,2,120
192,128,22639,6,0,B|192:46|136:32,2,120
64,128,23900,1,0
32,192,24152,1,8
64,256,24404,1,0
160,352,24908,5,0
224,352,25160,1,8
288,352,25412,1,0
352,352,25665,1,0
416,352,25917,1,0
416,352,26043,1,0
416,256,26421,5,0
416,256,26547,1,0
416,256,26673,1,0
437,192,26925,1,0
459,128,27177,1,8
480,64,27429,1,0
352,32,27933,2,0,B|320:96|256:113|192:96|160:32,1,240
96,32,28942,5,0
32,64,29194,1,8
96,96,29446,1,0
32,128,29698,1,0
32,224,30076,1,0
32,320,30455,1,0
96,352,30707,5,0
96,256,31085,1,0
96,160,31463,2,0,B|244:160|224:320,1,240,0|8
288,352,32471,1,0
352,320,32723,5,4
416,288,32976,1,0
480,256,33228,1,8
480,160,33606,1,0
448,96,33858,1,8
448,96,33984,1,0
416,32,34236,1,8
288,32,34740,5,0
256,96,34992,1,0
224,32,35244,1,8
192,128,35623,5,0
128,96,35875,1,0
64,128,36127,1,0
64,128,36253,1,8
32,192,36505,1,0
64,256,36757,1,4
128,288,37009,1,0
192,256,37261,1,8
224,352,37639,5,0
256,288,37891,1,8
256,288,38018,1,0
288,352,38270,1,8
416,352,38774,5,8
448,288,39026,1,8
480,224,39278,1,8
448,160,39530,1,8
416,96,39782,1,8
416,96,39908,1,8
352,64,40160,2,0,C|352:24,2,40,8|8|8
288,96,40665,1,8
288,96,40791,5,4
192,64,41169,1,0
96,96,41547,2,0,B|32:128|15:188|32:256|96:288,1,240,0|8
160,320,42555,1,0
224,352,42807,5,0
320,320,43186,1,0
416,288,43564,2,0,B|480:256|498:192|480:128|416:96,1,240,0|8
352,64,44572,2,0,C|352:24,2,40,0|0|4
288,96,45076,5,0
224,64,45328,1,8
160,32,45581,1,0
160,32,45707,2,0,B|32:49|32:160,1,200,0|8
32,224,46589,1,0
32,288,46841,5,0
128,320,47219,1,0
224,352,47597,2,0,B|352:368|320:272|448:288,1,240,0|8
480,224,48606,1,0
448,160,48858,5,4
352,128,49236,1,0
320,224,49614,2,0,B|192:240|224:144|96:160,1,240,0|8
64,96,50623,1,0
96,32,50875,5,0
192,64,51253,1,0
288,32,51631,2,0,B|450:4|480:128,1,240,0|8
480,192,52639,1,0
480,192,52765,1,0
480,192,52891,5,4
352,192,53396,1,8
288,192,53648,1,0
160,192,54152,1,0
96,192,54404,1,8
32,192,54656,1,0
32,256,54908,5,4
128,288,55286,1,0
224,320,55665,2,0,B|264:352|336:379|408:352|448:320,1,240,0|8
480,256,56673,1,8
480,256,56799,1,8
32,128,58186,5,0
96,96,58438,1,0
160,64,58690,2,0,C|160:24,2,40,0|0|4
224,96,59194,1,0
288,128,59446,1,8
352,96,59698,1,0
352,96,59824,2,0,B|368:64|400:55|432:64|448:96,1,120
448,224,60707,5,0
448,288,60959,1,0
352,320,61337,1,0
256,352,61715,2,0,B|128:384|192:224|63:256,1,240,0|8
64,192,62723,6,0,C|24:192,2,40
64,128,63228,1,0
64,64,63480,1,8
128,32,63732,1,0
128,32,63858,2,0,B|178:6|216:24|224:64,1,120
224,192,64740,1,0
288,192,64992,5,0
288,64,65497,1,8
352,32,65749,1,0
480,32,66253,1,0
480,64,66379,1,0
480,96,66505,1,8
448,160,66757,1,8
448,192,66883,1,0
448,224,67009,5,4
480,288,67261,1,0
480,352,67513,1,8
416,352,67765,1,0
384,352,67891,1,0
288,352,68270,2,0,B|240:365|224:320,1,80,0|8
192,256,68774,1,0
160,192,69026,5,0
96,264,69404,1,0
32,192,69782,2,0,B|13:32|160:32,1,240,0|8
224,32,70791,1,0
256,32,70917,1,0
288,32,71043,5,0
352,32,71295,1,0
416,64,71547,1,8
448,128,71799,1,0
448,160,71925,1,0
448,256,72303,2,0,B|461:304|416:320,1,80,0|8
352,352,72807,1,0
288,320,73060,5,0
176,256,73564,1,8
112,224,73816,1,0
32,128,74320,1,0
64,64,74572,1,8
128,32,74824,1,0
192,64,75076,2,0,B|237:80|224:128,2,80,4|0|8
128,128,75959,5,0
128,192,76211,1,8
128,192,76337,1,0
128,256,76589,1,8
224,352,77093,6,0,C|144:352,2,80,0|0|8
320,352,77976,1,0
384,352,78228,1,0
448,320,78480,1,0
448,320,78606,1,8
480,256,78858,1,0
480,192,79110,6,0,C|480:112,2,80,4|0|8
384,192,79992,1,0
320,224,80244,1,8
320,224,80370,1,0
256,256,80623,1,8
128,256,81127,6,0,C|64:320,2,80,0|0|8
192,192,82009,1,0
192,128,82261,1,8
192,64,82513,2,0,C|216:32,3,40,0|8|8|0
288,32,83144,5,4
352,32,83396,1,0
416,32,83648,1,8
448,128,84026,1,0
480,192,84278,1,8
480,192,84404,1,0
448,256,84656,1,8
320,256,85160,5,0
288,320,85412,1,0
224,352,85665,1,8
128,352,86043,1,0
64,320,86295,1,0
32,256,86547,1,0
32,256,86673,1,8
64,192,86925,1,0
32,128,87177,5,0
64,64,87429,1,0
128,32,87681,1,8
224,32,88060,1,0
256,96,88312,1,8
256,96,88438,1,0
288,32,88690,1,8
416,32,89194,5,4
448,96,89446,1,0
480,160,89698,1,8
448,256,90076,1,0
384,288,90328,1,8
320,256,90581,2,0,C|280:256,1,40,0|8
296,288,90833,2,0,C|256:288,1,40,8|0
256,352,91211,5,4
256,192,91274,12,4,95244
