osu file format v6

[General]
AudioFilename: Prophecy (TV Size).mp3
AudioLeadIn: 0
PreviewTime: 56673
Countdown: 0
SampleSet: Normal
StackLeniency: 0.4
Mode: 0
LetterboxInBreaks: 1

[Editor]
Bookmarks: 8522,16589,24656,32723,40791,48858,58186,67009,75076,83144,91211
DistanceSpacing: 0.600000023841858
BeatDivisor: 4
GridSize: 32

[Metadata]
Title:Prophecy (TV Size)
Artist:Kawada Mami
Creator:DJPop
Version:Easy
Source:Shakugan no Shana S
Tags:OVA

[Difficulty]
HPDrainRate:2
CircleSize:3
OverallDifficulty:2
SliderMultiplier:0.96
SliderTickRate:2

[Events]
//Background and Video events
0,0,"Prophecy (TV Size).png"
Video,-50,"Prophecy (TV Size).avi"
//Break Periods
//Storyboard Layer 0 (Background)
//Storyboard Layer 1 (Fail)
//Storyboard Layer 2 (Pass)
//Storyboard Layer 3 (Foreground)
//Storyboard Sound Samples
//Background Colour Transformations
3,100,0,0,0

[TimingPoints]
455,504.201680672269,4,1,1,75,1,0
41169,-100,4,1,2,75,0,0
41421,-100,4,1,1,75,0,0
43186,-100,4,1,2,75,0,0
43438,-100,4,1,1,75,0,0
45202,-100,4,1,2,75,0,0
45455,-100,4,1,1,75,0,0
47219,-100,4,1,2,75,0,0
47471,-100,4,1,1,75,0,0
49236,-100,4,1,2,75,0,0
49488,-100,4,1,1,75,0,0
51253,-100,4,1,2,75,0,0
51505,-100,4,1,1,75,0,0
53270,-100,4,1,2,75,0,0
53522,-100,4,1,1,75,0,0
55034,-100,4,1,2,75,0,0
55791,-100,4,1,1,75,0,0
56295,-100,4,1,2,75,0,0
57933,-100,4,1,1,75,0,0
58942,-100,4,1,1,75,0,1
59320,-100,4,1,2,75,0,1
59572,-100,4,1,1,75,0,1
60328,-100,4,1,2,75,0,1
60581,-100,4,1,1,75,0,1
61337,-100,4,1,2,75,0,1
61589,-100,4,1,1,75,0,1
63354,-100,4,1,2,75,0,1
63606,-100,4,1,1,75,0,1
64362,-100,4,1,2,75,0,1
64614,-100,4,1,1,75,0,1
65370,-100,4,1,2,75,0,1
65623,-100,4,1,1,75,0,1
67387,-100,4,1,2,75,0,1
67639,-100,4,1,1,75,0,1
69404,-100,4,1,2,75,0,1
69656,-100,4,1,1,75,0,1
71421,-100,4,1,2,75,0,1
71673,-100,4,1,1,75,0,1
73438,-100,4,1,2,75,0,1
73690,-100,4,1,1,75,0,1
75455,-100,4,1,2,75,0,1
75707,-100,4,1,1,75,0,1
76463,-100,4,1,2,75,0,1
76715,-100,4,1,1,75,0,1
79488,-100,4,1,2,75,0,1
79740,-100,4,1,1,75,0,1
80497,-100,4,1,2,75,0,1
80749,-100,4,1,1,75,0,1
83522,-100,4,1,2,75,0,1
83774,-100,4,1,1,75,0,1
84530,-100,4,1,2,75,0,1
84782,-100,4,1,1,75,0,1
87555,-100,4,1,2,75,0,1
87807,-100,4,1,1,75,0,1
88564,-100,4,1,2,75,0,1
88816,-100,4,1,1,75,0,1
91463,-100,4,1,1,75,0,0

[Colours]
Combo1 : 255,192,128
Combo2 : 255,128,128
Combo3 : 255,0,0
Combo4 : 255,128,0

[HitObjects]
256,352,8522,5,4
128,320,9530,1,0
96,192,10539,1,0
128,64,11547,1,0
256,32,12555,5,4
384,64,13564,1,0
416,192,14572,1,0
384,320,15581,1,0
256,352,16589,5,4
144,328,17597,1,0
32,304,18606,1,0
32,192,19614,1,0
32,80,20623,5,0
144,56,21631,1,0
256,32,22639,1,0
368,56,23648,1,0
480,80,24656,5,0
480,192,25665,1,0
480,304,26673,1,0
368,328,27681,1,0
256,352,28690,5,0
256,240,29698,1,0
192,144,30707,2,0,B|256:83|320:144,2,144
128,192,32723,5,4
144,304,33732,1,0
256,336,34740,1,0
368,304,35749,1,0
384,192,36757,5,4
368,80,37765,1,0
256,48,38774,1,0
144,80,39782,1,0
128,192,40791,6,0,C|128:336,1,144,4|0
213,192,42807,2,0,C|213:336,1,144,0|0
299,192,44824,6,0,C|299:336,1,144,4|0
384,192,46841,2,0,C|384:336,1,144
336,192,48858,6,0,C|336:48,1,144,4|0
256,192,50875,2,0,C|256:48,1,144
176,192,52891,2,0,C|176:48,1,144,4|0
96,232,54908,6,0,B|160:296|255:343|351:296|415:232,1,360,4|8
160,192,58942,6,0,B|112:160|100:112|112:64|160:32,3,192,4|0|0|0
352,32,62976,6,0,B|400:64|412:112|400:160|352:192,3,192
448,352,67009,6,0,C|256:352,1,192,4|0
64,280,69026,2,0,C|256:280,1,192
448,208,71043,6,0,C|256:208,1,192
64,136,73060,2,0,C|256:136,1,192
448,64,75076,6,0,C|64:64,1,384,4|0
64,192,78102,1,0
64,320,79110,6,0,C|448:320,1,384,4|0
448,192,82135,1,0
448,64,83144,6,0,C|64:64,1,384,4|0
64,192,86169,1,0
160,256,87177,6,0,C|352:256,2,192,4|0|4
256,192,89446,12,4,91211
