osu file format v13

[General]
AudioFilename: Prophecy (TV Size).mp3
AudioLeadIn: 0
PreviewTime: 56673
Countdown: 0
SampleSet: Normal
StackLeniency: 0.7
Mode: 0
LetterboxInBreaks: 0
WidescreenStoryboard: 0

[Editor]
DistanceSpacing: 1.3
BeatDivisor: 4
GridSize: 4
TimelineZoom: 1

[Metadata]
Title:Prophecy
TitleUnicode:Prophecy
Artist:Kawada Mami
ArtistUnicode:川田まみ
Creator:Inyuschan
Version:Normal
Source:Shakugan no SHANA S
Tags:灼眼のシャナ OVA Burning-Eyed Opening TV Size Sonnyc
BeatmapID:569554
BeatmapSetID:247069

[Difficulty]
HPDrainRate:4
CircleSize:3
OverallDifficulty:4
ApproachRate:5
SliderMultiplier:1.3
SliderTickRate:1

[Events]
//Background and Video events
0,0,"Konachan.com - 29075 shakugan_no_shana shana sword weapon.jpg",0,0
Video,-55,"o3o.avi"
//Break Periods
2,36957,39591
//Storyboard Layer 0 (Background)
//Storyboard Layer 1 (Fail)
//Storyboard Layer 2 (Pass)
//Storyboard Layer 3 (Foreground)
//Storyboard Sound Samples

[TimingPoints]
455,504.201680672269,4,1,1,100,1,0
8522,-100,4,1,1,70,0,0
16589,-100,4,1,1,50,0,0
27177,-100,4,1,2,50,0,0
27303,-100,4,1,1,50,0,0
30707,-100,4,1,1,60,0,0
47345,-100,4,1,2,60,0,0
47471,-100,4,1,1,60,0,0
49362,-100,4,1,2,60,0,0
49488,-100,4,1,1,60,0,0
51379,-100,4,1,2,60,0,0
51505,-100,4,1,1,60,0,0
56799,-100,4,2,1,50,0,0
58186,-100,4,2,1,60,0,0
58942,-100,4,1,1,80,0,1
61463,-100,4,1,2,80,0,1
61589,-100,4,1,1,80,0,1
69530,-100,4,1,2,80,0,1
69656,-100,4,1,1,80,0,1
77597,-100,4,1,2,80,0,1
77723,-100,4,1,1,80,0,1
81631,-100,4,1,2,80,0,1
81757,-100,4,1,1,80,0,1
85665,-100,4,1,2,80,0,1
85791,-100,4,1,1,80,0,1
91211,-100,4,1,1,50,0,0
94236,-100,4,1,1,40,0,0
94488,-100,4,1,1,35,0,0
94740,-100,4,1,1,30,0,0
94992,-100,4,1,1,25,0,0
95244,-100,4,2,1,20,0,0

[Colours]
Combo1 : 241,169,120
Combo2 : 234,209,111
Combo3 : 223,111,111
Combo4 : 196,163,149

[HitObjects]
64,68,8522,6,0,P|128:68|188:120,1,130,4|8,0:0|0:0,0:0:0:0:
256,140,9278,1,0,0:0:0:0:
332,105,9530,2,0,P|384:67|448:68,1,130,0|8,0:0|0:0,0:0:0:0:
496,232,10539,6,0,L|440:296,1,65,0|0,0:0|0:0,0:0:0:0:
388,336,11043,2,0,P|348:352|240:320,1,130,8|0,0:0|0:0,0:0:0:0:
196,288,11799,1,0,0:0:0:0:
136,232,12051,1,8,0:0:0:0:
120,64,12555,6,0,B|188:64|188:64|256:108,2,130,0|8|0,0:0|0:0|0:0,0:0:0:0:
68,132,13816,1,0,0:0:0:0:
16,200,14068,1,8,0:0:0:0:
120,332,14572,6,0,P|156:332|200:312,1,65,0|0,0:0|0:0,0:0:0:0:
256,280,15076,2,0,B|320:280|320:280|384:320,1,130,8|0,0:0|0:0,0:0:0:0:
460,332,15833,1,0,0:0:0:0:
460,332,16085,2,0,L|460:200,1,130,8|4,0:0|0:0,0:0:0:0:
416,132,16841,5,0,0:0:0:0:
356,72,17093,1,8,0:0:0:0:
188,72,17597,2,0,P|136:72|56:128,1,130,0|8,0:0|0:0,0:0:0:0:
44,192,18354,1,0,0:0:0:0:
69,274,18606,6,0,P|123:308|188:312,1,130,0|8,0:0|0:0,0:0:0:0:
256,260,19362,1,0,0:0:0:0:
412,192,19866,2,0,L|500:192,2,65,0|8|0,0:0|0:0|0:0,0:0:0:0:
348,140,20623,5,0,0:0:0:0:
284,84,20875,1,0,0:0:0:0:
216,32,21127,2,0,P|164:32|84:100,2,130,8|0|8,0:0|0:0|0:0,0:0:0:0:
348,140,22639,6,0,L|444:260,1,130,0|8,0:0|0:0,0:0:0:0:
504,284,23396,2,0,P|456:320|368:304,1,130,0|8,0:0|0:0,0:0:0:0:
320,268,24152,1,8,0:0:0:0:
256,216,24404,1,0,0:0:0:0:
192,268,24656,6,0,L|120:320,1,65
68,352,25160,1,8,0:0:0:0:
8,192,25665,1,0,0:0:0:0:
116,60,26169,2,0,L|192:48,1,65,8|0,0:0|0:0,0:0:0:0:
264,44,26673,6,0,P|352:44|436:112,2,195,0|0|8,0:0|0:0|0:0,0:0:0:0:
204,103,28438,2,0,P|184:144|144:171,1,65,0|0,0:0|0:0,0:0:0:0:
164,240,28942,6,0,P|185:266|220:284,1,65,0|8,0:0|0:0,0:0:0:0:
376,324,29698,2,0,B|412:272|412:272|412:192,1,130,0|8,0:0|0:0,0:0:0:0:
348,152,30455,1,0,0:0:0:0:
348,152,30707,6,0,L|268:68,2,97.5,0|0|0,0:0|0:0|0:0,0:0:0:0:
384,316,31967,2,0,P|348:316|312:300,1,65,0|0,0:0|0:0,0:0:0:0:
256,252,32471,1,0,0:0:0:0:
190,305,32723,5,4,0:0:0:0:
256,192,32976,12,0,36757,0:0:0:0:
480,192,40791,6,0,P|480:216|408:308,1,130,4|8,0:0|0:0,0:0:0:0:
352,256,41547,2,0,P|312:256|240:316,1,130,0|0,0:0|0:0,0:0:0:0:
172,352,42303,2,0,L|100:352,1,65,8|0,0:0|0:0,0:0:0:0:
36,309,42807,6,0,B|0:253|0:253|0:173,1,130,0|8,0:0|0:0,0:0:0:0:
52,124,43564,2,0,P|88:84|168:84,1,130,0|0,0:0|0:0,0:0:0:0:
224,140,44320,2,0,L|292:140,1,65,8|0,0:0|0:0,0:0:0:0:
351,80,44824,6,0,P|414:79|460:124,1,130,4|8,0:0|0:0,0:0:0:0:
452,208,45581,1,0,0:0:0:0:
452,208,45833,1,0,0:0:0:0:
364,352,46337,2,0,L|272:352,1,65,8|0,0:0|0:0,0:0:0:0:
213,352,46841,6,0,P|172:352|56:248,2,195,0|0|8,0:0|0:0|0:0,0:0:0:0:
280,300,48606,1,0,0:0:0:0:
332,232,48858,6,0,P|360:184|328:52,2,195,4|0|8,0:0|0:0|0:0,0:0:0:0:
256,192,50623,1,0,0:0:0:0:
180,232,50875,6,0,P|152:184|184:52,2,195,0|0|8,0:0|0:0|0:0,0:0:0:0:
256,272,52639,1,0,0:0:0:0:
324,324,52891,6,0,P|376:324|460:276,1,130,4|8,0:0|0:0,0:0:0:0:
492,220,53648,2,0,L|380:136,1,130,0|0,0:0|0:0,0:0:0:0:
323,87,54404,1,8,0:0:0:0:
256,36,54656,1,0,0:0:0:0:
256,192,54908,12,2,56799,0:0:0:0:
256,60,58186,6,0,L|160:60,2,65,2|2|0,0:0|0:0|0:0,0:0:0:0:
340,60,58942,2,0,P|384:60|456:120,1,130,4|8,0:0|0:0,0:0:0:0:
476,192,59698,2,0,L|376:288,1,130,0|0,0:0|0:0,0:0:0:0:
312,332,60455,2,0,P|272:332|240:320,1,65,8|0,0:0|0:0,0:0:0:0:
192,260,60959,6,0,P|132:224|4:224,2,195,0|0|8,0:0|0:0|0:0,0:0:0:0:
256,316,62723,1,0,0:0:0:0:
320,260,62976,6,0,L|432:168,1,130,0|8,0:0|0:0,0:0:0:0:
500,148,63732,2,0,P|456:104|368:112,1,130,0|0,0:0|0:0,0:0:0:0:
312,132,64488,2,0,P|284:140|236:140,1,65,8|0,0:0|0:0,0:0:0:0:
180,94,64992,6,0,L|100:198,1,130,0|8,0:0|0:0,0:0:0:0:
48,264,65749,1,0,0:0:0:0:
204,332,66253,2,0,L|280:332,1,65,0|8,0:0|0:0,0:0:0:0:
340,284,66757,1,8,0:0:0:0:
408,232,67009,6,0,B|408:164|408:164|364:96,1,130,4|8,0:0|0:0,0:0:0:0:
320,48,67765,2,0,L|176:48,1,130,0|0,0:0|0:0,0:0:0:0:
137,111,68522,2,0,L|96:176,1,65,8|0,0:0|0:0,0:0:0:0:
68,244,69026,6,0,L|224:368,2,195,0|0|8,0:0|0:0|0:0,0:0:0:0:
24,172,70791,1,0,0:0:0:0:
24,88,71043,6,0,P|76:40|152:40,1,130,0|8,0:0|0:0,0:0:0:0:
192,96,71799,2,0,B|236:96|256:108|256:108|276:96|336:96,1,130,0|0,0:0|0:0,0:0:0:0:
404,96,72555,2,0,L|480:145,1,65,8|0,0:0|0:0,0:0:0:0:
492,208,73060,6,0,P|492:252|416:332,1,130,0|8,0:0|0:0,0:0:0:0:
364,344,73816,1,0,0:0:0:0:
216,264,74320,2,0,L|140:208,2,65,0|8|0,0:0|0:0|0:0,0:0:0:0:
296,264,75076,6,0,P|344:264|416:208,1,130,4|8,0:0|0:0,0:0:0:0:
420,48,76085,2,0,P|372:48|300:104,1,130,0|8,0:0|0:0,0:0:0:0:
256,160,76841,1,0,0:0:0:0:
192,216,77093,6,0,P|152:216|40:112,2,195,0|0|8,0:0|0:0|0:0,0:0:0:0:
256,160,78858,1,0,0:0:0:0:
320,216,79110,6,0,L|416:312,1,130,4|8,0:0|0:0,0:0:0:0:
508,168,80118,2,0,L|412:72,1,130,0|8,0:0|0:0,0:0:0:0:
340,40,80875,1,0,0:0:0:0:
256,40,81127,6,0,P|192:40|88:136,2,195,0|0|8,0:0|0:0|0:0,0:0:0:0:
304,112,82891,1,0,0:0:0:0:
348,184,83144,6,0,P|364:244|328:324,1,130,4|8,0:0|0:0,0:0:0:0:
168,306,84152,2,0,P|148:246|164:184,1,130,0|8,0:0|0:0,0:0:0:0:
216,116,84908,1,0,0:0:0:0:
288,72,85160,6,0,P|340:44|484:44,2,195,0|0|8,0:0|0:0|0:0,0:0:0:0:
308,156,86925,1,0,0:0:0:0:
352,228,87177,6,0,P|312:280|232:300,1,130,4|8,0:0|0:0,0:0:0:0:
172,152,88186,2,0,P|212:100|292:80,1,130,0|8,0:0|0:0,0:0:0:0:
352,52,88942,1,0,0:0:0:0:
432,28,89194,5,4,0:0:0:0:
476,192,89698,1,8,0:0:0:0:
432,356,90202,1,0,0:0:0:0:
280,280,90707,1,8,0:0:0:0:
256,192,91211,12,2,95244,0:0:0:0:
