osu file format v13

[General]
AudioFilename: Prophecy (TV Size).mp3
AudioLeadIn: 0
PreviewTime: 56673
Countdown: 0
SampleSet: Normal
StackLeniency: 0.7
Mode: 0
LetterboxInBreaks: 0
WidescreenStoryboard: 0

[Editor]
DistanceSpacing: 1
BeatDivisor: 2
GridSize: 4
TimelineZoom: 1

[Metadata]
Title:Prophecy
TitleUnicode:Prophecy
Artist:Kawada Mami
ArtistUnicode:川田まみ
Creator:Inyuschan
Version:Easy
Source:Shakugan no SHANA S
Tags:灼眼のシャナ OVA Burning-Eyed Opening TV Size Sonnyc
BeatmapID:568957
BeatmapSetID:247069

[Difficulty]
HPDrainRate:2
CircleSize:2
OverallDifficulty:2
ApproachRate:3
SliderMultiplier:1.1
SliderTickRate:1

[Events]
//Background and Video events
0,0,"Konachan.com - 29075 shakugan_no_shana shana sword weapon.jpg",0,0
Video,-55,"o3o.avi"
//Break Periods
2,36957,39351
//Storyboard Layer 0 (Background)
//Storyboard Layer 1 (Fail)
//Storyboard Layer 2 (Pass)
//Storyboard Layer 3 (Foreground)
//Storyboard Sound Samples

[TimingPoints]
455,504.201680672269,4,1,1,100,1,0
8522,-100,4,1,1,70,0,0
9026,-100,4,1,2,70,0,0
9152,-100,4,1,1,70,0,0
11043,-100,4,1,2,70,0,0
11169,-100,4,1,1,70,0,0
13060,-100,4,1,2,70,0,0
13186,-100,4,1,1,70,0,0
14068,-100,4,1,2,70,0,0
14194,-100,4,1,1,70,0,0
16589,-100,4,1,1,50,0,0
19110,-100,4,1,2,50,0,0
19236,-100,4,1,1,50,0,0
23144,-100,4,1,2,50,0,0
23270,-100,4,1,1,50,0,0
27177,-100,4,1,2,50,0,0
27303,-100,4,1,1,50,0,0
30707,-100,4,1,1,60,0,0
41295,-100,4,1,2,60,0,0
41421,-100,4,1,1,60,0,0
43312,-100,4,1,2,60,0,0
43438,-100,4,1,1,60,0,0
45328,-100,4,1,2,60,0,0
45455,-100,4,1,1,60,0,0
47345,-100,4,1,2,60,0,0
47471,-100,4,1,1,60,0,0
49362,-100,4,1,2,60,0,0
49488,-100,4,1,1,60,0,0
51379,-100,4,1,2,60,0,0
51505,-100,4,1,1,60,0,0
53396,-100,4,1,2,60,0,0
53522,-100,4,1,1,60,0,0
56799,-100,4,2,1,50,0,0
58186,-100,4,2,1,60,0,0
58942,-100,4,1,1,80,0,1
61463,-100,4,1,2,80,0,1
61589,-100,4,1,1,80,0,1
67513,-100,4,1,2,80,0,1
67639,-100,4,1,1,80,0,1
69530,-100,4,1,2,80,0,1
69656,-100,4,1,1,80,0,1
73564,-100,4,1,2,80,0,1
73690,-100,4,1,1,80,0,1
75581,-100,4,1,2,80,0,1
75707,-100,4,1,1,80,0,1
77597,-100,4,1,2,80,0,1
77723,-100,4,1,1,80,0,1
79614,-100,4,1,2,80,0,1
79740,-100,4,1,1,80,0,1
81631,-100,4,1,2,80,0,1
81757,-100,4,1,1,80,0,1
83648,-100,4,1,2,80,0,1
83774,-100,4,1,1,80,0,1
85665,-100,4,1,2,80,0,1
85791,-100,4,1,1,80,0,1
91211,-100,4,1,1,50,0,0
94236,-100,4,1,1,40,0,0
94488,-100,4,1,1,35,0,0
94740,-100,4,1,1,30,0,0
94992,-100,4,1,1,25,0,0
95244,-100,4,2,1,20,0,0

[Colours]
Combo1 : 241,169,120
Combo2 : 234,209,111
Combo3 : 223,111,111
Combo4 : 196,163,149

[HitObjects]
464,192,8522,6,0,P|380:192|276:288,1,220,4|0,0:0|0:0,0:0:0:0:
200,352,10034,1,8,0:0:0:0:
120,277,10539,2,0,P|84:237|108:65,1,220
200,52,12051,1,8,0:0:0:0:
308,40,12555,6,0,P|396:40|484:136,2,220,0|0|0,0:0|0:0|0:0,0:0:0:0:
256,136,15076,1,8,0:0:0:0:
184,220,15581,1,0,0:0:0:0:
256,304,16085,1,8,0:0:0:0:
328,220,16589,6,0,L|388:120,1,110,4|8,0:0|0:0,0:0:0:0:
288,72,17597,2,0,L|231:166,1,110,0|8,0:0|0:0,0:0:0:0:
172,260,18606,2,0,P|112:260|40:180,2,165,0|0|8,0:0|0:0|0:0,0:0:0:0:
256,188,20623,5,0,0:0:0:0:
328,104,21127,2,0,P|384:104|444:136,1,110,8|0,0:0|0:0,0:0:0:0:
460,232,22135,1,8,0:0:0:0:
396,320,22639,2,0,P|344:328|232:272,2,165,0|0|8,0:0|0:0|0:0,0:0:0:0:
428,216,24656,6,0,L|336:144,1,110,0|8,0:0|0:0,0:0:0:0:
256,80,25665,1,0,0:0:0:0:
170,148,26169,1,8,0:0:0:0:
176,256,26673,2,0,B|216:256|256:280|256:280|296:256|336:256,2,165,0|0|8,0:0|0:0|0:0,0:0:0:0:
96,180,28690,6,0,L|180:88,1,110,0|8,0:0|0:0,0:0:0:0:
256,28,29698,1,0,0:0:0:0:
341,98,30202,1,8,0:0:0:0:
424,168,30707,2,0,P|436:220|412:292,1,110,0|8,0:0|0:0,0:0:0:0:
328,328,31715,2,0,P|316:276|340:204,1,110,0|8,0:0|0:0,0:0:0:0:
256,192,32723,12,0,36757,0:0:0:0:
56,192,40791,6,0,L|176:308,2,165,4|0|8,0:0|0:0|0:0,0:0:0:0:
132,116,42807,2,0,L|252:232,2,165,0|0|8,0:0|0:0|0:0,0:0:0:0:
208,36,44824,6,0,L|392:36,2,165,0|0|8,0:0|0:0|0:0,0:0:0:0:
208,148,46841,2,0,L|392:148,2,165,0|0|8,0:0|0:0|0:0,0:0:0:0:
108,188,48858,6,0,P|108:240|196:316,2,165,4|0|8,0:0|0:0|0:0,0:0:0:0:
216,212,50875,2,0,P|216:160|128:84,2,165,0|0|8,0:0|0:0|0:0,0:0:0:0:
284,300,52891,6,0,P|340:300|440:236,2,165,0|0|8,0:0|0:0|0:0,0:0:0:0:
256,192,54908,12,2,56799,0:0:0:0:
428,292,58942,6,0,P|372:316|308:300,1,110,4|8,0:0|0:0,0:0:0:0:
256,224,59950,1,0,0:0:0:0:
187,308,60455,1,8,0:0:0:0:
76,312,60959,2,0,P|40:264|48:156,2,165,0|0|8,0:0|0:0|0:0,0:0:0:0:
136,220,62976,6,0,P|156:160|144:112,1,110,0|8,0:0|0:0,0:0:0:0:
200,20,63984,2,0,L|324:20,1,110,0|8,0:0|0:0,0:0:0:0:
366,115,64992,2,0,P|356:169|376:220,1,110,0|8,0:0|0:0,0:0:0:0:
476,268,66001,2,0,P|485:214|466:163,1,110,0|8,0:0|0:0,0:0:0:0:
366,115,67009,6,0,B|272:115|272:115|240:107|240:107|138:107,1,220,4|0,0:0|0:0,0:0:0:0:
76,192,68522,1,8,0:0:0:0:
147,276,69026,2,0,B|224:276|224:276|240:272|240:272|324:272,2,165,0|0|8,0:0|0:0|0:0,0:0:0:0:
76,192,71043,6,0,L|168:96,1,110,0|8,0:0|0:0,0:0:0:0:
256,72,72051,1,0,0:0:0:0:
359,112,72555,1,8,0:0:0:0:
460,160,73060,2,0,B|460:240|460:240|400:316,2,165,0|0|8,0:0|0:0|0:0,0:0:0:0:
384,80,75076,6,0,B|256:184|256:184|121:75,1,330,4|8,0:0|0:0,0:0:0:0:
40,148,77093,2,0,P|20:208|72:308,2,165,0|0|8,0:0|0:0|0:0,0:0:0:0:
128,216,79110,6,0,B|216:216|256:304|256:304|296:216|400:216,1,330,4|8,0:0|0:0,0:0:0:0:
472,148,81127,2,0,P|492:208|440:308,2,165,0|0|8,0:0|0:0|0:0,0:0:0:0:
468,36,83144,6,0,L|308:328,1,330,4|8,0:0|0:0,0:0:0:0:
200,325,85160,2,0,P|144:325|56:249,2,165,0|0|8,0:0|0:0|0:0,0:0:0:0:
272,244,87177,6,0,B|302:195|302:195|302:135,1,110,4|8,0:0|0:0,0:0:0:0:
192,124,88186,2,0,B|162:173|162:173|162:233,1,110,0|8,0:0|0:0,0:0:0:0:
200,324,89194,1,0,0:0:0:0:
308,324,89698,2,0,B|368:324|368:324|420:292,2,110,8|0|8,0:0|0:0|0:0,0:0:0:0:
256,192,91211,12,2,95244,0:0:0:0:
