osu file format v13

[General]
AudioFilename: Prophecy (TV Size).mp3
AudioLeadIn: 0
PreviewTime: 56925
Countdown: 0
SampleSet: Normal
StackLeniency: 0.4
Mode: 0
LetterboxInBreaks: 0
WidescreenStoryboard: 0

[Editor]
Bookmarks: 8522,16589,30707,40791,54908
DistanceSpacing: 1
BeatDivisor: 4
GridSize: 4
TimelineZoom: 1.299999

[Metadata]
Title:Prophecy
TitleUnicode:Prophecy
Artist:Kawada Mami
ArtistUnicode:川田まみ
Creator:Citrus
Version:Easy
Source:Shakugan no Shana S
Tags:OVA opening LINKAGE Bless
BeatmapID:429820
BeatmapSetID:136827

[Difficulty]
HPDrainRate:3
CircleSize:3
OverallDifficulty:2
ApproachRate:3
SliderMultiplier:0.999999999999999
SliderTickRate:1

[Events]
//Background and Video events
0,0,"BG.jpg",0,0
Video,-140,"op.flv"
//Break Periods
//Storyboard Layer 0 (Background)
//Storyboard Layer 1 (Fail)
//Storyboard Layer 2 (Pass)
//Storyboard Layer 3 (Foreground)
//Storyboard Sound Samples

[TimingPoints]
455,504.201680672269,4,1,1,70,1,0
16589,-100,4,1,1,55,0,0
30707,-100,4,1,1,70,0,0
40791,-100,4,1,1,55,0,0
54908,-100,4,1,1,70,0,0
56925,-100,4,2,1,70,0,0
58438,-100,4,1,1,70,0,0
58942,-100,4,1,1,70,0,1
91715,-100,4,1,1,60,0,1
92219,-100,4,1,1,50,0,1
92723,-100,4,1,1,40,0,1
93228,-100,4,1,1,30,0,1
93732,-100,4,1,1,20,0,1
94236,-100,4,1,1,15,0,1
94740,-100,4,1,1,10,0,1
95244,-100,4,2,1,5,0,0

[Colours]
Combo1 : 192,192,192
Combo2 : 255,0,0
Combo3 : 255,128,255
Combo4 : 255,128,128

[HitObjects]
306,323,8522,6,0,P|224:239|341:253,1,300,4|8,0:0|0:0,0:0:0:0:
406,323,10539,1,0,0:0:0:0:
471,250,11043,2,0,P|484:204|470:156,2,99.9999999999999,8|0|8,0:0|0:0|0:0,0:0:0:0:
380,205,12555,6,0,B|320:213|288:177|288:177|256:213|196:205,1,200
96,196,14068,1,8,0:0:0:0:
28,123,14572,2,0,P|67:98|122:100,1,99.9999999999999,0|8,0:0|0:0,0:0:0:0:
220,116,15581,2,0,P|269:118|311:92,1,99.9999999999999,0|8,0:0|0:0,0:0:0:0:
388,28,16589,6,0,P|356:120|404:204,1,200,4|0,0:0|0:0,0:0:0:0:
484,264,18102,1,8,0:0:0:0:
392,303,18606,2,0,B|261:357|199:328|199:328|228:286|223:233,1,300,0|8,0:0|0:0,0:0:0:0:
149,164,20623,6,0,P|128:209|125:259,1,99.9999999999999,0|8,0:0|0:0,0:0:0:0:
27,237,21631,2,0,P|30:187|50:141,1,99.9999999999999,0|8,0:0|0:0,0:0:0:0:
118,69,22639,1,0,0:0:0:0:
149,164,23144,2,0,P|192:139|214:95,2,99.9999999999999,8|0|8,0:0|0:0|0:0,0:0:0:0:
50,142,24656,6,0,P|76:234|167:263,1,200,4|0,0:0|0:0,0:0:0:0:
267,248,26169,1,8,0:0:0:0:
347,188,26673,2,0,P|388:160|441:165,1,99.9999999999999,0|8,0:0|0:0,0:0:0:0:
413,261,27681,2,0,P|416:310|385:354,1,99.9999999999999,0|8,0:0|0:0,0:0:0:0:
316,281,28690,6,0,P|271:258|249:210,2,99.9999999999999,0|8|0,0:0|0:0|0:0,0:0:0:0:
413,261,30202,1,8,0:0:0:0:
432,164,30707,2,0,B|404:128|398:75|398:75|306:153|206:83,1,300,0|8,0:0|0:0,0:0:0:0:
124,40,32723,6,0,P|47:97|55:192,1,200,4|0,0:0|0:0,0:0:0:0:
143,140,34236,1,8,0:0:0:0:
156,240,34740,2,0,L|170:341,1,99.9999999999999,0|8,0:0|0:0,0:0:0:0:
265,309,35749,2,0,L|279:208,1,99.9999999999999,0|8,0:0|0:0,0:0:0:0:
375,240,36757,6,0,L|389:341,2,99.9999999999999,0|8|0,0:0|0:0|0:0,0:0:0:0:
360,140,38270,1,8,0:0:0:0:
284,72,38774,2,0,P|165:102|260:153,1,300,0|8,0:0|0:0,0:0:0:0:
360,140,40791,6,0,P|446:180|452:274,1,200,4|0,0:0|0:0,0:0:0:0:
400,360,42303,1,8,0:0:0:0:
304,336,42807,2,0,P|208:316|104:336,1,200
24,280,44320,1,8,0:0:0:0:
12,180,44824,6,0,L|112:192,1,99.9999999999999,0|8,0:0|0:0,0:0:0:0:
202,150,45832,1,0,0:0:0:0:
293,108,46337,1,8,0:0:0:0:
384,67,46840,5,0,0:0:0:0:
458,132,47345,2,0,P|368:166|293:108,1,200,8|8,0:0|0:0,0:0:0:0:
384,67,48858,6,0,L|353:264,1,200,4|0,0:0|0:0,0:0:0:0:
389,357,50370,1,8,0:0:0:0:
289,343,50875,2,0,B|197:275|93:342|93:342|110:296|84:256,1,300,0|8,0:0|0:0,0:0:0:0:
34,169,52891,6,0,P|22:121|39:75,1,99.9999999999999,0|8,0:0|0:0,0:0:0:0:
124,128,53900,2,0,P|208:176|292:128,1,200
376,77,55412,2,0,P|393:122|382:170,2,99.9999999999999,8|0|8,0:0|0:0|0:0,0:0:0:0:
291,130,56925,6,0,P|296:226|381:269,1,200,2|2,0:0|0:0,0:0:0:0:
480,267,58438,1,8,0:0:0:0:
484,168,58942,6,0,L|488:65,2,99.9999999999999,4|8|0,0:0|0:0|0:0,0:0:0:0:
480,267,60455,1,8,0:0:0:0:
404,332,60959,2,0,P|306:342|236:273,1,200
208,180,62471,1,8,0:0:0:0:
248,88,62976,6,0,P|289:116|307:162,2,99.9999999999999,0|8|0,0:0|0:0|0:0,0:0:0:0:
148,99,64488,1,8,0:0:0:0:
48,107,64992,2,0,L|36:208,1,99.9999999999999,0|8,0:0|0:0,0:0:0:0:
136,196,66001,2,0,L|148:296,1,99.9999999999999,0|8,0:0|0:0,0:0:0:0:
242,261,67009,6,0,P|326:309|418:273,1,200,4|0,0:0|0:0,0:0:0:0:
460,184,68522,1,8,0:0:0:0:
483,86,69026,1,0,0:0:0:0:
400,32,69530,2,0,B|344:22|302:45|302:45|275:147,1,200,8|8,0:0|0:0,0:0:0:0:
188,188,71043,6,0,L|160:76,2,99.9999999999999,0|8|0,0:0|0:0|0:0,0:0:0:0:
100,236,72555,1,8,0:0:0:0:
48,320,73060,2,0,P|91:336|147:321,1,99.9999999999999,0|8,0:0|0:0,0:0:0:0:
236,288,74068,2,0,P|279:271|335:286,1,99.9999999999999,0|8,0:0|0:0,0:0:0:0:
424,316,75076,5,4,0:0:0:0:
464,224,75581,1,8,0:0:0:0:
424,132,76085,2,0,P|450:94|450:36,2,99.9999999999999,0|8|0,0:0|0:0|0:0,0:0:0:0:
324,144,77597,2,0,P|236:104|148:144,1,200,8|8,0:0|0:0,0:0:0:0:
80,220,79110,5,0,0:0:0:0:
40,312,79614,2,0,B|84:318|115:349|115:349|151:304|215:301,1,200,8|8,0:0|0:0,0:0:0:0:
312,320,81127,2,0,P|360:332|408:312,1,99.9999999999999,0|8,0:0|0:0,0:0:0:0:
464,232,82135,2,0,P|476:184|456:135,1,99.9999999999999,0|8,0:0|0:0,0:0:0:0:
404,56,83144,5,4,0:0:0:0:
359,145,83648,2,0,B|307:149|275:185|275:185|183:131,1,200,8|8,0:0|0:0,0:0:0:0:
98,81,85160,2,0,P|82:124|97:180,1,99.9999999999999,0|8,0:0|0:0,0:0:0:0:
181,226,86169,2,0,P|197:183|182:127,1,99.9999999999999,0|8,0:0|0:0,0:0:0:0:
98,81,87177,6,0,P|192:108|280:67,1,200
368,20,88690,2,0,P|381:68|367:115,1,99.9999999999999,8|0,0:0|0:0,0:0:0:0:
281,66,89698,2,0,P|279:162|361:214,1,200,8|8,0:0|0:0,0:0:0:0:
458,223,91211,1,4,0:0:0:0:
256,192,91463,12,0,95244,0:0:0:0:
