osu file format v5

[General]
AudioFilename: Portamento.mp3
AudioLeadIn: 0
PreviewTime: -1
Countdown: 0
SampleSet: Soft
EditorBookmarks: 17507,35793,98029,136173

[Metadata]
Title:Portamento
Artist:Kawada Mami
Creator:James
Version:Normal

[Difficulty]
HPDrainRate:4
CircleSize:4
OverallDifficulty:4
SliderMultiplier:2
SliderTickRate:2

[Events]
//Background and Video events
1,-11000,"portamento.avi"
//Break Periods
2,89364,99271
//Storyboard Layer 0 (Background)
//Storyboard Layer 1 (Failing)
//Storyboard Layer 2 (Passing)
//Storyboard Layer 3 (Foreground)
//Storyboard Sound Samples
//Background Colour Transformations
3,100,0,0,0

[TimingPoints]
18600,571.369800000001,4,2,0,100
136620,571.2366,4,2,0,100

[Colours]
Combo1 : 3,141,182
Combo2 : 190,232,252
Combo3 : 122,215,250
Combo4 : 9,176,225

[HitObjects]
40,40,36598,1,0
96,40,36883,1,2
152,40,37169,1,0
200,40,37455,2,2,B|328:40,1,100
352,40,38026,1,2
416,40,38312,1,2
464,128,38883,1,0
408,128,39169,1,2
352,128,39454,1,0
296,128,39740,1,2
240,128,40026,2,2,B|104:128,1,100
88,128,40597,1,0
40,216,41169,5,0
88,216,41454,1,2
136,216,41740,1,0
184,216,42026,1,2
232,216,42311,1,2
280,216,42597,2,0,B|416:216,1,100
432,304,43454,2,2,B|380:340|272:248|208:320,1,200
192,312,44311,1,0
144,296,44597,1,2
344,96,45740,6,2,B|456:96,6,100
96,184,48025,6,2,B|96:296,6,100
288,272,50311,6,0,B|408:272,2,100
256,192,51453,12,2,54025
464,112,54881,2,0,B|328:112,1,100
312,112,55453,2,0,B|192:112,1,100
160,112,56024,2,2,B|48:112,2,100
48,272,57167,2,0,B|184:272,1,100
200,272,57739,2,0,B|320:272,1,100
352,272,58310,2,2,B|464:272,2,100
96,64,59452,5,0
120,104,59738,1,2
160,128,60024,1,0
208,136,60309,1,2
256,128,60595,1,0
336,72,61167,1,2
256,136,61738,2,2,B|178:204|213:270|264:320,1,200
288,344,62595,1,0
336,360,62881,1,2
112,160,63452,6,2,B|248:160,8,100
48,40,66309,5,2
96,40,66595,1,0
152,40,66880,2,2,B|264:40,1,100
304,40,67452,1,0
360,40,67737,2,2,B|496:40,1,100
256,192,68594,12,4,72880
56,160,73451,2,0,B|166:101|219:211|352:216|448:144,2,400
96,248,76308,1,0
192,224,76879,1,0
232,248,77165,1,2
280,248,77451,1,0
328,232,77736,1,2
360,192,78022,2,0,B|418:64|248:32,1,200
232,40,78879,1,2
184,48,79165,1,0
144,72,79450,1,2
352,288,80022,6,0,B|248:240|144:296,3,200
416,72,82593,5,0
312,72,83164,1,0
208,72,83736,1,0
128,136,84307,1,2
96,176,84593,1,0
64,216,84878,1,0
152,264,85450,1,0
240,224,86021,1,0
328,264,86593,1,2
376,248,86878,1,0
424,232,87164,1,0
472,216,87450,1,2
368,160,88021,5,0
320,144,88307,1,2
272,136,88592,1,0
224,144,88878,1,2
176,160,89164,1,0
88,104,100591,6,2,B|224:104,1,100
200,152,101162,2,0,B|312:152,1,100
320,192,101734,2,2,B|448:192,2,100
304,96,102877,2,2,B|168:96,1,100
184,144,103448,2,2,B|296:144,1,100
264,192,104019,2,2,B|136:192,2,100
344,256,105162,2,2,B|208:256,1,100
232,208,105733,2,2,B|120:208,1,100
120,160,106304,2,2,B|-8:160,2,100
144,64,107448,2,0,B|236:44|368:64,1,200
336,112,108305,2,2,B|284:104|216:112,1,100
112,280,109162,6,0,B|232:280,8,100
448,88,112018,5,0
400,88,112304,1,2
352,88,112590,1,0
304,88,112876,2,2,B|88:88,1,200
56,88,113733,1,2
128,152,114304,1,2
168,176,114590,1,0
208,200,114875,1,2
288,256,115447,1,2
328,224,115732,1,0
360,184,116018,2,2,B|440:88,2,100
88,120,119161,6,0,B|160:80|208:152|288:96,4,200
128,144,121732,1,0
160,176,122017,1,2
176,224,122303,1,0
160,272,122589,1,0
128,312,122874,1,0
80,328,123160,1,2
32,328,123446,1,0
80,304,123732,2,0,B|224:264|312:280|496:320,1,400
474,315,125160,1,0
384,128,125731,6,0,B|280:104|144:136,3,200
88,152,128017,6,0,B|184:248,2,100
128,120,128874,2,2,B|264:256,2,150
96,80,130017,1,2
144,80,130302,2,0,B|264:80,2,100
144,128,131159,2,2,B|344:128,2,150
96,128,132302,1,2
128,168,132588,1,0
160,200,132873,1,2
192,240,133159,1,0
256,192,133731,12,0,134873
48,192,136600,5,0
96,176,136905,1,0
144,184,137191,2,0,B|248:216|368:168,3,200
392,168,139190,1,0
432,192,139476,1,2
368,272,140047,1,0
272,232,140618,1,2
176,264,141189,1,0
136,168,141761,2,0,B|112:283|-16:304,3,200
48,320,143760,5,0
96,304,144046,2,0,B|192:272|304:320,4,200
64,264,146616,1,2
48,216,146902,5,0
72,168,147187,1,2
112,136,147473,5,0
160,128,147759,1,2
208,136,148044,1,0
248,160,148330,1,2
280,192,148615,2,0,B|280:329|448:336,1,200
448,336,149472,5,2
448,288,149758,6,0,B|465:127|336:104,1,200
328,96,150615,1,2
280,80,150900,2,0,B|208:36|166:122|72:64,1,200
40,48,151757,1,2
80,72,152043,2,0,B|144:106|184:208|80:264,1,200
80,280,152900,1,2
64,232,153185,2,2,B|48:93|190:11|368:112,1,400
432,280,154899,6,0,B|336:240|296:312|232:272,4,200
416,176,157755,1,0
320,152,158326,1,2
224,176,158898,1,0
128,144,159469,1,2
48,200,160040,2,0,B|168:224|184:336,4,200
120,128,162896,1,0
216,144,163468,1,2
304,104,164039,1,0
400,136,164610,1,2
408,232,165753,6,0,B|408:344,4,100
56,104,168038,6,0,B|168:104,4,100
256,192,170894,12,4,174035
376,80,175464,1,0
376,80,175749,1,2
376,80,176035,1,0
296,144,176606,1,2
200,112,177177,1,0
136,184,177749,1,2
216,240,178320,2,0,B|344:216|432:256,3,200
352,328,180605,1,0
272,264,181176,1,2
200,192,181747,1,0
120,128,182318,1,2
48,56,182890,1,0
80,296,184032,6,0,B|192:296,4,100
472,168,186317,6,0,B|352:168,1,100
320,168,186888,1,0
272,168,187174,1,0
224,168,187460,2,2,B|16:168,4,200
448,88,191458,5,0
400,72,191744,1,0
352,72,192029,1,0
304,72,192315,2,0,B|240:80|192:136,1,100
176,144,192886,1,2
152,184,193172,1,0
136,232,193458,2,0,B|208:256|216:344,1,100
216,344,194029,1,2
256,312,194314,2,0,B|356:264|464:312,4,200
208,296,196885,5,0
176,256,197171,1,0
152,208,197456,1,2
160,160,197742,1,0
192,120,198027,1,0
232,88,198313,1,0
280,80,198599,1,2
312,120,198884,2,2,B|339:232|496:216,4,200
256,192,201312,12,4,203740
256,344,204311,1,4
264,240,204882,1,4
224,216,205168,1,0
200,168,205454,1,4
224,128,205739,1,0
272,112,206025,1,4
312,136,206310,1,0
320,184,206596,1,4
296,232,206882,1,2
256,192,207024,12,4,210596
